osu file format v14

[General]
AudioFilename: audio.mp3
AudioLeadIn: 0
PreviewTime: 1282
Countdown: 0
SampleSet: Normal
StackLeniency: 0.7
Mode: 0
LetterboxInBreaks: 0
WidescreenStoryboard: 0

[Editor]
DistanceSpacing: 0.9
BeatDivisor: 4
GridSize: 32
TimelineZoom: 1

[Metadata]
Title:kibo refrain
TitleUnicode:希望リフレイン
Artist:Aoshima Moka (CV: Mimori Suzuko)
ArtistUnicode:青島萌香 (CV: 三森すずこ)
Creator:Sotarks
Version:Insane
Source:OneRoom
Tags:one_room extended tv size カントク kantoku ascendance akitoshi corinn
BeatmapID:1512179
BeatmapSetID:715596

[Difficulty]
HPDrainRate:5
CircleSize:4
OverallDifficulty:8.7
ApproachRate:9
SliderMultiplier:1.72
SliderTickRate:1

[Events]
//Background and Video events
0,0,"12121212.jpg",0,0
//Break Periods
//Storyboard Layer 0 (Background)
//Storyboard Layer 1 (Fail)
//Storyboard Layer 2 (Pass)
//Storyboard Layer 3 (Foreground)
//Storyboard Sound Samples

[TimingPoints]
1370,348.837209302326,4,1,22,62,1,0
12532,-100,4,1,22,52,0,0
18114,-100,4,1,22,62,0,0
23695,-100,4,1,22,72,0,0
28579,-100,4,1,22,62,0,0
30672,-100,4,1,22,52,0,0
36253,-100,4,2,22,12,0,0

[Colours]
Combo1 : 255,250,185
Combo2 : 111,234,255
Combo3 : 250,179,255

[HitObjects]
410,303,1370,5,14,0:0:0:0:
442,224,1544,1,0,0:0:0:0:
329,270,1718,1,10,0:0:0:0:
491,335,1893,1,0,0:0:0:0:
359,187,2067,1,10,0:0:0:0:
298,350,2242,1,0,0:0:0:0:
284,156,2416,1,10,0:0:0:0:
410,300,2590,1,2,0:0:0:0:
410,300,2678,1,0,0:0:0:0:
410,300,2765,6,0,L|293:258,1,86,8|0,0:0|0:0,0:0:0:0:
203,126,3114,2,0,L|283:155,1,86,8|0,0:0|0:0,0:0:0:0:
148,198,3463,1,10,0:0:0:0:
126,92,3637,1,0,0:0:0:0:
164,279,3811,1,10,0:0:0:0:
67,157,3986,1,0,0:0:0:0:
243,247,4160,5,10,0:0:0:0:
93,314,4335,1,2,0:0:0:0:
315,283,4509,2,0,L|417:273,1,86,10|0,0:0|0:0,0:0:0:0:
288,134,4858,2,0,L|186:124,1,86,10|0,0:0|0:0,0:0:0:0:
389,189,5207,1,10,0:0:0:0:
272,49,5381,1,2,0:0:0:0:
145,182,5556,5,8,0:0:0:0:
367,96,5730,1,0,0:0:0:0:
191,12,5904,1,8,0:0:0:0:
212,240,6079,1,0,0:0:0:0:
59,105,6253,2,0,P|9:144|-5:178,1,86,10|0,0:0|0:0,0:0:0:0:
105,314,6602,2,0,P|155:336|167:335,1,43,10|0,0:0|0:0,0:0:0:0:
225,361,6776,2,0,P|275:341|283:332,1,43,0|0,0:0|0:0,0:0:0:0:
318,272,6951,5,10,0:0:0:0:
212,240,7125,1,0,0:0:0:0:
365,200,7300,1,8,0:0:0:0:
265,349,7474,1,0,0:0:0:0:
173,160,7649,1,10,0:0:0:0:
405,296,7823,2,0,L|498:279,1,86,2|8,0:0|0:0,0:0:0:0:
334,118,8172,1,0,0:0:0:0:
334,118,8259,1,0,0:0:0:0:
334,118,8346,6,0,L|241:101,1,86,10|0,0:0|0:0,0:0:0:0:
88,175,8695,2,0,L|181:158,1,86,8|0,0:0|0:0,0:0:0:0:
19,107,9044,1,10,0:0:0:0:
61,270,9218,2,0,L|54:360,1,86,2|8,0:0|0:0,0:0:0:0:
172,159,9567,1,0,0:0:0:0:
137,351,9742,5,10,0:0:0:0:
41,186,9916,1,0,0:0:0:0:
201,295,10090,1,8,0:0:0:0:
158,77,10265,1,0,0:0:0:0:
257,233,10439,1,8,0:0:0:0:
100,129,10614,1,0,0:0:0:0:
217,16,10788,1,8,0:0:0:0:
188,186,10963,1,2,0:0:0:0:
188,186,11050,1,0,0:0:0:0:
188,186,11137,6,0,P|236:151|282:154,1,86,10|2,0:0|0:0,0:0:0:0:
329,269,11486,2,0,P|281:234|235:237,1,86,10|0,0:0|0:0,0:0:0:0:
405,343,11835,2,0,L|411:240,1,86,8|0,0:0|0:0,0:0:0:0:
483,118,12183,1,10,0:0:0:0:
440,109,12270,1,8,0:0:0:0:
398,101,12357,1,8,0:0:0:0:
356,93,12444,1,8,0:0:0:0:
314,84,12531,5,6,3:0:0:0:
409,15,12707,1,6,3:0:0:0:
385,183,12881,2,0,L|372:283,1,86,10|0,0:0|0:0,0:0:0:0:
238,136,13230,2,0,L|226:50,1,86,4|0,3:0|0:0,0:0:0:0:
150,232,13579,1,10,0:0:0:0:
37,61,13753,6,0,L|27:266,1,172,6|0,0:0|0:0,0:0:0:0:
158,317,14276,2,0,L|147:206,1,86,8|0,0:0|2:0,0:0:0:0:
284,135,14625,2,0,L|275:220,1,86,2|0,0:0|2:0,0:0:0:0:
402,306,14974,2,0,L|393:220,1,86,8|0,0:0|0:0,0:0:0:0:
405,197,15236,1,0,0:0:0:0:
405,197,15323,5,6,1:0:0:0:
311,321,15497,1,6,1:0:0:0:
491,295,15672,1,8,0:0:0:0:
318,224,15846,2,0,L|259:218,1,43,0|0,2:0|0:0,0:0:0:0:
143,309,16021,2,0,L|246:291,1,86,2|0,0:0|0:0,0:0:0:0:
107,140,16370,1,10,0:0:0:0:
45,353,16544,6,0,L|29:156,1,172,6|0,0:0|0:0,0:0:0:0:
192,84,17067,2,0,L|188:202,1,86,8|0,0:0|0:0,0:0:0:0:
114,32,17416,2,0,P|158:12|168:13,1,43,0|0,0:0|0:0,0:0:0:0:
229,10,17590,2,0,P|249:16|266:29,1,43,0|0,0:0|0:0,0:0:0:0:
301,102,17765,1,8,0:0:0:0:
301,127,17852,1,8,0:0:0:0:
301,153,17939,1,8,0:0:0:0:
301,179,18026,1,8,0:0:0:0:
300,208,18114,6,0,B|280:290|332:250|309:367,1,129,4|0,1:0|0:0,0:0:0:0:
314,333,18463,2,0,P|252:308|180:318,1,129,8|0,0:0|0:0,0:0:0:0:
191,313,18811,1,2,0:0:0:0:
110,168,18986,1,2,0:0:0:0:
114,351,19160,2,0,P|111:291|177:234,1,129,8|0,0:0|2:0,0:0:0:0:
154,241,19509,6,0,P|188:201|185:138,1,86,2|0,0:0|0:0,0:0:0:0:
96,39,19858,2,0,L|112:187,1,129,8|0,0:0|0:0,0:0:0:0:
109,167,20207,1,2,0:0:0:0:
238,94,20381,1,2,0:0:0:0:
382,217,20556,2,0,P|328:220|287:145,1,129,8|0,0:0|2:2,0:0:0:0:
286,164,20904,6,0,P|320:102|275:20,2,172,10|8|8,0:0|0:0|0:0,0:0:0:0:
238,94,21776,1,0,0:0:0:0:
223,221,21951,1,8,0:0:0:0:
160,79,22125,1,2,0:0:0:0:
138,221,22300,6,0,L|137:271,2,43,10|8|8,0:0|0:0|0:0,0:0:0:0:
76,95,22649,2,0,L|75:52,2,43,10|8|8,0:0|0:0|0:0,0:0:0:0:
60,251,22997,2,0,P|66:307|71:315,1,43,10|8,0:0|0:0,0:0:0:0:
213,289,23172,2,0,P|216:267|213:246,1,43,10|0,0:0|0:0,0:0:0:0:
138,192,23346,1,10,0:0:0:0:
185,364,23521,1,8,0:0:0:0:
185,364,23608,1,0,0:0:0:0:
185,364,23695,6,0,P|232:370|274:335,1,86,12|0,0:0|0:0,0:0:0:0:
266,193,24044,2,0,P|230:170|187:174,1,86,8|0,0:0|0:0,0:0:0:0:
308,272,24393,1,10,0:0:0:0:
309,107,24567,1,2,0:0:0:0:
213,246,24742,1,8,0:0:0:0:
390,296,24916,1,2,0:0:0:0:
397,107,25090,6,0,L|395:215,1,86,10|0,0:0|0:0,0:0:0:0:
216,107,25439,2,0,L|214:21,1,86,10|0,0:0|0:0,0:0:0:0:
98,151,25788,1,10,0:0:0:0:
309,107,25963,1,0,0:0:0:0:
90,64,26137,1,8,0:0:0:0:
99,249,26311,1,0,0:0:0:0:
317,196,26486,6,0,L|217:224,1,86,10|0,0:0|0:0,0:0:0:0:
139,329,26835,2,0,L|239:357,1,86,10|0,0:0|0:0,0:0:0:0:
136,162,27183,1,10,0:0:0:0:
28,335,27358,1,0,0:0:0:0:
287,288,27532,1,10,0:0:0:0:
90,235,27707,1,0,0:0:0:0:
313,207,27881,6,0,P|368:258|343:356,1,172,8|8,0:0|0:0,0:0:0:0:
287,288,28404,1,0,0:0:0:0:
336,127,28579,2,0,B|309:76|258:60|258:60|193:94,1,172,10|2,0:0|0:0,0:0:0:0:
167,172,29102,1,0,0:0:0:0:
73,51,29276,6,0,L|63:115,2,57.3333333333333,0|0|0,0:0|0:0|0:0,0:0:0:0:
41,183,29625,2,0,L|49:239,2,57.3333333333333,8|0|0,0:0|0:0|0:0,0:0:0:0:
117,293,29974,1,10,0:0:0:0:
167,172,30149,1,0,0:0:0:0:
224,299,30323,1,10,0:0:0:0:
277,175,30497,1,0,0:0:0:0:
79,370,30672,5,6,0:0:0:0:
256,192,30759,12,0,36253,0:0:0:0:
