osu file format v14

[General]
AudioFilename: audio.mp3
AudioLeadIn: 0
PreviewTime: 1282
Countdown: 0
SampleSet: Normal
StackLeniency: 0.7
Mode: 0
LetterboxInBreaks: 0
WidescreenStoryboard: 0

[Editor]
DistanceSpacing: 1.1
BeatDivisor: 4
GridSize: 32
TimelineZoom: 1

[Metadata]
Title:kibo refrain
TitleUnicode:希望リフレイン
Artist:Aoshima Moka (CV: Mimori Suzuko)
ArtistUnicode:青島萌香 (CV: 三森すずこ)
Creator:Sotarks
Version:Hard
Source:OneRoom
Tags:one_room extended tv size カントク kantoku ascendance akitoshi corinn
BeatmapID:1512178
BeatmapSetID:715596

[Difficulty]
HPDrainRate:4.5
CircleSize:3.5
OverallDifficulty:6
ApproachRate:7.5
SliderMultiplier:1.72
SliderTickRate:1

[Events]
//Background and Video events
0,0,"12121212.jpg",0,0
//Break Periods
//Storyboard Layer 0 (Background)
//Storyboard Layer 1 (Fail)
//Storyboard Layer 2 (Pass)
//Storyboard Layer 3 (Foreground)
//Storyboard Sound Samples

[TimingPoints]
1370,348.837209302326,4,1,22,62,1,0
12532,-100,4,1,22,52,0,0
18114,-100,4,1,22,62,0,0
23695,-100,4,1,22,72,0,0
28579,-100,4,1,22,62,0,0
30672,-100,4,1,22,52,0,0
36253,-100,4,2,22,12,0,0

[Colours]
Combo1 : 255,250,185
Combo2 : 111,234,255
Combo3 : 250,179,255

[HitObjects]
159,63,1370,6,0,P|211:81|230:130,1,86,14|0,0:0|0:0,0:0:0:0:
254,195,1718,2,0,P|280:228|321:237,1,86,10|0,0:0|0:0,0:0:0:0:
398,181,2067,2,0,L|408:354,1,172,10|10,0:0|0:0,0:0:0:0:
314,337,2590,1,2,0:0:0:0:
314,337,2678,1,0,0:0:0:0:
314,337,2765,6,0,L|223:321,1,86,8|0,0:0|0:0,0:0:0:0:
202,231,3114,2,0,L|117:245,1,86,8|0,0:0|0:0,0:0:0:0:
49,311,3463,2,0,P|66:228|40:135,1,172,10|10,0:0|0:0,0:0:0:0:
0,60,3986,1,0,0:0:0:0:
93,70,4160,5,10,0:0:0:0:
93,70,4335,1,2,0:0:0:0:
137,153,4509,2,0,P|171:125|183:71,1,86,10|0,0:0|0:0,0:0:0:0:
273,24,4858,2,0,L|287:227,1,172,10|10,0:0|0:0,0:0:0:0:
245,281,5381,1,2,0:0:0:0:
339,262,5556,6,0,P|384:274|415:307,1,86,8|0,0:0|0:0,0:0:0:0:
489,353,5904,2,0,L|496:267,1,86,8|0,0:0|0:0,0:0:0:0:
482,173,6253,2,0,P|435:180|396:166,1,86,10|0,0:0|0:0,0:0:0:0:
334,98,6602,2,0,P|293:85|251:93,1,86,10|0,0:0|0:0,0:0:0:0:
169,45,6951,6,0,P|156:103|229:188,1,172,10|8,0:0|0:0,0:0:0:0:
316,190,7474,1,0,0:0:0:0:
262,268,7649,1,10,0:0:0:0:
262,268,7823,2,0,L|270:362,2,86,2|8|0,0:0|0:0|0:0,0:0:0:0:
308,184,8346,6,0,P|359:172|451:250,1,172,10|8,0:0|0:0,0:0:0:0:
357,271,8870,1,0,0:0:0:0:
262,268,9044,1,10,0:0:0:0:
262,268,9218,2,0,L|160:279,2,86,2|8|0,0:0|0:0|0:0,0:0:0:0:
308,184,9742,6,0,P|312:141|312:83,1,86,10|0,0:0|0:0,0:0:0:0:
231,50,10090,2,0,P|230:92|226:135,1,86,8|0,0:0|0:0,0:0:0:0:
142,180,10439,2,0,P|146:137|146:79,1,86,8|0,0:0|0:0,0:0:0:0:
65,46,10788,2,0,P|64:88|58:136,1,86,8|2,0:0|0:0,0:0:0:0:
25,220,11137,5,10,0:0:0:0:
83,293,11311,1,2,0:0:0:0:
83,293,11399,1,0,0:0:0:0:
83,293,11486,2,0,P|134:289|184:328,1,86,10|0,0:0|0:0,0:0:0:0:
207,219,11835,2,0,P|245:252|253:315,1,86,8|0,0:0|0:0,0:0:0:0:
323,351,12183,2,0,L|328:308,3,43,10|8|8|8,0:0|0:0|0:0|0:0,0:0:0:0:
363,340,12532,6,0,L|373:239,1,86,6|6,3:0|3:0,0:0:0:0:
455,299,12881,2,0,L|465:198,1,86,10|0,0:0|0:0,0:0:0:0:
501,126,13230,2,0,P|442:136|343:71,1,172,4|10,3:0|0:0,0:0:0:0:
260,46,13753,6,0,B|304:82|304:82|285:232,1,172,6|0,0:0|0:0,0:0:0:0:
345,272,14276,2,0,P|270:288|199:218,1,172,8|2,0:0|0:0,0:0:0:0:
175,138,14800,1,0,2:0:0:0:
97,191,14974,2,0,P|78:143|97:92,1,86,8|0,0:0|0:0,0:0:0:0:
154,45,15323,5,6,1:0:0:0:
154,45,15497,1,6,1:0:0:0:
175,138,15672,2,0,L|287:125,1,86,8|0,0:0|2:0,0:0:0:0:
302,43,16021,2,0,L|387:52,1,86,2|0,0:0|0:0,0:0:0:0:
458,115,16370,1,10,0:0:0:0:
370,149,16544,6,0,P|330:207|345:319,1,172,6|0,0:0|0:0,0:0:0:0:
246,335,17067,2,0,P|220:284|171:262,1,86,8|0,0:0|0:0,0:0:0:0:
104,245,17416,2,0,L|69:201,3,43,0|0|0|0,0:0|0:0|0:0|0:0,0:0:0:0:
124,206,17765,2,0,L|89:162,3,43,8|8|8|8,0:0|0:0|0:0|0:0,0:0:0:0:
143,162,18114,6,0,P|193:120|227:123,1,86,4|0,1:0|0:0,0:0:0:0:
298,155,18463,2,0,P|373:172|440:96,1,172,8|2,0:0|0:0,0:0:0:0:
349,73,18986,1,2,0:0:0:0:
298,155,19160,2,0,L|305:274,1,86,8|0,0:0|0:0,0:0:0:0:
220,291,19509,6,0,L|210:108,2,172,2|8|2,0:0|0:0|0:0,0:0:0:0:
147,352,20381,1,2,0:0:0:0:
117,261,20556,2,0,P|106:210|80:176,1,86,8|0,0:0|0:0,0:0:0:0:
121,94,20904,6,0,P|41:86|0:-4,2,172,10|8|8,0:0|0:0|0:0,0:0:0:0:
210,119,21776,1,0,0:0:0:0:
283,58,21951,1,8,0:0:0:0:
371,91,22125,1,2,0:0:0:0:
299,153,22300,5,10,0:0:0:0:
299,153,22387,1,8,0:0:0:0:
299,153,22474,1,8,0:0:0:0:
379,202,22649,2,0,L|406:143,2,43,10|8|8,0:0|0:0|0:0,0:0:0:0:
442,271,22997,2,0,L|469:212,3,43,10|8|10|8,0:0|0:0|0:0|0:0,0:0:0:0:
442,271,23346,2,0,P|367:297|357:294,1,86,10|8,0:0|0:0,0:0:0:0:
285,244,23695,6,0,P|232:242|192:269,1,86,12|0,0:0|0:0,0:0:0:0:
176,347,24044,2,0,P|229:349|269:322,1,86,8|0,0:0|0:0,0:0:0:0:
203,256,24393,1,10,0:0:0:0:
110,276,24567,2,0,L|93:184,2,86,2|8|2,0:0|0:0|0:0,0:0:0:0:
18,250,25090,6,0,P|-3:192|13:151,1,86,10|0,0:0|0:0,0:0:0:0:
78,111,25439,2,0,P|97:148|94:190,1,86,10|0,0:0|0:0,0:0:0:0:
180,151,25788,2,0,L|286:146,1,86,10|0,0:0|0:0,0:0:0:0:
321,223,26137,2,0,L|406:227,1,86,8|0,0:0|0:0,0:0:0:0:
473,158,26486,6,0,P|502:218|448:317,2,172,10|10|10,0:0|0:0|0:0,0:0:0:0:
394,104,27358,1,0,0:0:0:0:
309,146,27532,2,0,P|252:147|207:117,1,86,10|0,0:0|0:0,0:0:0:0:
169,59,27881,6,0,L|177:238,1,172,8|8,0:0|0:0,0:0:0:0:
137,317,28404,1,0,0:0:0:0:
137,317,28579,2,0,P|191:264|299:273,1,172,2|2,0:0|0:0,0:0:0:0:
362,316,29102,1,0,0:0:0:0:
362,316,29276,6,0,L|365:383,2,57.3333333333333,0|0|0,0:0|0:0|0:0,0:0:0:0:
398,264,29625,2,0,L|400:206,2,57.3333333333333,8|0|0,0:0|0:0|0:0,0:0:0:0:
454,293,29974,2,0,L|552:309,2,86,8|0|8,0:0|0:0|0:0,0:0:0:0:
474,194,30497,1,8,0:0:0:0:
410,123,30672,5,6,0:0:0:0:
256,192,30759,12,0,36253,0:0:0:0:
