osu file format v14

[General]
AudioFilename: audio.mp3
AudioLeadIn: 0
PreviewTime: 1282
Countdown: 0
SampleSet: Normal
StackLeniency: 0.7
Mode: 2
LetterboxInBreaks: 0
WidescreenStoryboard: 1

[Editor]
DistanceSpacing: 0.9
BeatDivisor: 4
GridSize: 32
TimelineZoom: 1

[Metadata]
Title:kibo refrain
TitleUnicode:希望リフレイン
Artist:Aoshima Moka (CV: Mimori Suzuko)
ArtistUnicode:青島萌香 (CV: 三森すずこ)
Creator:Sotarks
Version:Ascendance's Rain
Source:OneRoom
Tags:one_room extended tv size カントク kantoku ascendance akitoshi corinn
BeatmapID:1512844
BeatmapSetID:715596

[Difficulty]
HPDrainRate:6
CircleSize:4
OverallDifficulty:9
ApproachRate:9
SliderMultiplier:1.92
SliderTickRate:2

[Events]
//Background and Video events
0,0,"12121212.jpg",0,0
//Break Periods
//Storyboard Layer 0 (Background)
//Storyboard Layer 1 (Fail)
//Storyboard Layer 2 (Pass)
//Storyboard Layer 3 (Foreground)
//Storyboard Sound Samples

[TimingPoints]
1370,348.837209302326,4,1,22,62,1,0
12532,-100,4,1,22,52,0,0
18114,-100,4,1,22,62,0,0
23695,-100,4,1,22,72,0,0
28579,-100,4,1,22,62,0,0
30672,-100,4,1,22,52,0,0
36253,-100,4,2,22,12,0,0

[Colours]
Combo1 : 255,250,185
Combo2 : 111,234,255
Combo3 : 250,179,255

[HitObjects]
151,320,1370,6,0,L|127:217,1,96,14|0,0:0|0:0,0:0:0:0:
286,103,1718,2,0,L|266:211,1,96,10|0,0:0|0:0,0:0:0:0:
134,135,2067,2,0,L|8:161,2,96,10|0|10,0:0|0:0|0:0,0:0:0:0:
276,202,2590,2,0,L|287:148,1,48,2|0,0:0|0:0,0:0:0:0:
82,62,2765,6,0,L|188:46,1,96,8|0,0:0|0:0,0:0:0:0:
327,83,3114,2,0,L|430:66,1,96,8|0,0:0|0:0,0:0:0:0:
181,282,3463,2,0,L|173:172,1,96,10|0,0:0|0:0,0:0:0:0:
326,203,3811,2,0,L|430:183,1,96,10|0,0:0|0:0,0:0:0:0:
52,87,4160,6,0,L|169:102,1,96,10|2,0:0|0:0,0:0:0:0:
310,176,4509,2,0,L|109:204,1,192,10|10,0:0|0:0,0:0:0:0:
277,282,5032,2,0,L|391:299,1,96,0|10,0:0|0:0,0:0:0:0:
134,352,5381,6,0,P|84:280|168:199,1,192,2|0,0:0|0:0,0:0:0:0:
257,241,5904,2,0,L|268:133,1,96,8|0,0:0|0:0,0:0:0:0:
124,146,6253,2,0,L|59:151,2,48,10|0|0,0:0|0:0|0:0,0:0:0:0:
270,206,6602,1,10,0:0:0:0:
310,167,6689,1,0,0:0:0:0:
304,120,6776,1,0,0:0:0:0:
255,89,6863,1,0,0:0:0:0:
86,208,6951,6,0,L|68:107,1,96,10|0,0:0|0:0,0:0:0:0:
216,133,7300,2,0,L|330:113,1,96,8|0,0:0|0:0,0:0:0:0:
40,39,7649,2,0,L|145:53,1,96,10|2,0:0|0:0,0:0:0:0:
246,135,7997,2,0,L|143:148,1,96,8|0,0:0|0:0,0:0:0:0:
439,327,8346,6,0,P|493:253|405:190,1,192,10|8,0:0|0:0,0:0:0:0:
314,190,8870,1,0,0:0:0:0:
58,134,9044,2,0,L|192:134,1,96,10|2,0:0|0:0,0:0:0:0:
21,219,9393,2,0,L|122:219,1,96,8|0,0:0|0:0,0:0:0:0:
451,300,9742,6,0,L|253:299,2,192,10|8|8,0:0|0:0|0:0,0:0:0:0:
335,232,10614,2,0,L|210:232,1,96,0|8,0:0|0:0,0:0:0:0:
361,194,10963,2,0,L|411:192,1,48,2|0,0:0|0:0,0:0:0:0:
191,342,11137,5,10,0:0:0:0:
153,312,11224,1,0,0:0:0:0:
140,267,11311,1,2,0:0:0:0:
155,222,11398,1,0,0:0:0:0:
193,195,11485,1,10,0:0:0:0:
346,246,11660,1,0,0:0:0:0:
348,198,11747,1,0,0:0:0:0:
294,160,11834,1,8,0:0:0:0:
450,175,12009,1,0,0:0:0:0:
483,141,12096,1,0,0:0:0:0:
489,94,12183,1,10,0:0:0:0:
467,53,12270,1,8,0:0:0:0:
424,34,12357,1,8,0:0:0:0:
185,34,12532,6,0,L|78:34,1,96,6|6,3:0|3:0,0:0:0:0:
340,161,12881,2,0,L|465:162,1,96,10|0,0:0|0:0,0:0:0:0:
298,114,13230,2,0,L|178:115,2,96,4|0|10,3:0|0:0|0:0,0:0:0:0:
50,315,13753,6,0,P|34:227|140:168,1,192,6|0,0:0|0:0,0:0:0:0:
229,230,14276,2,0,L|243:122,1,96,8|0,0:0|2:0,0:0:0:0:
122,68,14625,2,0,L|237:52,1,96,2|0,0:0|2:0,0:0:0:0:
381,86,14974,2,0,L|485:72,1,96,8|0,0:0|0:0,0:0:0:0:
431,49,15236,1,0,0:0:0:0:
155,305,15323,6,0,L|148:196,1,96,6|6,1:0|1:0,0:0:0:0:
271,246,15672,2,0,L|386:232,1,96,8|0,0:0|2:0,0:0:0:0:
58,92,16021,2,0,L|166:102,2,96,2|0|10,0:0|0:0|0:0,0:0:0:0:
344,167,16544,6,0,L|108:187,1,192,6|0,0:0|0:0,0:0:0:0:
327,261,17067,2,0,L|455:282,1,96,8|0,0:0|0:0,0:0:0:0:
117,323,17416,1,0,0:0:0:0:
72,305,17503,1,0,0:0:0:0:
39,271,17590,1,0,0:0:0:0:
22,226,17677,1,0,0:0:0:0:
24,178,17764,1,8,0:0:0:0:
45,136,17852,1,8,0:0:0:0:
81,105,17939,1,8,0:0:0:0:
127,91,18026,1,8,0:0:0:0:
411,258,18114,6,0,P|463:194|382:122,1,192,4|8,1:0|0:0,0:0:0:0:
258,77,18637,2,0,L|268:152,1,48,0|0,0:0|0:0,0:0:0:0:
455,192,18811,1,2,0:0:0:0:
331,203,18985,1,2,0:0:0:0:
210,217,19159,1,8,0:0:0:0:
334,209,19335,1,0,0:0:0:0:
61,323,19509,6,0,P|32:244|132:152,1,192,2|8,0:0|0:0,0:0:0:0:
219,140,20032,2,0,L|307:141,1,48
89,268,20207,1,0,0:0:0:0:
80,145,20381,1,2,0:0:0:0:
217,82,20556,2,0,L|102:83,1,96,8|0,0:0|0:0,0:0:0:0:
429,302,20904,6,0,L|453:201,1,96,10|0,0:0|0:0,0:0:0:0:
299,189,21253,2,0,L|275:89,1,96,8|0,0:0|0:0,0:0:0:0:
429,46,21602,1,8,0:0:0:0:
274,93,21776,1,0,0:0:0:0:
226,91,21863,1,0,0:0:0:0:
178,89,21950,1,8,0:0:0:0:
312,146,22125,1,2,0:0:0:0:
43,325,22300,5,10,0:0:0:0:
7,284,22387,1,8,0:0:0:0:
10,237,22474,1,8,0:0:0:0:
52,203,22561,1,0,0:0:0:0:
219,207,22649,1,8,0:0:0:0:
255,166,22736,1,8,0:0:0:0:
252,119,22823,1,10,0:0:0:0:
209,85,22910,1,0,0:0:0:0:
59,85,22997,6,0,L|7:86,2,48,10|8|10,0:0|0:0|0:0,0:0:0:0:
373,93,23346,2,0,L|455:93,1,48,10|0,0:0|0:0,0:0:0:0:
376,105,23521,2,0,L|325:105,1,48,8|0,0:0|0:0,0:0:0:0:
77,242,23695,6,0,L|64:131,1,96,12|0,0:0|0:0,0:0:0:0:
196,80,24044,2,0,L|80:58,1,96,8|0,0:0|0:0,0:0:0:0:
445,330,24393,1,10,0:0:0:0:
501,256,24567,1,2,0:0:0:0:
480,166,24741,1,8,0:0:0:0:
397,125,24916,1,2,0:0:0:0:
118,150,25090,6,0,L|232:150,1,96,10|0,0:0|0:0,0:0:0:0:
359,199,25439,2,0,L|463:199,1,96,10|0,0:0|0:0,0:0:0:0:
118,150,25788,2,0,L|232:150,1,96,10|0,0:0|0:0,0:0:0:0:
359,199,26137,2,0,L|463:199,1,96,8|0,0:0|0:0,0:0:0:0:
77,332,26486,6,0,L|60:216,1,96,10|0,0:0|0:0,0:0:0:0:
196,253,26835,2,0,L|301:243,1,96,10|0,0:0|0:0,0:0:0:0:
441,318,27183,2,0,L|459:199,1,96,10|0,0:0|0:0,0:0:0:0:
332,143,27532,2,0,L|439:130,1,96,10|0,0:0|0:0,0:0:0:0:
98,39,27881,6,0,P|33:99|87:215,1,192,8|8,0:0|0:0,0:0:0:0:
147,248,28404,1,0,0:0:0:0:
414,345,28579,2,0,P|479:285|425:169,1,192,2|2,0:0|0:0,0:0:0:0:
334,160,29102,1,0,0:0:0:0:
103,156,29276,6,0,L|31:156,2,64,0|0|0,0:0|0:0|0:0,0:0:0:0:
289,160,29625,2,0,L|358:160,2,64,8|0|0,0:0|0:0|0:0,0:0:0:0:
211,160,29974,2,0,L|95:160,1,96,8|0,0:0|0:0,0:0:0:0:
265,217,30323,2,0,L|381:217,1,96,8|8,0:0|0:0,0:0:0:0:
56,299,30672,5,6,0:0:0:0:
256,192,30846,12,0,36253,0:0:0:0:
