osu file format v14

[General]
AudioFilename: audio.mp3
AudioLeadIn: 0
PreviewTime: 1282
Countdown: 0
SampleSet: Normal
StackLeniency: 0.7
Mode: 0
LetterboxInBreaks: 0
WidescreenStoryboard: 1

[Editor]
DistanceSpacing: 1
BeatDivisor: 4
GridSize: 32
TimelineZoom: 1

[Metadata]
Title:kibo refrain
TitleUnicode:希望リフレイン
Artist:Aoshima Moka (CV: Mimori Suzuko)
ArtistUnicode:青島萌香 (CV: 三森すずこ)
Creator:Sotarks
Version:Akitoshi's Normal
Source:OneRoom
Tags:one_room extended tv size カントク kantoku ascendance akitoshi corinn
BeatmapID:1512557
BeatmapSetID:715596

[Difficulty]
HPDrainRate:3.5
CircleSize:3
OverallDifficulty:4
ApproachRate:5
SliderMultiplier:1.1
SliderTickRate:1

[Events]
//Background and Video events
0,0,"12121212.jpg",0,0
//Break Periods
//Storyboard Layer 0 (Background)
//Storyboard Layer 1 (Fail)
//Storyboard Layer 2 (Pass)
//Storyboard Layer 3 (Foreground)
//Storyboard Sound Samples

[TimingPoints]
1370,348.837209302326,4,1,22,62,1,0
12532,-100,4,1,22,52,0,0
18114,-100,4,1,22,62,0,0
23695,-100,4,1,22,72,0,0
28579,-100,4,1,22,62,0,0
30672,-100,4,1,22,52,0,0
36253,-100,4,2,22,12,0,0

[Colours]
Combo1 : 255,250,185
Combo2 : 111,234,255
Combo3 : 250,179,255

[HitObjects]
411,72,1370,6,0,P|356:56|291:69,1,110,14|10,0:0|0:0,0:0:0:0:
215,128,2067,1,10,0:0:0:0:
262,227,2416,2,0,L|254:290,1,55,10|2,0:0|0:0,0:0:0:0:
245,335,2765,2,0,P|190:351|125:338,1,110,8|8,0:0|0:0,0:0:0:0:
46,283,3463,1,10,0:0:0:0:
20,176,3811,1,10,0:0:0:0:
85,87,4160,6,0,L|146:83,1,55,10|2,0:0|0:0,0:0:0:0:
186,54,4509,2,0,L|247:58,1,55,10|0,0:0|0:0,0:0:0:0:
288,86,4858,2,0,P|328:96|398:77,1,110,10|10,0:0|0:0,0:0:0:0:
490,26,5556,2,0,P|494:83|501:150,1,110,8|8,0:0|0:0,0:0:0:0:
502,245,6253,1,10,0:0:0:0:
416,314,6602,1,10,0:0:0:0:
305,315,6951,6,0,P|265:282|251:202,1,110,10|8,0:0|0:0,0:0:0:0:
248,121,7649,1,10,0:0:0:0:
248,121,7823,2,0,L|126:110,1,110,2|0,0:0|0:0,0:0:0:0:
83,103,8346,2,0,P|63:159|69:213,1,110,10|8,0:0|0:0,0:0:0:0:
128,307,9044,1,10,0:0:0:0:
128,307,9218,2,0,L|250:296,1,110,2|0,0:0|0:0,0:0:0:0:
289,278,9742,6,0,P|348:296|413:286,2,110,10|8|8,0:0|0:0|0:0,0:0:0:0:
214,197,10788,1,8,0:0:0:0:
177,93,11137,2,0,P|118:75|53:85,1,110,10|10,0:0|0:0,0:0:0:0:
13,173,11835,2,0,L|20:235,1,55,8|0,0:0|0:0,0:0:0:0:
65,256,12183,2,0,L|58:318,1,55,10|8,0:0|0:0,0:0:0:0:
55,365,12532,6,0,P|117:344|181:347,1,110,6|10,3:0|0:0,0:0:0:0:
270,359,13230,2,0,P|283:307|272:244,1,110,4|10,3:0|0:0,0:0:0:0:
231,217,13753,2,0,L|238:95,1,110,6|0,0:0|0:0,0:0:0:0:
244,52,14276,1,8,0:0:0:0:
348,18,14625,1,2,0:0:0:0:
453,50,14974,2,0,L|458:116,1,55,8|0,0:0|0:0,0:0:0:0:
460,159,15323,6,0,P|413:175|346:167,1,110,6|8,1:0|0:0,0:0:0:0:
253,123,16021,2,0,L|126:133,1,110,2|10,0:0|0:0,0:0:0:0:
88,141,16544,2,0,P|72:198|87:268,1,110,6|0,0:0|0:0,0:0:0:0:
99,298,17067,1,8,0:0:0:0:
198,344,17416,2,0,L|270:340,1,55,0|0,0:0|0:0,0:0:0:0:
294,304,17765,2,0,L|366:308,1,55,8|8,0:0|0:0,0:0:0:0:
404,307,18114,6,0,P|422:249|411:180,1,110,4|8,1:0|0:0,0:0:0:0:
340,132,18811,1,2,0:0:0:0:
340,132,18986,2,0,P|282:150|213:139,1,110,2|0,0:0|0:0,0:0:0:0:
183,121,19509,2,0,L|172:247,1,110,2|8,0:0|0:0,0:0:0:0:
160,344,20207,1,2,0:0:0:0:
160,344,20381,2,0,P|102:353|45:332,1,110,2|0,0:0|0:0,0:0:0:0:
22,292,20904,6,0,L|12:182,2,110,10|8|8,0:0|0:0|0:0,0:0:0:0:
113,353,21951,1,8,0:0:0:0:
197,282,22300,2,0,P|260:266|312:274,1,110,10|8,0:0|0:0,0:0:0:0:
410,299,22997,2,0,L|415:229,1,55,10|10,0:0|0:0,0:0:0:0:
451,203,23346,2,0,L|446:133,1,55,10|8,0:0|0:0,0:0:0:0:
436,93,23695,6,0,P|381:78|310:95,1,110,12|8,0:0|0:0,0:0:0:0:
248,161,24393,1,10,0:0:0:0:
248,161,24567,2,0,L|124:153,1,110,2|2,0:0|0:0,0:0:0:0:
83,150,25090,2,0,P|66:211|77:272,1,110,10|10,0:0|0:0,0:0:0:0:
131,348,25788,2,0,P|192:365|253:354,1,110,10|8,0:0|0:0,0:0:0:0:
283,329,26311,1,0,0:0:0:0:
283,329,26486,6,0,L|408:335,1,110,10|10,0:0|0:0,0:0:0:0:
480,268,27183,1,10,0:0:0:0:
484,158,27532,1,10,0:0:0:0:
394,94,27881,2,0,B|272:60|304:144|168:105,1,220,8|2,0:0|0:0,0:0:0:0:
89,46,28928,1,2,0:0:0:0:
31,139,29276,6,0,B|9:198|49:191|21:262,2,110,0|8|8,0:0|0:0|0:0,0:0:0:0:
89,46,30323,1,8,0:0:0:0:
181,109,30672,1,6,0:0:0:0:
256,192,30846,12,0,36253,0:0:0:0:
