osu file format v14

[General]
AudioFilename: audio.mp3
AudioLeadIn: 0
PreviewTime: 54470
Countdown: 0
SampleSet: Soft
StackLeniency: 0.4
Mode: 0
LetterboxInBreaks: 0
WidescreenStoryboard: 1

[Editor]
Bookmarks: 6853,14546,26853,39161,54546,66853,85315
DistanceSpacing: 1
BeatDivisor: 2
GridSize: 8
TimelineZoom: 1

[Metadata]
Title:La La La! La? Morning
TitleUnicode:ラ・ラ・ラ!ラ?モーニング
Artist:Mocha (CV: Kayano Ai) & Chino (CV: Minase Inori)
ArtistUnicode:モカ (CV: 茅野愛衣)・チノ (CV: 水瀬いのり)
Creator:UjiMatcha
Version:Hard
Source:ご注文はうさぎですか??
Tags:pappl e 104 papple Gochiusa gochuumon wa usagi desu ka? is the order a rabbit ごちうさ anime Kafuu Chino 香風 智乃 Hoto Moka 保登 摩卡
BeatmapID:1878061
BeatmapSetID:891826

[Difficulty]
HPDrainRate:6
CircleSize:4
OverallDifficulty:8
ApproachRate:8
SliderMultiplier:1.4
SliderTickRate:1

[Events]
//Background and Video events
0,0,"05.jpg",0,0
//Break Periods
//Storyboard Layer 0 (Background)
//Storyboard Layer 1 (Fail)
//Storyboard Layer 2 (Pass)
//Storyboard Layer 3 (Foreground)
//Storyboard Sound Samples

[TimingPoints]
720,384.615384615385,4,2,1,5,1,0
6296,-100,4,2,1,30,0,0
6873,-100,4,2,1,40,0,0
14566,-100,4,2,2,35,0,0
26104,-100,4,2,1,25,0,0
26873,-100,4,2,1,35,0,0
39181,-100,4,2,1,35,0,0
54566,-100,4,2,1,45,0,1
60431,-100,4,2,1,25,0,1
60527,-100,4,2,1,35,0,1
60623,-100,4,2,1,25,0,1
60720,-100,4,2,1,45,0,1
66585,-100,4,2,1,25,0,1
66681,-100,4,2,1,35,0,1
66777,-100,4,2,1,25,0,1
66873,-100,4,2,1,45,0,1
73989,-100,4,2,1,30,0,1
74566,-100,4,2,1,45,0,1
78893,-100,4,2,1,25,0,1
78989,-100,4,2,1,35,0,1
79085,-100,4,2,1,25,0,1
79181,-100,4,2,1,45,0,1
81296,-100,4,2,1,25,0,1
81681,-100,4,2,1,45,0,1
83796,-100,4,2,1,35,0,0
85335,-166.666666666667,4,2,1,20,0,0
86873,-133.333333333333,4,2,1,20,0,0
88424,441.176470588235,4,2,1,20,1,0
88424,-166.666666666667,4,2,1,20,0,0
89305,517.241379310345,4,2,1,20,1,0
89305,-174.825174825175,4,2,1,20,0,0
89850,625,4,2,1,20,1,0
90454,625,4,2,1,30,1,0
91084,-100,4,2,1,25,0,0
92329,-100,4,2,1,20,0,0
92954,-100,4,2,1,15,0,0
93579,-100,4,2,1,10,0,0
94204,-100,4,2,1,5,0,0

[Colours]
Combo1 : 128,0,255
Combo2 : 128,128,255
Combo3 : 255,128,64
Combo4 : 0,128,192

[HitObjects]
171,324,720,6,0,P|204:331|239:326,1,70
280,237,1104,2,0,P|246:228|211:234,1,70
335,318,1681,1,0,0:0:0:0:
377,229,1873,2,0,L|386:145,2,70
335,318,2643,1,0,0:0:0:0:
280,237,3027,1,0,0:0:0:0:
292,144,3412,1,0,0:0:0:0:
292,144,3796,6,0,P|297:178|289:212,1,70
191,204,4180,2,0,P|182:237|188:272,1,70
200,96,4758,1,0,0:0:0:0:
292,144,4950,2,0,L|361:151,2,70
191,204,5719,1,0,0:0:0:0:
191,204,6103,1,0,0:0:0:0:
141,304,6296,5,2,0:0:0:0:
252,314,6489,1,2,0:0:0:0:
200,96,6873,6,0,B|167:89|167:89|111:101,1,70,2|0,0:0|0:0,0:0:0:0:
165,188,7258,2,0,B|198:195|198:195|258:185,1,70,8|0,0:0|0:0,0:0:0:0:
296,113,7643,1,2,0:0:0:0:
329,204,7835,1,2,0:0:0:0:
393,130,8027,1,8,0:0:0:0:
390,284,8220,6,0,P|326:303|252:265,1,140,2|2,0:0|0:0,0:0:0:0:
165,188,8796,2,0,L|156:279,1,70,8|0,0:0|0:0,0:0:0:0:
96,333,9181,2,0,L|10:326,2,70,2|2|8,0:0|0:0|0:0,0:0:0:0:
193,348,9758,1,0,0:0:0:0:
261,275,9950,6,0,B|301:262|334:278,1,70,2|0,0:0|0:0,0:0:0:0:
423,311,10335,2,0,B|439:283|429:242,1,70,8|0,0:0|0:0,0:0:0:0:
351,173,10720,1,2,0:0:0:0:
450,141,10912,1,2,0:0:0:0:
370,72,11104,1,8,0:0:0:0:
264,140,11296,6,0,B|232:204|296:204|256:284,1,140,2|2,0:0|0:0,0:0:0:0:
179,340,11873,1,8,0:0:0:0:
164,239,12066,1,2,0:0:0:0:
164,239,12450,6,0,P|149:191|154:159,1,70,2|8,0:0|0:0,0:0:0:0:
264,140,12835,2,0,L|324:140,2,35,0|2|2,0:0|0:0|0:0,0:0:0:0:
183,58,13220,1,12,0:0:0:0:
70,88,13412,2,0,B|73:122|73:122|59:151|70:174,1,70,2|2,0:0|0:0,0:0:0:0:
89,265,13796,5,12,0:0:0:0:
63,360,13989,2,0,B|91:370|119:360|119:360|131:360,1,70,2|2,0:0|0:0,0:0:0:0:
195,277,14373,1,8,0:0:0:0:
276,140,14566,6,0,P|281:174|275:209,1,70,10|0,0:0|0:0,0:0:0:0:
294,311,14950,2,0,P|327:299|354:278,1,70,2|0,0:0|0:0,0:0:0:0:
375,175,15335,2,0,P|402:153|435:142,2,70,2|0|2,0:0|0:0|0:0,0:0:0:0:
354,277,15912,6,0,B|394:293|426:277|426:277|458:293|498:277,1,140,8|0,0:0|0:0,0:0:0:0:
435,141,16489,1,2,0:0:0:0:
435,141,16681,1,0,0:0:0:0:
334,169,16873,1,2,0:0:0:0:
334,169,17066,1,0,0:0:0:0:
237,127,17258,2,0,P|235:87|244:46,1,70,2|0,0:0|0:0,0:0:0:0:
137,33,17643,6,0,B|144:68|144:68|137:101,1,70,10|0,0:0|0:0,0:0:0:0:
34,119,18027,2,0,B|27:152|27:152|34:187,1,70,2|0,0:0|0:0,0:0:0:0:
88,278,18412,2,0,L|71:371,2,70,2|0|2,0:0|0:0|0:0,0:0:0:0:
176,221,18989,6,0,B|240:189|240:253|320:213,1,140,8|2,0:0|0:0,0:0:0:0:
375,134,19566,1,2,0:0:0:0:
375,134,19758,1,0,0:0:0:0:
274,125,19950,1,2,0:0:0:0:
274,125,20143,1,0,0:0:0:0:
168,151,20335,2,0,L|178:250,1,70,2|0,0:0|0:0,0:0:0:0:
258,296,20720,6,0,L|239:389,2,70,10|0|2,0:0|0:0|0:0,0:0:0:0:
363,257,21296,2,0,B|373:201|373:201|359:168|359:168|369:122,1,140,2|0,0:0|0:0,0:0:0:0:
470,90,21873,2,0,L|454:172,1,70,2|0,0:0|0:0,0:0:0:0:
363,257,22258,6,0,L|456:273,2,70,10|0|2,0:0|0:0|0:0,0:0:0:0:
369,122,22835,2,0,B|313:111|313:111|280:125|280:125|234:115,1,140,2|0,0:0|0:0,0:0:0:0:
186,21,23411,2,0,L|271:39,1,70,2|0,0:0|0:0,0:0:0:0:
129,99,23796,6,0,P|95:174|111:246,1,140,2|2,0:0|0:0,0:0:0:0:
136,328,24373,1,0,0:0:0:0:
33,302,24566,2,0,P|5:261|3:229,1,70,2|0,0:0|0:0,0:0:0:0:
99,161,24950,2,0,P|127:120|129:88,1,70,2|0,0:0|0:0,0:0:0:0:
228,61,25335,6,0,L|240:142,1,70,2|0,0:0|0:0,0:0:0:0:
341,151,25720,2,0,L|329:222,1,70,2|0,0:0|0:0,0:0:0:0:
189,188,26104,5,2,0:0:0:0:
276,263,26296,1,8,0:0:0:0:
276,263,26393,1,8,0:0:0:0:
276,263,26489,2,0,L|337:267,3,35,8|8|8|8,0:0|0:0|0:0|0:0,0:0:0:0:
329,220,26873,6,0,P|327:185|334:150,1,70,2|0,0:0|0:0,0:0:0:0:
450,116,27258,2,0,P|457:74|452:40,1,70,8|0,0:0|0:0,0:0:0:0:
347,3,27642,1,2,0:0:0:0:
260,74,27834,1,2,0:0:0:0:
337,155,28027,1,8,0:0:0:0:
423,227,28220,6,0,P|364:266|291:259,1,140,2|2,0:0|0:0,0:0:0:0:
227,175,28796,1,8,0:0:0:0:
227,175,28988,1,0,0:0:0:0:
186,279,29180,1,2,0:0:0:0:
186,279,29373,1,2,0:0:0:0:
116,191,29566,2,0,L|106:121,1,70,8|2,0:0|0:3,0:0:0:0:
55,21,29950,6,0,B|93:8|93:8|144:11,1,70,2|0,0:0|0:0,0:0:0:0:
211,79,30335,2,0,B|240:80|240:80|278:67,1,70,8|0,0:0|0:0,0:0:0:0:
385,34,30719,1,2,0:0:0:0:
361,143,30911,1,2,0:0:0:0:
278,66,31104,1,8,0:0:0:0:
172,28,31296,6,0,P|168:96|206:153,1,140,2|2,0:0|0:0,0:0:0:0:
301,213,31872,1,8,0:0:0:0:
301,213,32066,1,0,0:0:0:0:
202,265,32258,1,2,0:0:0:0:
202,265,32449,1,2,0:0:0:0:
296,325,32642,2,0,L|393:333,1,70,8|2,0:0|0:3,0:0:0:0:
369,208,33027,6,0,L|359:115,1,70,2|0,0:0|0:0,0:0:0:0:
456,79,33412,1,8,0:0:0:0:
357,28,33604,2,0,P|291:46|254:104,1,140,2|2,0:0|0:0,0:0:0:0:
277,213,34180,1,8,0:0:0:0:
361,138,34373,1,0,0:0:0:0:
254,104,34566,6,0,L|180:107,1,70,2|0,0:0|0:0,0:0:0:0:
119,16,34951,1,8,0:0:0:0:
71,116,35142,2,0,P|89:181|147:218,1,140,2|2,0:0|0:0,0:0:0:0:
256,194,35719,1,8,0:0:0:0:
184,107,35912,1,0,0:0:0:0:
71,116,36104,6,0,L|64:198,1,70,6|2,0:0|0:0,0:0:0:0:
147,218,36489,2,0,L|152:288,1,70,8|0,0:0|0:0,0:0:0:0:
254,263,36873,6,0,L|256:180,1,70,6|0,0:0|0:0,0:0:0:0:
366,208,37258,2,0,L|355:135,1,70,8|0,0:0|0:0,0:0:0:0:
464,167,37643,6,0,L|458:236,1,70,6|0,0:0|0:0,0:0:0:0:
342,286,38027,2,0,L|361:370,1,70,8|0,0:0|0:0,0:0:0:0:
235,243,38412,6,0,L|226:162,1,70,6|8,0:0|0:0,0:0:0:0:
129,94,38796,1,0,0:0:0:0:
129,94,38893,1,4,0:3:0:0:
129,94,38989,1,8,0:3:0:0:
227,173,39181,6,0,P|262:171|305:179,1,70,6|0,0:0|0:0,0:0:0:0:
255,265,39566,2,0,P|239:296|210:329,1,70,0|2,0:0|0:0,0:0:0:0:
161,243,39950,2,0,P|141:213|127:172,1,70,2|0,0:3|0:0,0:0:0:0:
215,98,40335,2,0,P|267:93|337:113,1,105,8|0,0:0|0:0,0:0:0:0:
337,130,40720,6,0,P|324:198|346:263,1,140,2|0,0:0|0:0,0:0:0:0:
414,335,41297,1,2,0:0:0:0:
318,357,41489,2,0,P|279:366|247:362,1,70,2|0,0:3|0:0,0:0:0:0:
152,348,41874,1,8,0:0:0:0:
32,167,42258,6,0,P|66:165|100:170,1,70,2|0,0:0|0:0,0:0:0:0:
197,193,42643,2,0,P|178:164|165:131,1,70,0|2,0:0|0:0,0:0:0:0:
138,35,43027,2,0,P|122:65|100:92,1,70,2|0,0:3|0:0,0:0:0:0:
51,188,43412,2,0,P|98:200|165:176,1,105,8|0,0:0|0:0,0:0:0:0:
181,176,43796,6,0,P|184:234|254:310,1,140,2|0,0:0|0:0,0:0:0:0:
309,358,44373,1,2,0:0:0:0:
325,261,44565,2,0,P|299:235|280:189,1,70,2|0,0:3|0:0,0:0:0:0:
255,109,44950,1,8,0:0:0:0:
142,82,45335,6,0,P|188:127|260:104,1,140,6|8,0:0|0:0,0:0:0:0:
155,12,45912,2,0,P|91:29|76:103,1,140,4|0,0:3|0:0,0:0:0:0:
208,59,46489,1,8,0:0:0:0:
309,31,46681,1,0,0:0:0:0:
383,105,46873,6,0,L|454:131,2,70,6|0|8,0:0|0:0|0:0,0:0:0:0:
282,133,47450,1,6,0:0:0:0:
82,200,47835,2,0,L|5:208,2,70,8|8|8,0:0|0:0|0:0,0:0:0:0:
161,269,48412,2,0,B|210:276|210:276|244:267|244:267|301:275,1,140,6|8,0:0|0:0,0:0:0:0:
416,100,49181,2,0,L|441:14,2,70,8|2|8,0:3|0:0|0:0,0:0:0:0:
364,193,49758,6,0,B|291:221|227:192,1,140,2|2,0:0|0:0,0:0:0:0:
128,158,50335,2,0,L|110:249,1,70,8|2,0:0|0:0,0:0:0:0:
97,330,50720,1,8,0:0:0:0:
97,330,50912,1,2,0:0:0:0:
196,297,51104,1,8,0:0:0:0:
196,297,51296,1,2,0:0:0:0:
289,345,51489,6,0,B|329:343|329:343|368:324|368:324|424:323,1,140,14|8,0:0|0:0,0:0:0:0:
472,118,52258,2,0,L|478:43,2,70,8|2|8,0:3|0:0|0:0,0:0:0:0:
388,181,52835,1,2,0:0:0:0:
181,94,53220,2,0,L|168:25,2,70,8|2|8,0:0|0:0|0:0,0:0:0:0:
123,189,53796,1,2,0:0:0:0:
235,192,53989,1,8,0:0:0:0:
235,192,54085,1,8,0:0:0:0:
235,192,54181,2,0,L|297:201,3,35,2|8|8|8,0:0|0:0|0:0|0:0,0:0:0:0:
299,213,54566,6,0,P|292:264|306:315,1,105,2|0,0:0|0:0,0:0:0:0:
334,335,54950,2,0,L|407:329,1,70,8|0,0:0|0:0,0:0:0:0:
492,262,55335,1,2,0:0:0:0:
391,217,55527,1,2,0:0:0:0:
482,150,55720,1,8,0:0:0:0:
379,105,55912,6,0,B|344:75|313:78|280:81|253:113,1,140,6|2,0:0|0:0,0:0:0:0:
293,262,56489,2,0,P|309:231|323:198,1,70,8|0,0:0|0:0,0:0:0:0:
253,113,56873,2,0,P|203:101|163:103,1,70,2|2,0:0|0:0,0:0:0:0:
94,168,57258,1,12,0:1:0:0:
17,96,57450,1,2,0:0:0:0:
17,96,57546,1,2,0:0:0:0:
17,96,57643,6,0,L|22:7,1,70,2|0,0:0|0:0,0:0:0:0:
132,22,58027,2,0,L|227:16,1,70,8|2,0:0|0:0,0:0:0:0:
328,86,58412,1,2,0:0:0:0:
250,174,58604,1,2,0:0:0:0:
145,134,58796,1,8,0:0:0:0:
37,167,58989,6,0,P|40:242|23:317,1,140,6|2,0:0|0:0,0:0:0:0:
131,345,59566,2,0,L|223:340,1,70,8|0,0:0|0:0,0:0:0:0:
276,240,59950,2,0,L|178:230,1,70,2|2,0:0|0:0,0:0:0:0:
124,152,60335,2,0,L|71:149,3,35,8|8|8|8,0:0|0:0|0:0|0:0,0:0:0:0:
40,146,60720,6,0,P|57:83|135:67,1,140,6|8,0:0|0:0,0:0:0:0:
164,196,61296,2,0,P|212:242|277:226,1,140,6|2,0:0|0:0,0:0:0:0:
353,134,61873,1,8,0:0:0:0:
235,155,62066,1,2,0:0:0:0:
311,246,62258,6,0,P|323:281|343:308,1,70,6|8,0:0|0:0,0:0:0:0:
481,325,62643,2,0,B|483:331|479:293|453:260,1,70,8|0,0:0|0:0,0:0:0:0:
394,160,63027,1,2,0:0:0:0:
394,160,63412,5,10,0:1:0:0:
466,65,63604,1,2,0:0:0:0:
355,20,63796,1,4,0:3:0:0:
355,20,64181,5,8,0:0:0:0:
258,89,64373,1,0,0:0:0:0:
152,33,64566,2,0,L|57:45,1,70,6|0,0:3|0:0,0:0:0:0:
0,125,64950,2,0,L|73:134,1,70,8|0,0:0|0:0,0:0:0:0:
119,249,65335,6,0,L|103:318,2,70,2|8|8,0:0|0:0|0:0,0:0:0:0:
193,165,65912,1,2,0:0:0:0:
283,230,66104,1,4,0:3:0:0:
217,320,66296,1,8,0:0:0:0:
317,369,66489,2,0,L|355:369,3,35,8|8|8|8,0:0|0:0|0:0|0:0,0:0:0:0:
400,360,66873,6,0,P|395:324|403:282,1,70,6|0,0:0|0:0,0:0:0:0:
432,185,67257,2,0,P|398:182|362:188,1,70,8|0,0:0|0:0,0:0:0:0:
277,260,67642,1,2,0:0:0:0:
262,149,67834,1,2,0:0:0:0:
353,83,68027,1,8,0:0:0:0:
494,146,68220,6,0,B|521:223|466:261|421:253,1,140,6|2,0:0|0:0,0:0:0:0:
292,190,68796,2,0,L|362:187,1,70,8|0,0:0|0:0,0:0:0:0:
422,79,69180,2,0,L|322:84,1,70,2|2,0:0|0:0,0:0:0:0:
232,88,69565,1,12,0:1:0:0:
292,190,69757,1,2,0:0:0:0:
292,190,69854,1,2,0:0:0:0:
292,190,69950,6,0,L|285:280,1,70,2|0,0:0|0:0,0:0:0:0:
188,326,70334,2,0,L|117:330,1,70,8|2,0:0|0:0,0:0:0:0:
37,251,70719,1,2,0:0:0:0:
144,221,70911,1,2,0:0:0:0:
64,141,71103,1,8,0:0:0:0:
158,80,71296,6,0,P|223:44|306:59,1,140,6|2,0:0|0:0,0:0:0:0:
247,154,71873,2,0,L|241:250,1,70,8|0,0:0|0:0,0:0:0:0:
231,332,72257,2,0,P|275:343|325:330,1,70,2|2,0:0|0:0,0:0:0:0:
394,270,72643,2,0,L|448:278,3,35,8|2|4|8,0:0|0:0|0:3|0:3,0:0:0:0:
477,286,73027,6,0,P|460:349|382:365,1,140,6|8,0:0|0:0,0:0:0:0:
353,235,73604,2,0,P|305:189|240:205,1,140,6|2,0:0|0:0,0:0:0:0:
213,271,74085,2,0,L|227:329,3,35,8|2|8|2,0:0|0:0|0:0|0:0,0:0:0:0:
186,168,74565,5,6,0:0:0:0:
96,230,74758,1,2,0:0:0:0:
96,230,74854,1,8,0:0:0:0:
96,230,74950,1,8,0:0:0:0:
119,91,75143,1,6,0:1:0:0:
119,91,75527,5,0,0:0:0:0:
259,79,75720,2,0,L|307:78,3,35,8|8|2|8,0:0|0:3|0:0|0:3,0:0:0:0:
328,81,76104,2,0,P|328:121|339:175,1,70,6|0,0:0|0:0,0:0:0:0:
368,264,76489,1,12,0:1:0:0:
368,264,76873,6,0,P|292:254|241:267,1,105,2|0,0:0|0:0,0:0:0:0:
232,272,77258,2,0,L|210:194,1,70,8|0,0:0|0:0,0:0:0:0:
106,136,77643,2,0,P|159:86|246:84,1,140,6|8,0:0|0:0,0:0:0:0:
212,204,78220,2,0,P|228:274|187:351,1,140,6|8,0:1|0:0,0:0:0:0:
78,331,78796,2,0,L|42:331,3,35,8|8|8|8,0:0|0:0|0:0|0:0,0:0:0:0:
28,298,79181,6,0,B|-6:223|48:157,1,140,2|8,0:0|0:0,0:0:0:0:
238,58,79950,2,0,L|320:53,2,70,2|2|8,0:0|0:0|0:0,0:0:0:0:
172,149,80527,1,6,0:0:0:0:
172,149,80912,5,0,0:0:0:0:
272,197,81104,1,8,0:0:0:0:
347,279,81296,2,0,L|331:325,2,35,8|8|8,0:0|0:0|0:0,0:0:0:0:
444,209,81681,1,8,0:3:0:0:
335,161,81873,1,4,0:3:0:0:
347,279,82066,1,4,0:3:0:0:
236,321,82258,6,0,P|174:290|106:303,1,140,6|8,0:0|0:0,0:0:0:0:
67,103,83027,2,0,L|67:69,2,35,2|8|2,0:0|0:3|0:0,0:0:0:0:
185,124,83412,2,0,L|185:159,2,35,8|8|2,0:0|0:3|0:0,0:0:0:0:
300,97,83796,5,6,0:0:0:0:
153,61,85335,6,0,P|101:111|105:180,1,125.999996154785
182,140,86873,6,0,B|259:154|317:104|317:104|401:211|265:210|350:322,1,367.500014019013
411,254,88424,6,0,P|426:222|432:170,1,83.9999974365235
397,101,89306,2,0,P|349:93|314:107,1,83.9999974365235
256,192,90454,5,0,0:0:0:0:
256,192,90532,12,0,94829,0:0:0:0:
