osu file format v14

[General]
AudioFilename: audio.mp3
AudioLeadIn: 0
PreviewTime: 39184
Countdown: 0
SampleSet: Soft
StackLeniency: 0.5
Mode: 0
LetterboxInBreaks: 0
WidescreenStoryboard: 0

[Editor]
Bookmarks: 177188
DistanceSpacing: 0.5
BeatDivisor: 4
GridSize: 32
TimelineZoom: 3.499998

[Metadata]
Title:Masakali
TitleUnicode:Masakali
Artist:Mohit Chauhan
ArtistUnicode:Mohit Chauhan
Creator:Napoli
Version:First Flight
Source:
Tags:delhi 6 kaala bandar abhishek bacchan hindi bollywood pigeon a r rahman sonam kapoor pisapou pop मोहित चौहान मसककली
BeatmapID:3860856
BeatmapSetID:1876111

[Difficulty]
HPDrainRate:6
CircleSize:4
OverallDifficulty:8
ApproachRate:9
SliderMultiplier:1.4
SliderTickRate:1

[Events]
//Background and Video events
0,0,"index.jpg",0,0
//Break Periods
2,11513,12513
2,15413,17313
2,87713,94113
2,128513,130113
2,159713,161013
2,177188,184113
2,193313,194163
//Storyboard Layer 0 (Background)
//Storyboard Layer 1 (Fail)
//Storyboard Layer 2 (Pass)
//Storyboard Layer 3 (Foreground)
//Storyboard Layer 4 (Overlay)
//Storyboard Sound Samples

[TimingPoints]
-87,300,4,2,1,40,1,0
1113,300,4,2,1,40,1,0
1113,-238.095238095238,4,2,1,40,0,0
17913,-98.0392156862745,4,2,1,50,0,0
37113,-238.095238095238,4,2,1,45,0,0
38313,-238.095238095238,4,2,1,50,0,0
38613,-138.888888888889,4,2,1,50,0,0
39513,-138.888888888889,4,2,1,60,0,0
39663,-81.9672131147542,4,2,1,60,0,0
58413,-81.9672131147542,4,2,2,60,0,0
58713,-81.9672131147542,4,2,2,70,0,1
75213,-61.7283950617284,4,2,2,70,0,1
75513,-45.045045045045,4,2,2,70,0,1
76413,-81.9672131147542,4,2,2,70,0,1
77913,-81.9672131147542,4,2,1,62,0,0
118713,-89.2857142857143,4,2,1,62,0,0
133713,-161.290322580645,4,2,1,62,0,0
134463,-89.2857142857143,4,2,1,62,0,0
140313,-89.2857142857143,4,2,2,72,0,1
140316,-89.2857142857143,4,2,2,72,0,1
140613,-70.4225352112676,4,2,2,72,0,1
143313,-161.290322580645,4,2,2,72,0,1
144063,-70.4225352112676,4,2,2,72,0,1
149913,-81.9672131147541,4,2,1,65,0,0
149916,-81.9672131147541,4,2,1,65,0,0
161913,-81.9672131147541,4,2,1,60,0,0
171813,-98.0392156862745,4,2,1,50,0,0
172113,-121.951219512195,4,2,1,40,0,0
172413,-161.290322580645,4,2,1,30,0,0
172713,-161.290322580645,4,2,1,60,0,0
172863,-89.2857142857143,4,2,1,60,0,0
184713,-121.951219512195,4,2,1,50,0,0
194763,-121.951219512195,4,2,1,45,0,0
194913,-161.290322580645,4,2,1,45,0,0
195513,-81.9672131147541,4,2,1,62,0,0
208113,-161.290322580645,4,2,1,62,0,0
208863,-81.9672131147541,4,2,1,62,0,0
214713,-81.9672131147541,4,2,2,72,0,1
214716,-81.9672131147541,4,2,2,72,0,1
215013,-70.4225352112676,4,2,2,72,0,1
217713,-161.290322580645,4,2,2,72,0,1
218463,-70.4225352112676,4,2,2,72,0,1
224313,-81.9672131147541,4,2,1,62,0,0
224316,-81.9672131147541,4,2,1,62,0,0
242313,-98.0392156862745,4,2,1,50,0,0
244113,-161.290322580645,4,2,1,50,0,0
244713,-98.0392156862745,4,2,1,50,0,0
257913,-81.9672131147541,4,2,1,62,0,0
269913,-98.0392156862744,4,2,1,50,0,0
273513,-121.951219512195,4,2,1,40,0,0
282513,-121.951219512195,4,2,1,35,0,0
283113,-121.951219512195,4,2,1,30,0,0
283713,-121.951219512195,4,2,1,25,0,0
284313,-121.951219512195,4,2,1,20,0,0
284913,-121.951219512195,4,2,1,15,0,0
285513,-121.951219512195,4,2,1,10,0,0
286413,-121.951219512195,4,2,1,5,0,0

[Colours]
Combo1 : 164,255,164
Combo2 : 255,128,192
Combo3 : 255,183,219
Combo4 : 128,191,255
Combo5 : 255,128,128
Combo6 : 255,203,151
Combo7 : 176,176,255
Combo8 : 128,255,255

[HitObjects]
96,115,513,5,2,2:0:0:0:
126,206,813,1,2,2:0:0:0:
350,179,1113,6,0,L|380:127,1,58.8,2|2,2:0|2:0,0:0:0:0:
380,129,2013,5,2,2:0:0:0:
271,321,2313,1,2,2:0:0:0:
271,321,2913,6,0,L|241:269,1,58.8,2|2,2:0|2:0,0:0:0:0:
143,254,3513,1,2,2:0:0:0:
380,129,4113,6,0,L|409:78,2,58.8,2|2|2,2:0|2:0|2:0,0:0:0:0:
380,129,5313,5,2,2:0:0:0:
356,223,5613,1,2,2:0:0:0:
143,140,5913,6,0,L|91:170,1,58.8,2|2,2:0|2:0,0:0:0:0:
92,169,6813,5,2,2:0:0:0:
216,357,7113,1,2,2:0:0:0:
417,51,7713,6,0,L|473:32,2,58.8,2|2|2,2:0|2:0|2:0,0:0:0:0:
305,121,8613,2,0,L|248:100,2,58.8,2|2|2,2:0|2:0|2:0,0:0:0:0:
492,240,9513,6,0,B|494:297|414:299|410:299|403:299|319:300|321:365,1,235.2,2|8,2:0|2:3,0:0:0:0:
321,366,11013,1,8,2:3:0:0:
321,366,11313,1,0,1:2:0:0:
78,269,13113,5,8,2:3:0:0:
78,269,13413,1,8,2:3:0:0:
78,269,13713,1,0,1:2:0:0:
221,124,14913,5,0,0:0:0:0:
221,124,15213,1,0,1:2:0:0:
379,0,17913,6,0,P|390:33|398:68,1,71.4,10|0,2:3|0:0,0:0:0:0:
468,108,18213,2,0,P|445:175|428:244,1,142.8,6|8,2:3|2:3,0:0:0:0:
360,286,18663,2,0,P|371:319|379:354,2,71.4
224,241,19113,5,0,0:0:0:0:
224,241,19263,2,0,P|191:252|156:260,1,71.4,2|4,2:0|2:3,0:0:0:0:
75,322,19563,1,2,2:0:0:0:
75,322,19713,2,0,P|144:337|211:359,1,142.8,8|2,2:3|2:0,0:0:0:0:
212,359,20313,6,0,P|245:348|280:340,1,71.4,2|0,2:0|0:0,0:0:0:0:
330,278,20613,2,0,P|337:243|349:209,1,71.4,6|0,2:3|0:0,0:0:0:0:
301,147,20913,2,0,P|294:112|282:78,1,71.4,10|0,2:3|0:0,0:0:0:0:
216,34,21213,2,0,P|220:16|226:0,2,35.7,2|2|2,2:0|2:0|2:0,0:0:0:0:
79,51,21513,5,2,2:0:0:0:
79,51,21663,2,0,L|10:32,1,71.4,0|4,0:0|2:3,0:0:0:0:
18,149,21963,2,0,B|77:140|77:140|100:127|100:127|155:116,1,142.8,2|2,2:0|2:0,0:0:0:0:
183,188,22413,2,0,L|251:207,1,71.4,2|0,2:0|0:0,0:0:0:0:
309,332,22713,6,0,P|240:347|173:369,1,142.8,0|4,0:0|2:3,0:0:0:0:
171,369,23313,1,8,2:3:0:0:
100,342,23463,2,0,P|92:307|81:274,1,71.4
127,137,23763,5,0,0:0:0:0:
127,137,23913,2,0,P|196:142|253:187,1,142.8,0|4,0:0|2:3,0:0:0:0:
308,251,24363,1,0,0:0:0:0:
308,251,24513,2,0,P|340:239|362:210,1,71.4,8|2,2:3|2:0,0:0:0:0:
364,201,24738,1,2,2:0:0:0:
365,191,24813,2,0,L|348:122,1,71.4
242,25,25113,6,0,P|207:33|174:44,1,71.4,2|0,2:0|0:0,0:0:0:0:
16,53,25413,2,0,P|51:61|84:72,1,71.4,4|0,2:3|0:0,0:0:0:0:
165,169,25713,1,8,2:3:0:0:
165,169,25863,6,0,P|96:174|39:219,1,142.8
36,227,26238,1,2,2:0:0:0:
33,235,26313,6,0,P|55:298|73:374,1,142.8,2|4,2:0|2:3,0:0:0:0:
181,359,26763,1,0,0:0:0:0:
181,359,26913,2,0,P|197:289|220:222,1,142.8,10|0,2:3|0:0,0:0:0:0:
283,176,27363,1,2,2:0:0:0:
181,71,27513,6,0,P|146:79|113:90,1,71.4,2|0,2:0|0:0,0:0:0:0:
37,70,27813,2,0,P|26:104|19:138,1,71.4,6|0,2:3|0:0,0:0:0:0:
77,198,28113,1,10,2:3:0:0:
77,198,28263,2,0,P|88:232|95:266,1,71.4,2|0,2:0|0:0,0:0:0:0:
213,188,28563,6,0,B|273:197|273:197|293:210|293:210|350:219,1,142.8,2|0,2:0|0:0,0:0:0:0:
421,259,29013,1,4,2:3:0:0:
462,192,29163,1,0,0:0:0:0:
462,192,29313,2,0,L|476:123,1,71.4,8|0,2:3|0:0,0:0:0:0:
410,81,29613,2,0,L|396:12,1,71.4,2|0,2:0|0:0,0:0:0:0:
256,0,29913,6,0,P|192:29|154:88,1,142.8,2|6,2:0|2:3,0:0:0:0:
171,166,30363,1,0,0:0:0:0:
97,192,30513,1,10,2:3:0:0:
97,192,30663,2,0,P|65:177|46:147,1,71.4,2|0,2:0|0:0,0:0:0:0:
118,273,30963,5,2,2:0:0:0:
118,273,31113,2,0,P|185:249|255:233,1,142.8,0|4,0:0|2:3,0:0:0:0:
306,173,31563,1,0,0:0:0:0:
306,173,31713,2,0,P|338:188|368:207,1,71.4,8|0,2:3|0:0,0:0:0:0:
420,269,32013,2,0,P|435:259|451:251,2,35.7,2|2|2,2:0|2:0|2:0,0:0:0:0:
321,371,32313,6,0,B|267:358|267:358|248:346|248:346|185:336,1,142.8,2|4,2:0|2:3,0:0:0:0:
58,266,32763,1,0,0:0:0:0:
58,266,32913,2,0,B|112:253|112:253|131:241|131:241|194:231,1,142.8,10|0,2:3|0:0,0:0:0:0:
272,110,33363,5,0,0:0:0:0:
272,110,33513,2,0,P|231:54|163:58,1,142.8,0|4,0:0|2:3,0:0:0:0:
109,118,33963,1,0,0:0:0:0:
109,118,34113,2,0,P|119:152|125:187,1,71.4,10|2,2:3|2:0,0:0:0:0:
138,135,34413,2,0,P|148:169|154:204,1,71.4,2|2,2:0|2:0,0:0:0:0:
242,316,34713,6,0,P|306:287|344:228,1,142.8,2|4,1:2|2:3,0:0:0:0:
296,163,35163,1,0,0:0:0:0:
334,96,35313,1,10,2:3:0:0:
334,96,35463,2,0,P|352:66|385:51,1,71.4,0|0,0:0|1:2,0:0:0:0:
495,151,35763,5,2,2:0:0:0:
495,151,35913,2,0,P|485:185|479:220,1,71.4,2|2,1:2|2:0,0:0:0:0:
466,168,36213,2,0,P|445:237|433:308,1,142.8,6|10,2:3|2:3,0:0:0:0:
367,352,36663,1,0,0:0:0:0:
305,303,36813,2,0,P|271:293|236:287,1,71.4,0|2,1:2|2:0,0:0:0:0:
88,349,37113,6,0,P|36:324|33:261,1,117.6,2|0,2:0|0:0,0:0:0:0:
71,114,38313,5,2,2:0:0:0:
163,79,38463,1,0,0:0:0:0:
163,79,38538,1,0,0:0:0:0:
163,79,38613,2,0,L|156:114,3,25.2,2|0|0|0,2:0|0:0|0:0|0:0,0:0:0:0:
224,150,38913,2,0,L|231:185,3,25.2,2|0|0|0,2:0|0:0|0:0|0:0,0:0:0:0:
291,231,39213,5,2,2:0:0:0:
307,235,39288,1,0,0:0:0:0:
324,227,39363,1,0,0:0:0:0:
334,211,39438,1,0,0:0:0:0:
336,195,39513,5,6,1:2:0:0:
206,253,39663,2,0,P|165:263|124:277,1,85.3999999999999,2|8,2:0|2:0,0:0:0:0:
206,253,39963,1,2,2:0:0:0:
341,344,40113,2,0,P|382:354|423:368,1,85.3999999999999,10|0,2:3|0:0,0:0:0:0:
336,195,40413,5,2,1:2:0:0:
419,145,40563,2,0,P|429:104|443:63,1,85.3999999999999,2|0,2:0|1:2,0:0:0:0:
299,0,40863,1,2,2:0:0:0:
241,78,41013,2,0,P|156:65|99:6,1,170.8,10|8,2:3|2:0,0:0:0:0:
99,6,41613,1,2,1:2:0:0:
0,61,41763,1,2,2:0:0:0:
87,240,41913,5,2,1:2:0:0:
107,152,42063,2,0,L|83:233,1,85.3999999999999,2|8,2:0|2:0,0:0:0:0:
143,371,42363,1,2,2:0:0:0:
228,325,42513,2,0,L|204:243,1,85.3999999999999,10|0,2:3|0:0,0:0:0:0:
301,142,42813,1,2,1:2:0:0:
358,221,42963,2,0,L|439:244,1,85.3999999999999,2|0,2:0|1:2,0:0:0:0:
298,148,43263,5,2,2:0:0:0:
204,243,43413,2,0,B|135:270|135:270|109:264|109:264|43:289,1,170.8,10|8,2:3|2:0,0:0:0:0:
43,288,44013,2,0,P|64:252|51:213,1,85.3999999999999,2|0,1:2|0:0,0:0:0:0:
5,57,44313,5,2,1:2:0:0:
91,122,44463,2,0,P|132:111|172:98,1,85.3999999999999,2|8,2:0|2:0,0:0:0:0:
91,122,44763,1,2,2:0:0:0:
204,243,44913,2,0,P|190:283|180:324,1,85.3999999999999,10|0,2:3|0:0,0:0:0:0:
328,323,45213,1,2,1:2:0:0:
341,230,45363,2,0,P|330:188|317:148,1,85.3999999999999,2|0,2:0|1:2,0:0:0:0:
172,98,45663,5,2,2:0:0:0:
171,0,45813,2,0,P|86:12|29:71,1,170.8,10|8,2:3|2:0,0:0:0:0:
171,0,46263,1,0,0:0:0:0:
275,80,46413,1,2,1:2:0:0:
364,43,46563,1,2,2:0:0:0:
444,222,46713,5,2,1:2:0:0:
452,126,46863,2,0,L|370:149,1,85.3999999999999,2|8,2:0|2:0,0:0:0:0:
261,322,47163,1,2,2:0:0:0:
318,244,47313,2,0,L|236:220,1,85.3999999999999,10|0,2:3|0:0,0:0:0:0:
318,244,47613,1,2,1:2:0:0:
431,370,47763,2,0,L|512:346,1,85.3999999999999,2|0,2:0|1:2,0:0:0:0:
413,141,48063,5,2,2:0:0:0:
444,222,48213,2,0,P|434:181|420:140,1,85.3999999999999,10|0,2:3|0:0,0:0:0:0:
463,247,48513,2,0,P|453:206|439:165,1,85.3999999999999,8|0,2:0|0:0,0:0:0:0:
275,80,48813,1,2,1:2:0:0:
253,173,48963,1,0,0:0:0:0:
357,30,49113,5,6,1:2:0:0:
275,80,49263,2,0,P|234:66|193:56,1,85.3999999999999,2|8,2:0|2:0,0:0:0:0:
115,195,49563,1,2,2:0:0:0:
30,225,49713,2,0,P|71:214|111:201,1,85.3999999999999,10|0,2:3|0:0,0:0:0:0:
213,338,50013,5,2,1:2:0:0:
239,230,50163,1,2,2:0:0:0:
362,342,50313,1,2,1:2:0:0:
328,199,50463,1,2,2:0:0:0:
212,345,50613,5,10,2:3:0:0:
126,305,50763,2,0,P|84:315|44:328,2,85.3999999999999,2|8|0,2:0|2:0|0:0,0:0:0:0:
239,230,51213,1,2,1:2:0:0:
239,230,51363,1,2,2:0:0:0:
78,115,51513,5,2,1:2:0:0:
171,82,51663,2,0,L|195:1,1,85.3999999999999,2|8,2:0|2:0,0:0:0:0:
171,82,51963,1,2,2:0:0:0:
101,223,52113,2,0,L|125:304,1,85.3999999999999,10|0,2:3|0:0,0:0:0:0:
293,283,52413,1,2,1:2:0:0:
271,371,52563,2,0,L|295:290,1,85.3999999999999,2|0,2:0|1:2,0:0:0:0:
467,209,52863,5,2,2:0:0:0:
382,108,53013,2,0,P|319:117|276:161,1,128.1,10|0,2:3|0:0,0:0:0:0:
197,142,53313,5,8,2:0:0:0:
182,126,53388,1,0,0:0:0:0:
175,105,53463,1,0,0:0:0:0:
179,84,53538,1,0,0:0:0:0:
193,67,53613,6,0,L|206:24,1,42.6999982408143,0|0,1:2|0:0,0:0:0:0:
281,0,53763,2,0,L|296:43,1,42.6999982408143
422,119,53913,6,0,P|402:111|380:107,1,42.6999999999999,6|0,1:2|0:0,0:0:0:0:
429,150,54063,2,0,P|469:135|511:125,1,85.3999999999999,2|8,2:0|2:0,0:0:0:0:
405,249,54363,1,2,2:0:0:0:
405,249,54438,1,0,0:0:0:0:
405,249,54513,2,0,P|364:235|323:225,1,85.3999999999999,10|0,2:3|0:0,0:0:0:0:
487,331,54813,1,2,1:2:0:0:
402,361,54963,2,0,P|442:347|484:337,1,85.3999999999999,2|0,2:0|1:2,0:0:0:0:
246,368,55263,5,2,2:0:0:0:
150,350,55413,2,0,L|125:266,1,85.3999999999999,10|0,2:3|0:0,0:0:0:0:
120,343,55713,2,0,L|95:259,1,85.3999999999999,8|0,2:0|0:0,0:0:0:0:
51,108,56013,1,2,1:2:0:0:
0,190,56163,1,2,2:0:0:0:
220,245,56313,5,2,1:2:0:0:
295,183,56463,2,0,P|336:193|377:207,1,85.3999999999999,2|8,2:0|2:0,0:0:0:0:
293,59,56763,1,2,2:0:0:0:
359,5,56913,2,0,P|329:36|297:64,1,85.3999999999999,10|0,2:3|0:0,0:0:0:0:
467,65,57213,1,2,1:2:0:0:
481,149,57363,2,0,P|469:108|461:66,1,85.3999999999999,2|0,2:0|1:2,0:0:0:0:
376,206,57663,5,2,2:0:0:0:
376,206,57813,2,0,L|356:288,1,85.3999999999999,10|0,2:3|0:0,0:0:0:0:
272,359,58113,2,0,L|252:276,1,85.3999999999999,8|0,2:0|0:0,0:0:0:0:
67,288,58413,1,2,1:2:0:0:
116,141,58563,1,2,2:0:0:0:
67,288,58713,6,0,B|66:246|124:245|127:245|132:245|193:244|191:197,1,170.8,6|6,1:2|2:3,0:0:0:0:
116,141,59163,1,2,2:0:0:0:
116,141,59313,2,0,L|92:59,1,85.3999999999999,10|2,2:3|2:0,0:0:0:0:
214,114,59613,2,0,L|190:196,1,85.3999999999999,2|2,1:2|2:0,0:0:0:0:
139,326,59913,6,0,B|205:301|205:301|231:307|231:307|300:280,1,170.8,2|6,1:2|2:3,0:0:0:0:
429,274,60363,1,2,2:0:0:0:
401,361,60513,2,0,P|411:320|425:279,1,85.3999999999999,10|2,2:0|2:0,0:0:0:0:
345,181,60813,2,0,P|335:140|321:99,1,85.3999999999999,2|0,1:2|0:0,0:0:0:0:
203,45,61113,5,2,1:2:0:0:
167,117,61263,1,2,2:0:0:0:
90,95,61413,1,6,2:3:0:0:
95,101,61563,5,2,2:0:0:0:
172,121,61713,1,10,2:3:0:0:
208,50,61863,1,2,2:0:0:0:
137,194,62013,2,0,L|161:276,1,85.3999999999999,2|0,1:2|0:0,0:0:0:0:
330,368,62313,6,0,P|404:329|439:252,1,170.8,2|6,1:2|2:3,0:0:0:0:
328,184,62763,1,2,2:0:0:0:
328,184,62913,2,0,P|317:142|304:102,1,85.3999999999999,10|0,2:0|0:0,0:0:0:0:
218,60,63213,1,2,1:2:0:0:
218,60,63363,1,2,2:0:0:0:
138,195,63513,5,2,1:2:0:0:
67,160,63663,1,2,2:0:0:0:
21,222,63813,1,6,2:3:0:0:
143,200,63963,5,2,2:0:0:0:
72,165,64113,1,10,2:3:0:0:
26,227,64263,1,2,2:0:0:0:
111,331,64413,2,0,P|70:316|29:306,1,85.3999999999999,2|2,1:2|2:0,0:0:0:0:
262,295,64713,6,0,P|240:212|214:131,1,170.8,2|6,1:2|2:3,0:0:0:0:
262,295,65163,1,0,0:0:0:0:
399,202,65313,2,0,P|372:283|351:365,1,170.8,10|2,2:0|1:2,0:0:0:0:
399,202,65763,1,0,0:0:0:0:
508,83,65913,5,2,1:2:0:0:
421,129,66063,1,2,2:0:0:0:
234,49,66213,2,0,L|315:25,1,85.3999999999999,6|0,2:3|0:0,0:0:0:0:
135,106,66513,2,0,L|74:48,1,85.3999999999999,10|0,2:3|0:0,0:0:0:0:
238,165,66813,2,0,L|219:248,1,85.3999999999999,2|0,1:2|0:0,0:0:0:0:
339,285,67113,6,0,P|424:272|481:213,1,170.8,2|6,1:2|2:3,0:0:0:0:
242,364,67563,2,0,P|166:322|133:247,1,170.8,2|0,2:0|0:0,0:0:0:0:
40,212,68013,1,0,1:2:0:0:
15,303,68163,1,2,2:0:0:0:
235,129,68313,6,0,P|317:150|398:176,1,170.8,6|4,1:2|2:3,0:0:0:0:
235,129,68763,1,2,2:0:0:0:
163,23,68913,2,0,P|80:44|0:70,1,170.8,10|0,2:3|1:2,0:0:0:0:
111,132,69363,1,2,2:0:0:0:
68,299,69513,6,0,B|95:230|95:230|89:204|89:204|114:138,1,170.8,2|4,1:2|2:3,0:0:0:0:
235,129,69963,1,2,2:0:0:0:
248,258,70113,2,0,L|329:234,1,85.3999999999999,10|2,2:0|2:0,0:0:0:0:
232,358,70413,2,0,L|191:346,2,42.6999999999999,2|0|0,1:2|0:0|0:0,0:0:0:0:
68,299,70713,6,0,P|62:274|54:254,1,42.6999999999999,2|0,1:2|0:0,0:0:0:0:
55,258,71013,6,0,P|62:215|74:175,1,85.3999999999999,6|0,2:3|0:0,0:0:0:0:
166,82,71313,2,0,P|158:39|146:0,1,85.3999999999999,10|0,2:3|0:0,0:0:0:0:
49,62,71613,1,2,1:2:0:0:
49,62,71763,1,2,2:0:0:0:
183,194,71913,6,0,P|202:185|223:181,1,42.6999999999999,2|0,1:2|0:0,0:0:0:0:
271,258,72063,1,0,0:0:0:0:
271,258,72138,1,0,0:0:0:0:
271,258,72213,2,0,L|314:270,3,42.6999999999999,6|0|0|0,2:3|0:0|0:0|0:0,0:0:0:0:
388,213,72513,2,0,L|429:201,3,42.6999999999999,10|0|0|0,2:0|0:0|0:0|0:0,0:0:0:0:
506,263,72813,1,2,1:2:0:0:
449,344,72963,1,0,0:0:0:0:
222,365,73113,5,2,1:2:0:0:
130,330,73263,2,0,P|188:270|271:258,1,170.8,2|2,2:0|2:0,0:0:0:0:
430,202,73713,2,0,P|346:190|288:130,1,170.8,10|0,2:3|1:2,0:0:0:0:
108,206,74163,5,2,2:0:0:0:
39,137,74313,2,0,B|38:95|96:94|99:94|104:94|165:93|163:46,1,170.8,2|4,1:2|2:3,0:0:0:0:
39,137,74763,1,2,2:0:0:0:
108,206,74913,2,0,L|86:292,1,85.3999999999999,10|0,2:0|0:0,0:0:0:0:
206,198,75213,6,0,L|195:156,4,28.35,2|0|0|0|0,1:2|0:0|0:0|0:0|0:0,0:0:0:0:
379,350,75513,6,0,B|393:336|393:336|392:310,8,38.85,2|0|0|0|0|0|0|0|6,1:2|0:0|0:0|0:0|0:0|0:0|0:0|0:0|2:3,0:0:0:0:
100,321,75963,1,2,2:0:0:0:
100,321,76038,1,0,0:0:0:0:
100,321,76113,2,0,B|86:307|86:307|87:281,6,38.85,10|0|0|0|0|0|0,2:3|0:0|0:0|0:0|0:0|0:0|0:0,0:0:0:0:
172,351,76413,6,0,L|252:320,1,85.3999999999999,2|2,1:2|2:0,0:0:0:0:
307,189,76713,1,2,1:2:0:0:
379,350,76863,1,2,2:0:0:0:
460,241,77013,1,6,2:3:0:0:
320,274,77163,1,2,2:0:0:0:
205,150,77313,2,0,P|114:150|72:211,1,170.8,10|0,2:0|1:2,0:0:0:0:
205,150,77763,1,0,0:0:0:0:
322,281,77913,5,6,1:2:0:0:
389,216,78063,2,0,P|399:175|413:134,1,85.3999999999999,2|8,2:0|2:0,0:0:0:0:
256,90,78363,1,2,2:0:0:0:
235,2,78513,2,0,P|248:42|258:83,1,85.3999999999999,10|0,2:3|0:0,0:0:0:0:
163,217,78813,1,2,1:2:0:0:
105,141,78963,2,0,P|64:127|23:117,1,85.3999999999999,2|0,2:0|1:2,0:0:0:0:
105,141,79263,1,2,2:0:0:0:
135,297,79413,6,0,L|162:216,1,85.3999999999999,6|0,2:3|0:0,0:0:0:0:
146,326,79713,2,0,L|173:245,1,85.3999999999999,8|0,2:0|0:0,0:0:0:0:
32,274,80013,1,2,1:2:0:0:
63,361,80163,1,2,2:0:0:0:
275,341,80313,5,2,1:2:0:0:
250,249,80463,2,0,P|260:207|273:167,1,85.3999999999999,2|8,2:0|2:0,0:0:0:0:
250,249,80763,1,2,2:0:0:0:
411,285,80913,2,0,P|424:325|434:366,1,85.3999999999999,8|0,2:3|0:0,0:0:0:0:
391,192,81213,1,2,1:2:0:0:
478,150,81363,2,0,P|488:108|501:68,1,85.3999999999999,2|0,2:0|1:2,0:0:0:0:
398,0,81663,5,2,2:0:0:0:
398,0,81738,1,0,0:0:0:0:
398,0,81813,2,0,L|352:16,3,42.6999999999999,6|0|0|0,2:3|0:0|0:0|0:0,0:0:0:0:
300,70,82113,2,0,L|259:55,3,42.6999999999999,8|0|0|0,2:0|0:0|0:0|0:0,0:0:0:0:
204,0,82413,5,0,1:2:0:0:
184,8,82488,1,0,0:0:0:0:
169,23,82563,1,0,0:0:0:0:
162,43,82638,1,0,0:0:0:0:
164,64,82713,5,6,1:2:0:0:
239,208,82863,2,0,P|225:248|215:289,1,85.3999999999999,2|8,2:0|2:0,0:0:0:0:
45,265,83163,1,2,2:0:0:0:
73,352,83313,2,0,P|62:310|49:270,1,85.3999999999999,10|0,2:3|0:0,0:0:0:0:
214,289,83613,1,2,1:2:0:0:
268,370,83763,2,0,P|308:356|349:346,1,85.3999999999999,2|0,2:0|1:2,0:0:0:0:
268,370,84063,5,2,2:0:0:0:
93,205,84213,2,0,P|105:120|164:63,1,170.8,6|8,2:3|2:0,0:0:0:0:
93,205,84663,1,0,0:0:0:0:
214,289,84813,2,0,L|129:308,1,85.3999999999999,2|2,1:2|2:0,0:0:0:0:
349,346,85113,5,2,1:2:0:0:
303,260,85263,2,0,P|313:218|327:178,1,85.3999999999999,2|8,2:0|2:0,0:0:0:0:
173,73,85563,1,2,2:0:0:0:
206,164,85713,2,0,P|195:122|181:82,1,85.3999999999999,10|0,2:3|0:0,0:0:0:0:
206,164,86013,1,2,1:2:0:0:
324,10,86163,2,0,P|309:50|299:91,1,85.3999999999999,2|0,2:0|1:2,0:0:0:0:
380,315,86463,5,2,2:0:0:0:
303,260,86613,2,0,B|234:287|234:287|208:281|208:281|142:306,1,170.8,6|8,2:3|2:0,0:0:0:0:
142,305,87213,2,0,P|163:269|150:230,1,85.3999999999999,0|0,1:2|0:0,0:0:0:0:
0,114,87513,1,6,1:2:0:0:
304,204,94713,5,2,1:2:0:0:
393,163,94863,2,0,P|434:173|475:187,1,85.3999999999999,2|4,2:0|2:3,0:0:0:0:
414,37,95163,2,0,P|211:106|3:156,1,426.999999999999,2|0,2:0|1:2,0:0:0:0:
145,260,96063,5,0,0:0:0:0:
145,260,96213,2,0,L|165:342,1,85.3999999999999,6|0,2:3|0:0,0:0:0:0:
273,364,96513,2,0,L|253:282,1,85.3999999999999,10|0,2:3|0:0,0:0:0:0:
335,213,96813,2,0,L|355:295,1,85.3999999999999,2|0,1:2|0:0,0:0:0:0:
504,352,97113,6,0,B|484:280|484:280|493:255|493:255|475:187,1,170.8,2|6,1:2|2:3,0:0:0:0:
363,103,97563,2,0,P|373:62|387:21,1,85.3999999999999,2|8,2:0|2:3,0:0:0:0:
249,60,97863,2,0,P|262:100|272:141,1,85.3999999999999,2|0,2:0|1:2,0:0:0:0:
124,233,98163,5,2,2:0:0:0:
124,233,98238,1,2,2:0:0:0:
124,233,98313,2,0,P|209:245|266:304,2,170.8,2|4|8,1:2|2:3|2:3,0:0:0:0:
124,233,99213,2,0,P|187:224|229:180,1,128.1,2|0,1:2|0:0,0:0:0:0:
235,181,99513,6,0,P|245:139|258:99,1,85.3999999999999,2|2,1:2|2:0,0:0:0:0:
113,32,99813,2,0,P|126:72|136:113,1,85.3999999999999,4|2,2:3|2:0,0:0:0:0:
113,32,100113,1,10,2:3:0:0:
124,233,100263,2,0,P|46:225|11:148,1,170.799992963257,0|2,0:0|2:0,0:0:0:0:
98,355,100713,6,0,B|170:335|170:335|195:344|195:344|263:326,1,170.8,0|6,1:2|2:3,0:0:0:0:
359,334,101163,1,0,0:0:0:0:
309,172,101313,1,10,2:3:0:0:
384,242,101463,1,0,0:0:0:0:
468,143,101613,2,0,L|488:61,1,85.3999999999999,0|2,1:2|2:0,0:0:0:0:
386,249,101913,5,2,1:2:0:0:
359,334,102063,2,0,P|444:322|501:263,1,170.8,2|2,2:0|2:0,0:0:0:0:
359,334,102513,2,0,P|320:316|279:304,1,85.3999999999999,10|0,2:3|0:0,0:0:0:0:
269,307,102738,1,0,0:0:0:0:
260,312,102813,2,0,L|218:335,1,42.6999999999999,2|2,1:2|2:0,0:0:0:0:
152,368,102963,1,2,2:0:0:0:
28,282,103113,6,0,P|16:240|0:201,1,85.3999999999999,2|0,1:2|0:0,0:0:0:0:
55,88,103413,1,6,2:3:0:0:
81,0,103563,2,0,P|64:39|53:80,1,85.3999999999999,2|10,2:0|2:3,0:0:0:0:
160,150,103863,1,0,0:0:0:0:
194,235,104013,2,0,P|182:193|166:154,1,85.3999999999999,0|0,1:2|0:0,0:0:0:0:
446,121,104313,6,0,L|431:209,1,85.3999999999999,2|0,1:2|0:0,0:0:0:0:
319,285,104613,2,0,L|304:200,1,85.3999999999999,6|0,2:3|0:0,0:0:0:0:
217,70,104913,1,8,2:3:0:0:
166,154,105063,2,0,P|123:162|74:175,1,85.3999964816286,0|2,0:0|1:2,0:0:0:0:
166,154,105363,1,2,2:0:0:0:
319,284,105513,6,0,P|405:305|491:334,1,170.799992963257,2|6,1:2|2:3,0:0:0:0:
319,284,105963,1,2,2:0:0:0:
194,358,106113,1,10,2:3:0:0:
133,232,106263,1,0,0:0:0:0:
230,103,106413,2,0,P|290:109|317:168,1,128.1,2|0,1:2|0:0,0:0:0:0:
317,165,106713,6,0,P|275:175|235:188,1,85.3999999999999,2|0,1:2|0:0,0:0:0:0:
385,216,107013,2,0,P|427:226|467:239,1,85.3999999999999,4|0,2:3|0:0,0:0:0:0:
421,61,107313,1,8,2:3:0:0:
512,168,107463,2,0,P|500:84|427:58,1,170.8
234,188,107913,6,0,P|149:176|92:117,1,170.8,0|4,1:2|2:3,0:0:0:0:
234,188,108363,1,0,0:0:0:0:
152,288,108513,1,8,2:3:0:0:
317,165,108663,5,2,2:0:0:0:
342,241,108813,1,2,1:2:0:0:
368,316,108963,1,2,2:0:0:0:
317,165,109113,2,0,L|340:82,1,85.3999999999999,2|0,1:2|0:0,0:0:0:0:
234,188,109413,2,0,L|294:352,1,170.8,6|8,2:3|2:3,0:0:0:0:
125,247,109863,5,0,0:0:0:0:
48,259,110013,1,2,1:2:0:0:
32,334,110163,1,2,2:0:0:0:
125,247,110313,2,0,P|115:206|101:165,1,85.3999999999999,2|0,1:2|0:0,0:0:0:0:
203,37,110613,2,0,P|189:77|179:118,1,85.3999999999999,6|0,2:3|0:0,0:0:0:0:
317,165,110913,1,8,2:0:0:0:
292,348,111063,5,2,2:0:0:0:
369,336,111213,1,2,1:2:0:0:
385,261,111363,1,2,2:0:0:0:
292,348,111513,2,0,L|209:371,1,85.3999999999999,2|0,1:2|0:0,0:0:0:0:
317,165,111813,2,0,L|481:210,1,170.8,6|8,2:3|2:3,0:0:0:0:
293,247,112263,5,2,2:0:0:0:
217,272,112413,1,2,1:2:0:0:
142,298,112563,1,2,2:0:0:0:
293,247,112713,2,0,P|303:205|316:165,1,85.3999999999999,2|0,1:2|0:0,0:0:0:0:
149,31,113013,2,0,P|175:112|194:195,1,170.8,6|8,2:3|2:0,0:0:0:0:
72,332,113463,5,2,2:0:0:0:
142,298,113613,1,2,1:2:0:0:
191,360,113763,1,2,2:0:0:0:
72,332,113913,2,0,B|58:278|58:278|64:259|64:259|51:208,1,128.1,0|0,1:2|0:0,0:0:0:0:
51,208,114213,1,4,2:3:0:0:
208,104,114363,5,2,2:0:0:0:
63,26,114513,2,0,P|148:38|205:97,1,170.8,10|0,2:3|1:2,0:0:0:0:
264,259,114963,5,2,2:0:0:0:
387,161,115113,2,0,B|388:203|330:204|327:204|322:204|261:205|263:252,1,170.8,2|4,1:2|2:3,0:0:0:0:
387,161,115563,1,2,2:0:0:0:
270,40,115713,5,10,2:0:0:0:
91,114,115863,1,2,2:0:0:0:
88,282,116013,1,2,1:2:0:0:
200,343,116163,1,2,2:0:0:0:
202,352,116313,5,6,2:3:0:0:
87,288,116463,1,2,2:0:0:0:
89,120,116613,1,2,2:0:0:0:
256,192,116688,12,8,118113,2:0:0:0:
220,9,118713,6,0,P|238:64|252:120,1,117.6,4|0,1:2|0:0,0:0:0:0:
252,121,119013,2,0,P|271:99|292:79,2,39.2,6|0|0,2:3|0:0|0:0,0:0:0:0:
286,251,119313,2,0,P|249:239|212:230,1,78.4,10|0,2:3|0:0,0:0:0:0:
307,350,119613,2,0,P|345:340|382:328,1,78.4,2|0,1:2|0:0,0:0:0:0:
399,172,119913,6,0,P|349:109|276:91,1,156.8,2|6,1:2|2:3,0:0:0:0:
137,163,120363,1,0,0:0:0:0:
210,229,120513,2,0,P|160:291|87:309,1,156.8,10|0,2:0|1:2,0:0:0:0:
210,229,120963,1,0,0:0:0:0:
337,334,121113,6,0,L|449:363,1,117.6,0|0,1:2|0:0,0:0:0:0:
450,363,121413,2,0,P|440:324|428:287,1,78.4,6|0,2:3|0:0,0:0:0:0:
491,179,121713,2,0,P|501:140|513:103,1,78.4,10|0,2:3|0:0,0:0:0:0:
384,75,122013,2,0,P|374:36|362:-1,1,78.4,2|0,1:2|0:0,0:0:0:0:
273,186,122313,6,0,P|310:195|348:208,1,78.4,2|0,1:2|0:0,0:0:0:0:
214,102,122613,2,0,P|176:114|138:124,1,78.4,6|0,2:3|0:0,0:0:0:0:
91,211,122913,1,10,2:0:0:0:
12,326,123063,1,2,2:0:0:0:
94,219,123213,1,2,1:2:0:0:
141,364,123363,1,2,2:0:0:0:
251,261,123513,6,0,P|261:222|273:185,1,78.4,2|0,1:2|0:0,0:0:0:0:
369,142,123813,1,6,2:3:0:0:
369,142,123963,1,2,2:0:0:0:
261,18,124113,2,0,L|184:37,1,78.4,10|0,2:3|0:0,0:0:0:0:
76,97,124413,2,0,L|0:77,1,78.4,2|0,1:2|0:0,0:0:0:0:
125,227,124713,6,0,B|185:204|185:204|208:209|208:209|271:185,1,156.8,2|6,1:2|2:3,0:0:0:0:
125,227,125163,1,0,0:0:0:0:
185,293,125313,2,0,P|172:330|163:368,1,78.4,10|2,2:0|2:0,0:0:0:0:
294,259,125613,2,0,P|284:221|272:183,1,78.4,2|2,1:2|2:0,0:0:0:0:
426,302,125913,6,0,P|461:291|495:265,1,78.4,2|0,1:2|0:0,0:0:0:0:
397,135,126213,2,0,P|366:111|328:100,1,78.4,6|0,2:3|0:0,0:0:0:0:
272,184,126513,1,10,2:3:0:0:
125,109,126663,1,0,0:0:0:0:
84,38,126813,2,0,P|107:68|118:106,1,78.4,2|0,1:2|0:0,0:0:0:0:
0,261,127113,6,0,P|38:270|75:283,1,78.4,2|0,1:2|0:0,0:0:0:0:
187,347,127413,2,0,P|149:356|112:369,1,78.4,6|0,2:3|0:0,0:0:0:0:
249,259,127713,2,0,P|258:221|271:184,1,78.4,10|0,2:0|0:0,0:0:0:0:
335,72,128013,2,0,P|344:109|357:146,1,78.4,0|0,1:2|0:0,0:0:0:0:
335,72,128313,1,0,1:2:0:0:
60,325,130713,5,6,1:2:0:0:
196,360,130863,1,2,2:0:0:0:
277,249,131013,2,0,L|247:171,1,78.4,6|0,2:3|0:0,0:0:0:0:
368,95,131313,2,0,L|339:168,1,78.4,8|0,2:3|0:0,0:0:0:0:
197,55,131613,2,0,P|141:69|105:115,1,117.6,2|0,1:2|0:0,0:0:0:0:
105,115,131913,5,2,1:2:0:0:
248,175,132063,1,2,2:0:0:0:
368,95,132213,2,0,P|405:104|442:117,1,78.4,6|0,2:3|0:0,0:0:0:0:
383,255,132513,2,0,P|345:264|308:277,1,78.4,8|0,2:0|0:0,0:0:0:0:
212,369,132813,1,2,1:2:0:0:
212,369,132963,1,0,0:0:0:0:
69,232,133113,6,0,L|96:158,1,78.4,2|2,1:2|2:0,0:0:0:0:
84,260,133413,2,0,L|111:186,1,78.4,6|0,2:3|0:0,0:0:0:0:
99,288,133713,6,0,L|121:227,1,65.1000000000001,10|0,2:3|0:0,0:0:0:0:
121,226,134013,5,2,1:2:0:0:
121,226,134088,1,2,2:0:0:0:
121,226,134163,1,2,2:0:0:0:
291,337,134313,1,0,1:2:0:0:
212,369,134463,2,0,L|286:342,1,78.4,2|4,2:0|2:3,0:0:0:0:
480,365,134763,5,2,2:0:0:0:
480,365,134838,1,2,2:0:0:0:
480,365,134913,2,0,P|489:328|502:291,1,78.4,10|0,2:0|0:0,0:0:0:0:
419,192,135213,2,0,P|410:155|397:118,1,78.4,2|2,1:2|2:0,0:0:0:0:
222,26,135513,5,2,1:2:0:0:
185,149,135663,1,2,2:0:0:0:
76,83,135813,2,0,L|2:110,1,78.4,6|0,2:3|0:0,0:0:0:0:
76,83,136113,1,8,2:3:0:0:
185,149,136263,1,0,0:0:0:0:
306,0,136413,2,0,L|380:27,1,78.4,2|0,1:2|0:0,0:0:0:0:
318,211,136713,5,2,1:2:0:0:
255,104,136863,1,2,2:0:0:0:
280,278,137013,2,0,P|310:254|320:217,1,78.4,6|0,2:3|0:0,0:0:0:0:
191,302,137313,2,0,P|196:340|223:367,1,78.4,8|0,2:0|0:0,0:0:0:0:
327,376,137613,1,2,1:2:0:0:
280,278,137763,1,2,2:0:0:0:
109,369,137913,5,2,1:2:0:0:
109,369,137988,1,0,1:2:0:0:
109,369,138063,1,0,1:2:0:0:
14,276,138213,2,0,P|27:239|36:201,1,78.4,6|0,2:3|1:2,0:0:0:0:
192,146,138513,2,0,P|178:109|169:71,1,78.4,10|8,2:3|2:3,0:0:0:0:
15,20,138813,1,0,1:2:0:0:
99,137,138963,1,0,1:2:0:0:
268,25,139113,6,0,L|343:50,1,78.4,4|0,2:3|0:0,0:0:0:0:
435,13,139413,1,4,2:3:0:0:
435,13,139563,1,0,1:2:0:0:
475,177,139713,1,8,2:0:0:0:
475,177,139863,1,0,1:2:0:0:
395,126,140013,2,0,L|320:151,1,78.4,4|0,2:3|1:2,0:0:0:0:
233,359,140313,5,6,1:2:0:0:
104,239,140463,1,2,2:0:0:0:
130,137,140613,2,0,P|113:183|102:231,1,99.4,10|0,2:0|1:2,0:0:0:0:
320,150,140913,1,8,2:3:0:0:
220,4,141063,1,0,0:0:0:0:
252,105,141213,2,0,P|240:56|224:9,1,99.4,2|0,1:2|0:0,0:0:0:0:
40,110,141513,5,2,1:2:0:0:
104,239,141663,1,2,2:0:0:0:
266,213,141813,2,0,P|307:241|346:272,1,99.4,6|0,2:3|1:2,0:0:0:0:
472,138,142113,2,0,P|433:169|391:196,1,99.4,8|0,2:0|0:0,0:0:0:0:
431,355,142413,2,0,P|427:330|425:305,2,49.7,2|0|2,1:2|0:0|2:0,0:0:0:0:
235,307,142713,6,0,L|266:211,1,99.4,2|2,1:2|2:0,0:0:0:0:
204,312,143013,2,0,L|235:216,1,99.4,10|0,2:0|1:2,0:0:0:0:
172,316,143313,6,0,L|192:251,1,65.1000000000001,10|0,2:3|0:0,0:0:0:0:
192,254,143613,5,2,1:2:0:0:
192,254,143688,1,2,2:0:0:0:
192,254,143763,1,2,2:0:0:0:
108,95,143913,1,0,1:2:0:0:
207,73,144063,2,0,P|160:89|112:101,1,99.4,2|4,2:0|2:3,0:0:0:0:
291,142,144363,5,2,1:2:0:0:
291,142,144438,1,2,2:0:0:0:
291,142,144513,2,0,P|339:154|386:170,1,99.4,10|0,2:0|0:0,0:0:0:0:
483,296,144813,1,2,1:2:0:0:
512,170,144963,1,0,0:0:0:0:
346,292,145113,5,2,1:2:0:0:
291,142,145263,1,2,2:0:0:0:
191,280,145413,2,0,L|93:303,1,99.4,10|0,2:0|1:2,0:0:0:0:
2,172,145713,2,0,L|98:194,1,99.4,10|0,2:3|0:0,0:0:0:0:
251,60,146013,2,0,B|189:83|189:83|168:78|168:78|111:100,1,149.1,2|0,1:2|0:0,0:0:0:0:
110,100,146313,5,2,1:2:0:0:
251,60,146463,1,2,2:0:0:0:
375,196,146613,2,0,L|346:291,1,99.4,6|0,2:3|1:2,0:0:0:0:
485,197,146913,2,0,L|456:102,1,99.4,8|0,2:0|0:0,0:0:0:0:
329,15,147213,2,0,P|286:19|250:63,1,99.4,2|2,1:2|2:0,0:0:0:0:
191,280,147513,5,2,1:2:0:0:
191,280,147588,1,0,0:0:0:0:
191,280,147663,1,0,0:0:0:0:
101,247,147813,1,6,2:3:0:0:
169,190,147963,1,0,1:2:0:0:
124,323,148113,1,10,2:3:0:0:
94,170,148263,1,8,2:3:0:0:
241,222,148413,1,0,1:2:0:0:
43,302,148563,1,0,1:2:0:0:
94,170,148713,6,0,L|77:123,1,49.7,2|0,1:2|0:0,0:0:0:0:
140,76,148863,2,0,L|156:29,1,49.7
257,0,149013,5,10,2:0:0:0:
285,8,149088,1,0,0:0:0:0:
309,25,149163,1,0,1:2:0:0:
324,50,149238,1,0,0:0:0:0:
328,79,149313,2,0,L|311:125,3,49.7,10|0|0|0,2:3|0:0|1:2|0:0,0:0:0:0:
223,175,149613,6,0,L|240:221,1,49.7,2|0,1:2|0:0,0:0:0:0:
291,310,149763,2,0,L|308:264,1,49.7,8|0,2:0|0:0,0:0:0:0:
215,370,149913,6,0,P|291:332|375:336,1,170.8,6|8,1:2|2:0,0:0:0:0:
215,370,150363,1,2,2:0:0:0:
98,311,150513,2,0,P|87:269|74:229,1,85.4,10|0,2:3|0:0,0:0:0:0:
135,119,150813,2,0,P|145:77|158:37,1,85.4,2|0,1:2|0:0,0:0:0:0:
351,2,151113,6,0,B|413:25|413:25|445:27|445:27|513:53,1,170.8,2|4,1:2|2:3,0:0:0:0:
351,2,151563,1,2,2:0:0:0:
299,128,151713,2,0,L|217:153,1,85.4,10|0,2:0|0:0,0:0:0:0:
320,239,152013,2,0,L|401:264,1,85.4,2|0,1:2|0:0,0:0:0:0:
206,352,152313,5,2,1:2:0:0:
307,320,152463,1,2,2:0:0:0:
152,290,152613,5,10,2:0:0:0:
320,239,152763,1,2,2:0:0:0:
166,210,152913,5,10,2:3:0:0:
263,182,153063,1,2,2:0:0:0:
176,130,153213,5,2,1:2:0:0:
209,120,153363,1,2,2:0:0:0:
163,55,153513,5,2,1:2:0:0:
170,53,153663,1,2,2:0:0:0:
178,51,153813,1,6,2:3:0:0:
304,108,153963,1,2,2:0:0:0:
381,50,154113,2,0,P|423:60|462:73,1,85.4,10|0,2:0|0:0,0:0:0:0:
402,215,154413,2,0,P|361:228|319:238,1,85.4,2|2,1:2|2:0,0:0:0:0:
171,359,154713,6,0,P|97:344|86:256,1,170.8,6|8,1:2|2:0,0:0:0:0:
171,359,155163,1,2,2:0:0:0:
292,316,155313,2,0,L|372:347,1,85.4,10|0,2:3|0:0,0:0:0:0:
402,215,155613,2,0,L|482:184,1,85.4,2|0,1:2|0:0,0:0:0:0:
276,134,155913,6,0,B|208:108|208:108|176:106|176:106|114:83,1,170.8,2|4,1:2|2:3,0:0:0:0:
276,134,156363,1,2,2:0:0:0:
395,41,156513,2,0,P|382:82|372:124,1,85.4,10|0,2:0|0:0,0:0:0:0:
269,233,156813,2,0,P|281:273|291:315,1,85.4,2|0,1:2|0:0,0:0:0:0:
175,201,157113,5,2,1:2:0:0:
146,306,157263,1,2,2:0:0:0:
56,244,157413,5,10,2:0:0:0:
146,316,157563,1,2,2:0:0:0:
183,186,157713,5,10,2:3:0:0:
147,326,157863,1,2,2:0:0:0:
42,231,158013,5,2,1:2:0:0:
148,335,158163,1,2,2:0:0:0:
190,168,158313,6,0,L|171:128,1,42.7,2|0,1:2|0:0,0:0:0:0:
242,90,158463,2,0,L|274:59,1,42.7,2|0,2:0|0:0,0:0:0:0:
332,115,158613,2,0,L|371:135,1,42.7,6|0,2:3|0:0,0:0:0:0:
336,208,158763,2,0,L|328:251,1,42.7,2|0,2:0|0:0,0:0:0:0:
230,312,158913,6,0,P|188:321|147:335,1,85.4,10|0,2:0|0:0,0:0:0:0:
88,253,159213,2,0,P|48:239|6:229,1,85.4,0|0,1:2|0:0,0:0:0:0:
88,253,159513,1,0,1:2:0:0:
68,222,161613,5,2,1:2:0:0:
68,222,161913,5,6,1:2:0:0:
60,126,162063,2,0,L|142:149,1,85.4,2|8,2:0|2:0,0:0:0:0:
251,322,162363,1,2,2:0:0:0:
194,244,162513,2,0,L|276:220,1,85.4,10|0,2:3|0:0,0:0:0:0:
453,295,162813,5,2,1:2:0:0:
415,206,162963,2,0,P|425:165|439:124,1,85.4,2|0,2:0|1:2,0:0:0:0:
281,89,163263,1,2,2:0:0:0:
259,0,163413,2,0,P|272:40|282:81,1,85.4,6|0,2:3|0:0,0:0:0:0:
299,20,163713,2,0,P|312:60|322:101,1,85.4,8|0,2:0|0:0,0:0:0:0:
246,205,164013,1,2,1:2:0:0:
155,163,164163,1,2,2:0:0:0:
54,334,164313,5,2,1:2:0:0:
38,244,164463,2,0,L|59:332,1,85.4,2|8,2:0|2:0,0:0:0:0:
178,252,164763,1,2,2:0:0:0:
155,163,164913,2,0,L|174:79,1,85.4,10|0,2:3|0:0,0:0:0:0:
315,246,165213,5,2,1:2:0:0:
398,189,165363,2,0,P|439:199|480:213,1,85.4,2|0,2:0|1:2,0:0:0:0:
398,189,165663,1,2,2:0:0:0:
338,32,165813,2,0,P|257:59|174:79,1,170.8,6|8,2:3|2:0,0:0:0:0:
174,79,166413,2,0,P|214:95|218:141,1,85.4,2|0,1:2|0:0,0:0:0:0:
38,290,166713,5,2,1:2:0:0:
1,201,166863,2,0,L|84:220,1,85.4,2|8,2:0|2:0,0:0:0:0:
165,361,167163,1,2,2:0:0:0:
226,280,167313,2,0,L|309:255,1,85.4,10|0,2:3|0:0,0:0:0:0:
369,110,167613,5,2,1:2:0:0:
439,289,167763,1,2,2:0:0:0:
444,158,167913,1,2,1:2:0:0:
307,255,168063,1,2,2:0:0:0:
213,83,168213,5,6,2:3:0:0:
147,153,168363,2,0,P|106:163|65:177,1,85.4,2|8,2:0|2:0,0:0:0:0:
147,153,168663,1,0,0:0:0:0:
165,283,168813,2,0,P|205:296|246:306,1,85.4,0|0,1:2|0:0,0:0:0:0:
418,285,169113,5,2,1:2:0:0:
394,374,169263,2,0,L|413:290,1,85.4,2|8,2:0|2:0,0:0:0:0:
308,195,169563,1,2,2:0:0:0:
377,132,169713,2,0,L|357:48,1,85.4,10|0,2:3|0:0,0:0:0:0:
215,170,170013,5,2,1:2:0:0:
134,114,170163,2,0,P|93:124|52:138,1,85.4,2|0,2:0|1:2,0:0:0:0:
134,114,170463,1,2,2:0:0:0:
202,0,170613,2,0,P|242:13|283:23,1,85.4,6|0,2:3|0:0,0:0:0:0:
458,108,170913,2,0,P|416:118|376:131,1,85.4,8|0,2:0|0:0,0:0:0:0:
327,283,171213,1,2,1:2:0:0:
183,252,171363,1,2,2:0:0:0:
208,339,171513,6,0,L|188:255,1,85.4,6|2,1:2|2:0,0:0:0:0:
155,254,171813,6,0,L|172:324,1,71.4,10|2,2:0|2:0,0:0:0:0:
136,309,172113,6,0,L|120:242,1,57.4000000000001,10|2,2:3|2:0,0:0:0:0:
89,251,172413,6,0,L|100:294,1,43.4,2|2,1:2|2:0,0:0:0:0:
25,157,172713,5,2,1:2:0:0:
98,92,172863,2,0,P|173:110|247:134,1,156.8,2|2,2:0|2:0,0:0:0:0:
360,266,173313,1,8,2:0:0:0:
399,178,173463,2,0,P|323:196|249:220,1,156.8,2|0,2:0|0:0,0:0:0:0:
376,349,173913,5,2,1:2:0:0:
376,349,174063,1,0,0:0:0:0:
493,285,174213,2,0,L|475:208,1,78.4,10|2,2:0|2:0,0:0:0:0:
413,99,174513,2,0,L|430:22,1,78.4,8|2,2:3|2:0,0:0:0:0:
429,22,174813,1,0,1:2:0:0:
429,22,174963,1,2,2:0:0:0:
248,134,175113,6,0,P|207:120|165:110,1,78.4,0|2,1:2|2:0,0:0:0:0:
114,191,175413,1,6,2:3:0:0:
188,296,175563,1,0,0:0:0:0:
248,220,175713,2,0,P|288:206|330:196,1,78.4,10|0,2:0|0:0,0:0:0:0:
382,123,176013,2,0,P|422:136|464:146,1,78.4,2|0,1:2|0:0,0:0:0:0:
511,227,176313,1,0,1:2:0:0:
34,23,184713,6,0,L|43:83,1,57.4000000000001,0|0,1:2|0:0,0:0:0:0:
70,50,185013,2,0,L|79:110,1,57.4000000000001,4|0,2:3|0:0,0:0:0:0:
190,177,185313,2,0,P|217:167|245:160,1,57.4000000000001,10|0,2:0|0:0,0:0:0:0:
311,90,185613,2,0,P|338:96|366:106,1,57.4000000000001,2|0,1:2|0:0,0:0:0:0:
512,74,185913,6,0,B|500:108|500:108|499:123|499:123|488:156,1,86.1000000000001,2|0,1:2|0:0,0:0:0:0:
476,171,186213,2,0,B|488:205|488:205|489:220|489:220|499:253,1,86.1000000000001,6|0,2:3|0:0,0:0:0:0:
495,272,186513,1,8,2:3:0:0:
288,358,186813,6,0,P|249:349|234:308,1,86.1000000000001,2|0,1:2|0:0,0:0:0:0:
228,292,187113,2,0,P|175:284|138:328,1,114.8,2|4,1:2|2:3,0:0:0:0:
364,268,187713,6,0,L|335:186,1,86.1000000000001,10|0,2:0|0:0,0:0:0:0:
323,176,188013,2,0,L|352:95,1,86.1000000000001,2|0,1:2|0:0,0:0:0:0:
369,91,188313,2,0,P|424:93|465:135,1,114.8,2|6,1:2|2:3,0:0:0:0:
316,332,188913,6,0,P|275:318|233:308,1,86.1000000000001,10|0,2:3|0:0,0:0:0:0:
221,317,189213,2,0,P|180:330|138:340,1,86.1000000000001,2|0,1:2|0:0,0:0:0:0:
125,330,189513,2,0,B|138:284|138:284|139:264|139:264|155:219,1,114.8,2|4,1:2|2:3,0:0:0:0:
35,31,190113,6,0,L|118:62,1,86.1000000000001,10|0,2:0|0:0,0:0:0:0:
129,71,190413,2,0,L|209:40,1,86.1000000000001,2|0,1:2|0:0,0:0:0:0:
226,47,190713,2,0,P|258:72|252:113,1,86.1000000000001,2|0,1:2|0:0,0:0:0:0:
239,124,191013,2,0,P|195:157|203:212,1,114.8,6|8,2:3|2:3,0:0:0:0:
474,269,191613,6,0,P|432:279|391:292,1,86.1000000000001,2|0,1:2|0:0,0:0:0:0:
382,305,191913,2,0,P|341:291|299:281,1,86.1000000000001,2|0,1:2|0:0,0:0:0:0:
284,288,192213,1,4,2:3:0:0:
67,366,192513,6,0,B|56:333|56:333|55:318|55:318|43:284,1,86.1000000000001,10|0,2:0|0:0,0:0:0:0:
30,274,192813,2,0,B|41:241|41:241|42:226|42:226|54:192,1,86.1000000000001,2|0,1:2|0:0,0:0:0:0:
70,184,193113,1,2,2:0:0:0:
105,69,194763,5,2,2:0:0:0:
105,69,194913,2,0,L|89:129,1,43.4,2|0,2:0|0:0,0:0:0:0:
40,169,195213,2,0,L|57:235,1,65.1000000000001,2|0,2:0|0:0,0:0:0:0:
56,232,195513,6,0,P|139:220|197:161,1,170.8,6|4,1:2|2:3,0:0:0:0:
56,232,195963,1,2,2:0:0:0:
189,367,196113,2,0,P|199:325|212:285,1,85.4,10|0,2:3|0:0,0:0:0:0:
197,159,196413,2,0,P|186:117|173:77,1,85.4,2|0,1:2|0:0,0:0:0:0:
308,217,196713,6,0,P|388:244|470:264,1,170.8,2|4,1:2|2:3,0:0:0:0:
362,372,197163,1,2,2:0:0:0:
271,344,197313,2,0,L|187:367,1,85.4,10|0,2:0|0:0,0:0:0:0:
97,272,197613,2,0,L|14:249,1,85.4,2|0,1:2|0:0,0:0:0:0:
112,51,197913,6,0,P|188:77|196:160,1,170.8,2|4,1:2|2:3,0:0:0:0:
112,51,198363,1,2,2:0:0:0:
273,64,198513,2,0,P|314:53|354:40,1,85.4,10|0,2:3|0:0,0:0:0:0:
458,171,198813,2,0,P|417:157|376:147,1,85.4,2|0,1:2|0:0,0:0:0:0:
240,285,199113,6,0,B|174:305|174:305|144:307|144:307|76:331,1,170.8,2|4,1:2|2:3,0:0:0:0:
156,226,199563,1,2,2:0:0:0:
78,174,199713,2,0,L|55:91,1,85.4,10|0,2:0|0:0,0:0:0:0:
192,0,200013,2,0,L|169:83,1,85.4,2|0,1:2|0:0,0:0:0:0:
363,262,200313,6,0,P|434:255|452:161,1,170.8,2|4,1:2|2:3,0:0:0:0:
318,89,200763,1,2,2:0:0:0:
296,0,200913,2,0,P|309:40|319:81,1,85.4,10|0,2:3|0:0,0:0:0:0:
481,88,201213,2,0,P|467:128|457:169,1,85.4,2|0,1:2|0:0,0:0:0:0:
281,237,201513,6,0,L|362:261,1,85.4,2|0,1:2|0:0,0:0:0:0:
198,308,201813,2,0,L|75:345,1,128.1,6|0,2:3|0:0,0:0:0:0:
75,344,202113,1,10,2:0:0:0:
150,231,202263,1,0,0:0:0:0:
284,331,202413,2,0,L|365:355,1,85.4,2|0,1:2|0:0,0:0:0:0:
270,153,202713,6,0,B|269:111|327:110|330:110|335:110|396:109|394:62,1,170.8,2|4,1:2|2:3,0:0:0:0:
270,153,203163,1,2,2:0:0:0:
170,26,203313,2,0,P|130:12|89:2,1,85.4,10|0,2:3|0:0,0:0:0:0:
15,157,203613,2,0,P|56:146|96:132,1,85.4,2|0,1:2|0:0,0:0:0:0:
197,294,203913,6,0,P|257:235|269:152,1,170.8,2|4,1:2|2:3,0:0:0:0:
325,288,204363,1,0,0:0:0:0:
325,288,204438,1,0,0:0:0:0:
325,288,204513,2,0,L|404:321,1,85.4,8|0,2:0|0:0,0:0:0:0:
493,184,204813,2,0,L|414:217,1,85.4,0|0,1:2|0:0,0:0:0:0:
414,216,205038,1,0,0:0:0:0:
414,216,205113,5,6,1:2:0:0:
293,371,205263,1,2,2:0:0:0:
197,294,205413,2,0,P|156:279|115:269,1,85.4,6|0,2:3|0:0,0:0:0:0:
187,177,205713,2,0,P|228:166|268:152,1,85.4,8|0,2:3|0:0,0:0:0:0:
191,26,206013,2,0,P|150:11|109:2,1,85.4,2|0,1:2|0:0,0:0:0:0:
12,173,206313,5,2,1:2:0:0:
114,276,206463,1,2,2:0:0:0:
97,185,206613,2,0,L|116:271,1,85.4,6|0,2:3|1:2,0:0:0:0:
261,362,206913,2,0,L|279:278,1,85.4,8|0,2:0|0:0,0:0:0:0:
393,210,207213,2,0,L|427:235,2,42.7,2|0|2,1:2|0:0|2:0,0:0:0:0:
292,31,207513,6,0,P|277:72|268:113,1,85.4,2|2,1:2|2:0,0:0:0:0:
255,42,207813,2,0,P|240:83|231:124,1,85.4,6|2,2:3|2:0,0:0:0:0:
216,57,208113,6,0,P|204:87|198:118,1,65.1000000000001,10|0,2:3|0:0,0:0:0:0:
197,119,208413,5,2,1:2:0:0:
197,119,208488,1,2,2:0:0:0:
197,119,208563,1,2,2:0:0:0:
101,210,208713,1,0,1:2:0:0:
14,181,208863,2,0,P|55:190|95:204,1,85.4,2|4,2:0|2:3,0:0:0:0:
166,365,209163,5,2,2:0:0:0:
166,365,209238,1,0,0:0:0:0:
166,365,209313,2,0,P|175:323|189:283,1,85.4,10|0,2:0|0:0,0:0:0:0:
319,185,209613,2,0,P|333:225|342:266,1,85.4,2|0,1:2|0:0,0:0:0:0:
436,86,209913,5,2,1:2:0:0:
319,185,210063,1,2,2:0:0:0:
420,234,210213,2,0,L|341:267,1,85.4,6|0,2:3|0:0,0:0:0:0:
222,214,210513,1,8,2:3:0:0:
222,214,210663,1,2,2:0:0:0:
197,119,210813,2,0,L|113:93,1,85.4,2|0,1:2|0:0,0:0:0:0:
12,240,211113,5,2,1:2:0:0:
106,327,211263,1,2,2:0:0:0:
198,296,211413,2,0,P|207:254|221:214,1,85.4,6|0,2:3|0:0,0:0:0:0:
115,93,211713,2,0,P|129:133|138:175,1,85.4,8|0,2:0|0:0,0:0:0:0:
277,119,212013,2,0,P|281:98|288:77,2,42.7,2|0|2,1:2|0:0|2:0,0:0:0:0:
373,275,212313,5,2,1:2:0:0:
373,275,212388,1,0,1:2:0:0:
373,275,212463,1,0,1:2:0:0:
306,347,212613,2,0,L|224:370,1,85.4,6|0,2:3|1:2,0:0:0:0:
373,275,212913,1,10,2:3:0:0:
428,366,213063,1,0,1:2:0:0:
497,279,213213,1,0,1:2:0:0:
306,347,213363,1,0,1:2:0:0:
233,274,213513,6,0,L|256:192,1,85.4,0|0,1:2|0:0,0:0:0:0:
208,248,213813,2,0,L|231:166,1,85.4,4|0,2:3|1:2,0:0:0:0:
114,53,214113,1,8,2:0:0:0:
114,53,214263,1,0,1:2:0:0:
207,79,214413,2,0,L|289:56,1,85.4,0|0,1:2|1:2,0:0:0:0:
208,248,214713,5,6,1:2:0:0:
125,199,214863,1,2,2:0:0:0:
316,151,215013,2,0,P|304:102|288:55,1,99.4,10|0,2:0|1:2,0:0:0:0:
316,151,215313,1,8,2:3:0:0:
450,233,215463,1,0,0:0:0:0:
365,270,215613,2,0,P|349:317|337:365,1,99.4,2|0,1:2|0:0,0:0:0:0:
208,248,215913,5,2,1:2:0:0:
100,362,216063,1,2,2:0:0:0:
0,341,216213,2,0,L|101:369,1,99.4,6|0,2:3|1:2,0:0:0:0:
208,248,216513,2,0,L|106:276,1,99.4,8|0,2:0|0:0,0:0:0:0:
20,150,216813,2,0,L|70:164,2,49.7,2|0|2,1:2|0:0|2:0,0:0:0:0:
186,36,217113,6,0,L|155:132,1,99.4,2|2,1:2|2:0,0:0:0:0:
217,31,217413,2,0,L|186:127,1,99.4,10|0,2:0|1:2,0:0:0:0:
249,27,217713,6,0,L|229:92,1,65.1000000000001,10|0,2:3|0:0,0:0:0:0:
229,89,218013,5,2,1:2:0:0:
229,89,218088,1,2,2:0:0:0:
229,89,218163,1,2,2:0:0:0:
208,248,218313,1,0,1:2:0:0:
308,224,218463,2,0,P|259:236|212:252,1,99.4,2|4,2:0|2:3,0:0:0:0:
395,323,218763,5,2,1:2:0:0:
395,323,218838,1,2,2:0:0:0:
395,323,218913,2,0,P|407:274|423:227,1,99.4,10|0,2:0|0:0,0:0:0:0:
332,63,219213,2,0,P|347:110|360:158,1,99.4,2|0,1:2|0:0,0:0:0:0:
196,327,219513,5,2,1:2:0:0:
61,251,219663,1,2,2:0:0:0:
151,199,219813,2,0,P|103:214|64:244,1,99.4,10|0,2:0|1:2,0:0:0:0:
308,277,220113,2,0,P|355:292|394:322,1,99.4,10|0,2:3|0:0,0:0:0:0:
261,109,220413,2,0,P|250:60|257:11,1,99.4,2|0,1:2|0:0,0:0:0:0:
95,124,220713,5,2,1:2:0:0:
151,199,220863,1,2,2:0:0:0:
261,109,221013,2,0,L|355:139,1,99.4,6|0,2:3|1:2,0:0:0:0:
308,277,221313,2,0,L|213:307,1,99.4,8|0,2:0|0:0,0:0:0:0:
50,202,221613,2,0,P|54:159|98:123,1,99.4,2|2,1:2|2:0,0:0:0:0:
89,326,221913,5,2,1:2:0:0:
89,326,221988,1,0,0:0:0:0:
89,326,222063,1,0,0:0:0:0:
50,202,222213,1,6,2:3:0:0:
213,306,222363,1,0,1:2:0:0:
261,109,222513,6,0,L|282:62,1,49.7,10|0,2:3|0:0,0:0:0:0:
154,45,222663,2,0,L|133:-2,1,49.7,8|0,2:3|0:0,0:0:0:0:
3,172,222813,6,0,L|51:150,3,49.7,0|0|0|0,1:2|0:0|1:2|0:0,0:0:0:0:
164,166,223113,5,2,1:2:0:0:
187,172,223188,1,0,0:0:0:0:
204,189,223263,1,0,0:0:0:0:
210,213,223338,1,0,0:0:0:0:
208,237,223413,6,0,L|187:282,1,49.7,10|0,2:0|0:0,0:0:0:0:
110,371,223563,2,0,L|89:326,1,49.7,0|0,1:2|0:0,0:0:0:0:
0,264,223713,5,10,2:3:0:0:
164,166,223863,1,0,1:2:0:0:
88,325,224013,1,2,1:2:0:0:
3,172,224163,1,8,2:0:0:0:
186,282,224313,6,0,P|266:254|348:234,1,170.8,6|8,1:2|2:0,0:0:0:0:
186,282,224763,1,2,2:0:0:0:
261,109,224913,2,0,P|219:98|179:85,1,85.4,10|0,2:3|0:0,0:0:0:0:
399,19,225213,1,2,1:2:0:0:
399,19,225513,6,0,B|441:18|442:76|442:79|442:84|443:145|490:143,1,170.8,2|4,1:2|2:3,0:0:0:0:
335,135,225963,1,2,2:0:0:0:
349,233,226113,2,0,L|320:313,1,85.4,10|0,2:0|0:0,0:0:0:0:
193,246,226413,2,0,L|164:166,1,85.4,2|0,1:2|0:0,0:0:0:0:
129,337,226713,5,2,1:2:0:0:
58,372,226863,1,2,2:0:0:0:
12,310,227013,1,10,2:0:0:0:
128,331,227163,5,2,2:0:0:0:
57,366,227313,1,10,2:3:0:0:
11,304,227463,1,2,2:0:0:0:
128,325,227613,5,2,1:2:0:0:
57,360,227763,1,2,2:0:0:0:
11,298,227913,1,2,1:2:0:0:
193,246,228063,5,2,2:0:0:0:
163,165,228213,2,0,P|248:177|305:236,1,170.8,6|8,2:3|2:0,0:0:0:0:
163,165,228663,1,0,0:0:0:0:
235,36,228813,2,0,P|194:49|153:59,1,85.4,2|0,1:2|0:0,0:0:0:0:
304,235,229113,6,0,B|370:255|370:255|400:256|400:256|468:281,1,170.8,6|8,1:2|2:0,0:0:0:0:
512,130,229563,1,2,2:0:0:0:
421,104,229713,2,0,L|393:21,1,85.4,10|0,2:3|0:0,0:0:0:0:
331,154,230013,2,0,L|303:234,1,85.4,2|0,1:2|0:0,0:0:0:0:
188,78,230313,6,0,P|105:98|24:126,1,170.8,2|4,1:2|2:3,0:0:0:0:
193,82,230763,1,2,2:0:0:0:
311,0,230913,2,0,P|351:13|392:23,1,85.4,10|0,2:0|0:0,0:0:0:0:
512,130,231213,2,0,P|470:139|430:153,1,85.4,2|0,1:2|0:0,0:0:0:0:
309,298,231513,5,2,1:2:0:0:
228,299,231663,1,2,2:0:0:0:
212,220,231813,1,8,2:0:0:0:
318,300,231963,6,0,L|368:371,1,85.4,2|8,2:0|2:3,0:0:0:0:
380,223,232263,1,2,2:0:0:0:
380,223,232338,1,0,0:0:0:0:
380,223,232413,2,0,L|330:152,1,85.4,2|2,1:2|2:0,0:0:0:0:
135,37,232713,5,0,1:2:0:0:
154,39,232788,1,0,0:0:0:0:
173,48,232863,1,0,0:0:0:0:
186,64,232938,1,0,0:0:0:0:
192,80,233013,6,0,L|204:120,1,42.7,6|0,2:3|0:0,0:0:0:0:
253,203,233163,2,0,L|231:241,1,42.7
108,299,233313,6,0,P|171:307|214:352,1,128.1,10|0,2:0|0:0,0:0:0:0:
214,352,233613,1,2,1:2:0:0:
300,311,233763,1,0,0:0:0:0:
140,188,233913,6,0,P|79:209|17:224,1,128.1,6|0,1:2|0:0,0:0:0:0:
17,223,234213,1,6,2:3:0:0:
118,55,234363,2,0,P|159:65|200:78,1,85.4,2|8,2:0|2:3,0:0:0:0:
292,163,234663,1,2,2:0:0:0:
382,138,234813,2,0,P|340:148|299:161,1,85.4,2|0,1:2|0:0,0:0:0:0:
382,138,235113,5,2,1:2:0:0:
484,276,235263,2,0,L|463:363,1,85.4,2|4,2:0|2:3,0:0:0:0:
484,276,235563,1,2,2:0:0:0:
319,243,235713,2,0,L|298:159,1,85.4,10|0,2:0|0:0,0:0:0:0:
376,55,236013,1,2,1:2:0:0:
376,55,236163,1,0,0:0:0:0:
206,132,236313,5,2,1:2:0:0:
76,63,236463,1,2,2:0:0:0:
75,209,236763,5,2,2:0:0:0:
206,132,236913,1,10,2:3:0:0:
76,63,237213,5,2,1:2:0:0:
206,132,237363,1,2,2:0:0:0:
209,138,237663,5,2,2:0:0:0:
338,21,237813,2,0,P|421:31|488:82,1,170.8,6|8,2:3|2:0,0:0:0:0:
489,82,238413,2,0,P|447:92|406:105,1,85.4,0|0,1:2|0:0,0:0:0:0:
316,248,238713,5,2,1:2:0:0:
344,336,238863,2,0,P|334:294|321:253,1,85.4,2|4,2:0|2:3,0:0:0:0:
489,256,239163,1,2,2:0:0:0:
466,164,239313,2,0,P|476:122|489:81,1,85.4,10|0,2:3|0:0,0:0:0:0:
334,7,239613,5,2,1:2:0:0:
313,120,239763,1,2,2:0:0:0:
224,13,239913,5,2,1:2:0:0:
237,147,240063,1,2,2:0:0:0:
107,54,240213,5,6,2:3:0:0:
166,187,240363,1,2,2:0:0:0:
222,20,240513,5,10,2:0:0:0:
82,148,240663,2,0,L|-5:126,1,85.4,2|0,2:0|1:2,0:0:0:0:
82,148,240963,1,0,0:0:0:0:
173,321,241113,6,0,L|260:299,1,85.4,2|0,1:2|0:0,0:0:0:0:
431,369,241413,5,6,2:3:0:0:
364,288,241563,2,0,P|374:246|387:205,1,85.4,2|8,2:0|2:3,0:0:0:0:
263,173,241863,1,2,2:0:0:0:
292,99,242013,2,0,P|282:57|269:16,1,85.4,2|0,1:2|0:0,0:0:0:0:
133,103,242313,6,0,P|98:113|64:121,2,71.4,2|2|4,1:2|2:0|2:3,0:0:0:0:
194,154,242763,2,0,P|228:164|262:172,2,71.4,2|10|2,2:0|2:0|2:0,0:0:0:0:
142,214,243213,2,0,P|107:224|73:232,1,71.4,2|0,1:2|0:0,0:0:0:0:
225,309,243513,6,0,P|241:239|262:172,1,142.8,6|6,1:2|2:3,0:0:0:0:
245,58,243963,1,0,0:0:0:0:
245,58,244113,2,0,P|225:62|202:88,3,43.4,10|0|0|0,2:3|0:0|1:2|0:0,0:0:0:0:
365,136,244713,6,0,B|385:192|385:192|386:217|386:217|403:273,1,142.8,0|4,1:2|2:3,0:0:0:0:
342,372,245163,1,0,0:0:0:0:
342,372,245313,2,0,L|274:350,1,71.4,10|2,2:0|2:0,0:0:0:0:
217,273,245613,2,0,L|149:295,1,71.4,2|0,1:2|0:0,0:0:0:0:
35,230,245913,6,0,P|43:195|53:160,1,71.4,2|0,1:2|0:0,0:0:0:0:
62,155,246138,1,0,0:0:0:0:
72,149,246213,2,0,P|63:114|53:79,1,71.4,6|0,2:3|0:0,0:0:0:0:
107,0,246513,2,0,P|171:-9|222:42,1,142.8,8|0,2:3|1:2,0:0:0:0:
281,168,246963,1,2,2:0:0:0:
281,168,247038,1,2,2:0:0:0:
281,168,247113,6,0,P|345:177|396:125,1,142.8,2|4,1:2|2:3,0:0:0:0:
454,207,247563,1,0,0:0:0:0:
454,207,247713,2,0,P|432:275|416:344,1,142.8,8|0,2:0|1:2,0:0:0:0:
296,296,248163,1,2,2:0:0:0:
296,296,248238,1,2,2:0:0:0:
296,296,248313,6,0,B|240:316|240:316|214:317|214:317|159:334,1,142.8,2|4,1:2|2:3,0:0:0:0:
90,297,248763,1,2,2:0:0:0:
151,221,248913,1,8,2:3:0:0:
151,221,249063,2,0,L|126:137,1,71.4,2|2,2:0|1:2,0:0:0:0:
215,47,249363,5,0,0:0:0:0:
215,47,249513,2,0,P|285:55|341:97,1,142.8,0|4,1:2|2:3,0:0:0:0:
420,162,249963,1,0,0:0:0:0:
420,162,250113,2,0,P|437:158|454:151,2,35.7,10|2|2,2:0|2:0|2:0,0:0:0:0:
363,240,250413,2,0,P|328:230|294:222,1,71.4,2|2,1:2|2:0,0:0:0:0:
130,152,250713,6,0,P|149:220|166:290,1,142.8,2|4,1:2|2:3,0:0:0:0:
293,221,251163,1,0,0:0:0:0:
293,221,251313,2,0,P|309:151|329:82,1,142.8,8|0,2:3|1:2,0:0:0:0:
215,4,251763,5,2,2:0:0:0:
215,4,251913,2,0,P|145:12|89:54,1,142.8,2|4,1:2|2:3,0:0:0:0:
196,93,252363,1,0,0:0:0:0:
196,93,252513,2,0,L|218:161,1,71.4,8|0,2:0|0:0,0:0:0:0:
293,221,252813,2,0,L|271:289,1,71.4,2|2,1:2|2:0,0:0:0:0:
385,201,253113,6,0,B|426:215|426:215|446:216|446:216|487:229,1,107.1,2|0,1:2|0:0,0:0:0:0:
487,229,253413,1,6,2:3:0:0:
427,309,253563,1,2,2:0:0:0:
338,266,253713,2,0,L|270:288,1,71.4,10|2,2:3|2:0,0:0:0:0:
330,301,254013,2,0,L|262:323,1,71.4,2|2,1:2|2:0,0:0:0:0:
138,277,254313,6,0,P|148:242|156:208,1,71.4,2|2,1:2|2:0,0:0:0:0:
217,160,254613,2,0,P|207:125|199:91,1,71.4,6|0,2:3|0:0,0:0:0:0:
120,36,254913,2,0,P|69:37|38:117,1,142.8,10|0,2:0|1:2,0:0:0:0:
77,182,255363,1,0,0:0:0:0:
198,90,255513,6,0,P|267:70|337:54,1,142.8,0|4,1:2|2:3,0:0:0:0:
434,187,255963,1,0,0:0:0:0:
434,187,256113,2,0,P|365:167|295:151,1,142.8,10|0,2:3|1:2,0:0:0:0:
154,232,256563,5,0,0:0:0:0:
154,232,256713,2,0,B|172:288|172:288|173:315|173:315|191:368,1,142.8,2|4,1:2|2:3,0:0:0:0:
343,327,257163,1,2,2:0:0:0:
343,327,257313,2,0,L|362:258,1,71.4,10|0,2:0|0:0,0:0:0:0:
295,151,257613,2,0,L|276:83,1,71.4,2|0,1:2|0:0,0:0:0:0:
154,232,257913,6,0,B|112:241|71:254,1,85.4,6|0,1:2|0:0,0:0:0:0:
191,368,258213,2,0,P|255:319|239:212,1,170.8,6|8,2:3|2:3,0:0:0:0:
355,41,258663,5,0,0:0:0:0:
385,136,258813,2,0,B|427:145|468:158,1,85.4,2|2,1:2|2:0,0:0:0:0:
355,41,259113,2,0,B|273:66|190:84,1,170.8,2|4,1:2|2:3,0:0:0:0:
93,173,259563,1,0,0:0:0:0:
93,173,259713,2,0,B|106:214|115:256,1,85.4,10|0,2:0|0:0,0:0:0:0:
191,368,260013,2,0,B|200:326|213:285,1,85.4,2|0,1:2|0:0,0:0:0:0:
365,200,260313,6,0,P|440:228|492:303,1,170.8,2|6,1:2|2:3,0:0:0:0:
365,200,260763,1,0,0:0:0:0:
294,261,260913,2,0,L|212:285,1,85.4,10|0,2:3|0:0,0:0:0:0:
174,197,261213,2,0,L|92:172,1,85.4,2|0,1:2|0:0,0:0:0:0:
189,84,261513,6,0,B|254:63|254:63|287:61|287:61|352:39,1,170.8,2|4,1:2|2:3,0:0:0:0:
475,194,261963,1,0,0:0:0:0:
493,105,262113,2,0,B|480:146|471:188,1,85.4,10|0,2:0|0:0,0:0:0:0:
380,279,262413,2,0,B|393:320|402:362,1,85.4,2|0,1:2|0:0,0:0:0:0:
254,237,262713,6,0,B|212:246|171:259,1,85.4,6|0,1:2|0:0,0:0:0:0:
9,225,263013,2,0,P|61:193|54:91,1,170.8,6|8,2:3|2:3,0:0:0:0:
212,97,263463,5,0,0:0:0:0:
269,8,263613,2,0,B|310:21|352:30,1,85.4,2|2,1:2|2:0,0:0:0:0:
492,101,263913,2,0,B|407:119|324:145,1,170.8,2|4,1:2|2:3,0:0:0:0:
219,278,264363,5,0,0:0:0:0:
219,278,264513,2,0,L|243:365,1,85.4,10|0,2:0|0:0,0:0:0:0:
99,287,264813,2,0,L|121:204,1,85.4,2|0,1:2|0:0,0:0:0:0:
244,121,265113,6,0,L|331:145,1,85.4,2|0,1:2|0:0,0:0:0:0:
429,230,265413,2,0,L|511:207,1,85.4,6|0,2:3|0:0,0:0:0:0:
307,286,265713,6,0,L|329:368,1,85.4,10|0,2:3|0:0,0:0:0:0:
219,278,266013,2,0,L|241:195,1,85.4,2|0,1:2|0:0,0:0:0:0:
176,43,266313,6,0,P|95:58|68:137,1,170.8,2|6,1:2|2:3,0:0:0:0:
150,226,266763,1,0,0:0:0:0:
240,195,266913,2,0,L|322:218,1,85.4,10|0,2:0|0:0,0:0:0:0:
453,126,267213,2,0,L|371:149,1,85.4,2|0,1:2|0:0,0:0:0:0:
195,31,267513,6,0,B|216:98|216:98|217:131|217:131|239:194,1,170.8,4|4,1:2|2:3,0:0:0:0:
140,277,267963,1,0,0:0:0:0:
140,277,268113,2,0,L|122:364,1,85.4,8|0,2:3|0:0,0:0:0:0:
26,267,268413,2,0,L|8:183,1,85.4,0|0,1:2|0:0,0:0:0:0:
83,75,268713,6,0,B|166:92|248:118,1,170.8,0|4,1:2|2:3,0:0:0:0:
372,199,269163,1,0,0:0:0:0:
372,199,269313,2,0,P|359:158|350:116,1,85.4,10|0,2:0|0:0,0:0:0:0:
467,232,269613,2,0,B|458:273|445:314,1,85.4,2|0,1:2|0:0,0:0:0:0:
342,302,269913,6,0,L|270:322,1,71.4000000000001,2|0,1:2|0:0,0:0:0:0:
207,363,270213,2,0,B|153:344|153:344|125:343|125:343|68:325,1,142.8,2|8,2:0|2:3,0:0:0:0:
70,325,270813,2,0,P|96:302|97:268,1,71.4000000000001,2|2,1:2|2:0,0:0:0:0:
25,156,271113,6,0,P|80:111|147:127,1,142.8,2|0,1:2|0:0,0:0:0:0:
145,125,271713,2,0,L|156:199,1,71.4000000000001,10|0,2:0|0:0,0:0:0:0:
224,238,272013,2,0,L|211:313,1,71.4000000000001,2|0,1:2|0:0,0:0:0:0:
326,370,272313,6,0,P|388:361|438:302,1,142.8,2|2,1:2|2:0,0:0:0:0:
385,243,272763,1,0,0:0:0:0:
385,243,272913,2,0,P|374:208|366:173,1,71.4000000000001,10|0,2:3|0:0,0:0:0:0:
432,129,273213,2,0,P|442:94|450:59,1,71.4000000000001,2|0,1:2|0:0,0:0:0:0:
336,0,273513,6,0,B|280:11|224:28,1,114.8,2|0,1:2|0:0,0:0:0:0:
224,28,274113,1,10,2:0:0:0:
180,117,274413,1,2,1:2:0:0:
85,91,274713,6,0,P|33:112|30:168,2,114.8,6|2|8,1:2|2:0|2:3,0:0:0:0:
180,117,275613,1,2,1:2:0:0:
122,198,275913,1,2,1:2:0:0:
122,198,276513,5,10,2:0:0:0:
201,250,276813,1,2,1:2:0:0:
201,250,277113,1,2,1:2:0:0:
40,359,278013,1,2,1:2:0:0:
40,359,278313,1,2,1:2:0:0:
493,271,278913,5,10,2:0:0:0:
438,351,279213,1,2,1:2:0:0:
438,351,279513,1,0,1:2:0:0:
252,281,280413,1,0,1:2:0:0:
252,281,280713,1,0,1:2:0:0:
456,51,281313,5,10,2:0:0:0:
401,130,281613,1,0,1:2:0:0:
256,192,281913,12,0,286413,0:0:0:0:
