osu file format v14

[General]
AudioFilename: Soitogeta Andoroido e.mp3
AudioLeadIn: 0
PreviewTime: 73225
Countdown: 0
SampleSet: Soft
StackLeniency: 0.7
Mode: 0
LetterboxInBreaks: 1
EpilepsyWarning: 1
WidescreenStoryboard: 0

[Editor]
Bookmarks: 15751,25857,46067,73225,100383,114278,125646,139541,151541,171752,181857,204594,214699,224804,234909,245015
DistanceSpacing: 0.8
BeatDivisor: 4
GridSize: 4
TimelineZoom: 2.2

[Metadata]
Title:Soitogeta Android e
TitleUnicode:添い遂げたアンドロイドへ
Artist:Mofu@
ArtistUnicode:もふ@
Creator:Natsuki Nanaka
Version:Collab Insane
Source:
Tags:Tinkle-POP Kantokun Kanto PAN Nanaka Vocaloid Hatsune Miku Yasu P_A_N
BeatmapID:421605
BeatmapSetID:119209

[Difficulty]
HPDrainRate:6
CircleSize:4
OverallDifficulty:8
ApproachRate:8.5
SliderMultiplier:1.51
SliderTickRate:1

[Events]
//Background and Video events
0,0,"BG.png",0,0
//Break Periods
2,95532,99710
2,195435,203920
//Storyboard Layer 0 (Background)
//Storyboard Layer 1 (Fail)
//Storyboard Layer 2 (Pass)
//Storyboard Layer 3 (Foreground)
Sprite,Foreground,Centre,"SB\Nanaka1.png",320,240 M,1,15122,15911,484,387.9935,507,369 S,0,15122,15911,1.2,1 F,0,15438,15753,0,1 F,0,15753,25859,1 F,1,25859,26017,1,0 S,0,25859,26017,1,1.5 S,0,75122,,1 F,0,75122,95332,1 F,0,95332,95648,1,0 F,2,125648,125964,0,1 F,0,125964,139385,1 F,1,139385,139543,1,0 S,1,139385,139543,1,1.5 S,0,171753,,1 F,2,171753,172385,0,1 F,0,172385,181227,1 F,2,181227,181858,1,0
Sprite,Foreground,Centre,"SB\Nanaka1.png",320,240 M,0,15753,,507,369 F,0,15753,16385,1,0 S,1,15753,16385,1,1.15 F,0,75122,75754,1,0 S,1,75122,75754,1,1.15 F,0,85227,85859,1,0 S,1,85227,85859,1,1.15
Sprite,Foreground,Centre,"SB\Kanto.png",320,240 M,0,25859,,507,369 F,0,25859,26175,0,1 F,0,26175,46069,1 F,1,46069,46227,1,0 S,0,46069,46227,1,1.5 S,0,100069,,1 F,0,100069,100385,0,1 F,0,100385,114280,1 F,0,114280,114911,1,0 F,2,139385,139701,0,1 F,0,139701,150911,1 F,2,150911,151543,1,0 F,1,181858,182490,0,1 F,0,182490,193227,1 F,2,193227,193858,1,0
Sprite,Foreground,Centre,"SB\Kanto.png",320,240 L,139701,3 F,0,0,316,1,0 S,1,0,316,1,1.15 M,0,35964,,507,369 S,0,35964,,1 F,0,35964,36596,1,0 S,1,35964,36596,1,1.15 F,0,100385,101017,1,0 S,1,100385,101017,1,1.15 F,0,140648,141122,1,0 S,1,140648,141122,1,1.15 F,0,141911,142385,1,0 S,1,141911,142385,1,1.15 F,0,143175,143648,1,0 S,1,143175,143648,1,1.15 F,0,144438,144911,1,0 S,1,144438,144911,1,1.15 F,0,145859,146490,1,0 S,1,145859,146490,1,1.15
Sprite,Foreground,Centre,"SB\PAN.png",320,240 M,0,46069,,507,369 S,0,46069,,1 F,2,46069,46385,0,1 F,0,46385,74490,1 F,2,74490,74964,1,0 F,1,115227,115543,0,1 F,0,115543,125648,1 F,0,125648,125806,1,0 S,0,125648,125806,1,1.55 S,0,151227,,1 F,2,151227,151543,0,1 F,0,151543,171753,1 F,0,171753,172069,1,0 S,1,171753,172069,1,1.2
Sprite,Foreground,Centre,"SB\PAN.png",320,240 L,170490,4 F,0,0,316,1,0 S,1,0,316,1,1.2 F,0,115859,116490,1,0 S,1,115859,116490,1,1.2 M,0,118069,,507,369 S,0,118069,,1 F,0,118069,118701,1,0 S,1,118069,118701,1,1.2 F,0,151543,152174,1,0 S,1,151543,152174,1,1.2 F,0,161648,162279,1,0 S,1,161648,162279,1,1.2 F,0,166701,167332,1,0 S,1,166701,167332,1,1.2 F,0,167964,168595,1,0 S,1,167964,168595,1,1.2 F,0,169227,169858,1,0 S,1,169227,169858,1,1.2
Sprite,Foreground,Centre,"SB\default.png",320,240 F,1,220700,220858,0,1 F,0,220858,224727,1 M,2,224174,224490,272,44,234,242 S,2,224174,224727,1,0.5 S,2,224174,224727,1,0.5 M,1,224490,224727,234,242,207,391 F,0,224727,224806,1,0 F,0,224727,224806,1,0
Sprite,Foreground,Centre,"SB\default.png",320,240 F,1,221016,221174,0,1 F,0,221174,224727,1 M,2,224174,224490,123,352,183,374 S,2,224174,224727,1,0.5 S,2,224174,224727,1,0.5 M,1,224490,224727,183,374,229,391 F,0,224727,224806,1,0 F,0,224727,224806,1,0
Sprite,Foreground,Centre,"SB\default.png",320,240 F,1,221332,221490,0,1 F,0,221490,224727,1 M,2,224174,224490,398,168,314,295 S,2,224174,224727,1,0.5 S,2,224174,224727,1,0.5 M,1,224490,224727,314,295,251,391 F,0,224727,224806,1,0 F,0,224727,224806,1,0
Sprite,Foreground,Centre,"SB\default.png",320,240 F,1,221648,221806,0,1 F,0,221806,224727,1 M,2,224174,224490,571,339,400,368 S,2,224174,224727,1,0.5 S,2,224174,224727,1,0.5 M,1,224490,224727,400,368,273,391 F,0,224727,224806,1,0 F,0,224727,224806,1,0
Sprite,Foreground,Centre,"SB\default.png",320,240 F,1,221964,222121,0,1 F,0,222121,224727,1 M,2,224174,224490,451,59,361,248 S,2,224174,224727,1,0.5 M,1,224490,224727,361,248,295,391 F,0,224727,224806,1,0 F,0,224727,224806,1,0
Sprite,Foreground,Centre,"SB\default.png",320,240 F,1,222279,222437,0,1 F,0,222437,224727,1 M,2,224174,224490,60,278,206,342 S,2,224174,224727,1,0.5 M,1,224490,224727,206,342,317,391 F,0,224727,224806,1,0 F,0,224727,224806,1,0
Sprite,Foreground,Centre,"SB\default.png",320,240 F,1,222595,222753,0,1 F,0,222753,224727,1 M,2,224174,224490,132,44,250,242 S,2,224174,224727,1,0.5 M,1,224490,224727,250,242,339,391 F,0,224727,224806,1,0 F,0,224727,224806,1,0
Sprite,Foreground,Centre,"SB\default.png",320,240 F,1,220385,220543,0,1 F,0,220543,224727,1 M,2,224174,224490,535,122,447,275 S,2,224174,224727,1,0.5 M,1,224490,224727,447,275,381,391 F,0,224727,224806,1,0
Sprite,Foreground,Centre,"SB\default.png",320,240 S,0,219753,,1 F,1,219753,219911,0,1 F,0,219911,224727,1 M,2,224174,224490,128,161,274,293 S,2,224174,224727,1,0.5 M,1,224490,224727,274,293,403,391 F,0,224727,224806,1,0
Sprite,Foreground,Centre,"SB\default.png",320,240 S,0,219753,,1 F,1,220069,220227,0,1 F,0,220227,224727,1 M,2,224174,224490,248,282,340,345 S,2,224174,224727,1,0.5 M,1,224490,224727,340,345,425,391 F,0,224727,224806,1,0
Sprite,Foreground,Centre,"SB\default.png",320,240 F,2,223858,224174,0,1 S,0,224174,,0.5 M,2,224174,224490,294,391,393,391 F,0,224174,224727,1 M,1,224490,224727,393,391,467,391 F,0,224727,224806,1,0
Sprite,Foreground,Centre,"SB\default.png",320,240 F,2,223858,224174,0,1 S,0,224174,,0.5 M,2,224174,224490,316,391,415,391 F,0,224174,224727,1 M,1,224490,224727,415,391,490,391 F,0,224727,224806,1,0
Sprite,Foreground,Centre,"SB\default.png",320,240 F,2,223858,224174,0,1 S,0,224174,,0.5 M,2,224174,224490,359,391,458,391 F,0,224174,224727,1 M,1,224490,224727,458,391,533,391 F,0,224727,224806,1,0
Sprite,Foreground,Centre,"SB\default.png",320,240 F,2,223858,224174,0,1 S,0,224174,,0.5 M,2,224174,224490,337,391,436,391 F,0,224174,224727,1 M,1,224490,224727,436,391,511,391 F,0,224727,224806,1,0
Sprite,Foreground,Centre,"SB\default.png",320,240 F,2,223858,224174,0,1 S,0,224174,,0.5 M,2,224174,224490,381,391,480,391 F,0,224174,224727,1 M,1,224490,224727,480,391,555,391 F,0,224727,224806,1,0
Sprite,Foreground,Centre,"SB\default.png",320,240 F,2,223858,224174,0,1 S,0,224174,,0.5 M,2,224174,224490,403,391,502,391 F,0,224174,224727,1 M,1,224490,224727,502,391,577,391 F,0,224727,224806,1,0
Sprite,Foreground,Centre,"SB\default.png",320,240 F,2,223858,224174,0,1 S,0,224174,,0.5 M,2,224174,224490,425,391,524,391 F,0,224174,224727,1 M,1,224490,224727,524,391,598,391 F,0,224727,224806,1,0
Sprite,Foreground,Centre,"SB\default.png",320,240 F,2,223858,224174,0,1 S,0,224174,,0.5 M,2,224174,224490,446,391,544,391 F,0,224174,224727,1 M,1,224490,224727,544,391,619,391 F,0,224727,224806,1,0
Sprite,Foreground,Centre,"SB\Kanto.png",320,240 M,0,224806,,267,391 S,0,224806,,1 F,0,224806,255121,1 F,0,255121,255437,1,0 F,0,255121,255437,1,0 S,1,255121,255437,1,1.15
Sprite,Foreground,Centre,"SB\Kanto.png",320,240 L,226069,7 F,0,0,632,1,0 S,1,0,632,1,1.2 F,0,1264,,0 M,0,224806,,267,391 S,0,224806,,1 F,2,224806,225753,1,0 S,1,224806,225753,1,1.15 F,0,234911,235858,1,0 S,1,234911,235858,1,1.15 F,0,245016,245964,1,0 S,1,245016,245964,1,1.15
Sprite,Foreground,Centre,"SB\PAN.png",320,240 F,0,204279,204595,0,1 M,0,204595,,370,391 S,0,204595,,1 F,0,204595,214385,1 F,1,214385,214700,1,0 M,0,224806,,403,391 F,0,224806,255121,1 F,0,255121,255437,1,0 F,0,255121,255437,1,0 S,1,255121,255437,1,1.2
Sprite,Foreground,Centre,"SB\PAN.png",320,240 L,236174,7 F,0,0,632,1,0 S,1,0,632,1,1.2 F,0,1264,,0 M,0,224806,,403,391 F,2,224806,225753,1,0 S,1,224806,225753,1,1.2 F,0,234911,235858,1,0 S,1,234911,235858,1,1.2 F,0,245016,245964,1,0 S,1,245016,245964,1,1.2
Sprite,Foreground,Centre,"SB\Nanaka1.png",320,240 S,0,214385,,1 F,2,214385,214700,0,1 M,0,214700,,370,391 F,0,214700,223858,1 F,1,223858,224174,1,0 M,0,224806,,539,391 F,0,224806,255121,1 F,0,255121,255437,1,0 S,1,255121,255437,1,1.15
Sprite,Foreground,Centre,"SB\Nanaka1.png",320,240 L,246279,7 F,0,0,632,1,0 S,1,0,632,1,1.2 F,0,1264,,0 M,0,224806,,539,391 F,2,224806,225753,1,0 S,1,224806,225753,1,1.15 F,0,234911,235858,1,0 S,1,234911,235858,1,1.15 F,0,245016,245964,1,0 S,1,245016,245964,1,1.15
Sprite,Foreground,Centre,"SB\default.png",320,240 M,0,222911,,443,295 F,1,222911,223069,0,1 F,0,223069,224727,1 M,2,224174,224490,443,295,248,367 S,2,224174,224727,1,0.5 M,1,224490,224727,248,367,102,422 F,0,224727,224806,1,0
Sprite,Foreground,Centre,"SB\default.png",320,240 M,0,223227,,268,161 F,1,223227,223385,0,1 F,0,223385,224727,1 M,2,224174,224490,268,161,173,310 S,2,224174,224727,1,0.5 M,1,224490,224727,173,310,102,422 F,0,224727,224806,1,0
Sprite,Foreground,Centre,"SB\default.png",320,240 M,0,223543,,515,438 F,1,223543,223700,0,1 F,0,223700,224727,1 M,2,224174,224490,515,438,279,428 S,2,224174,224727,1,0.5 M,1,224490,224727,279,428,102,422 F,0,224727,224806,1,0
Sprite,Foreground,Centre,"SB\default.png",320,240 M,0,223858,,288,451 F,1,223858,224016,0,1 F,0,224016,224727,1 M,2,224174,224490,288,451,181,434 S,2,224174,224727,1,0.5 M,1,224490,224727,181,434,102,422 F,0,224727,224806,1,0
//Storyboard Sound Samples

[TimingPoints]
15754,315.789473684211,4,2,1,60,1,0
15754,-100,4,2,4,60,0,1
15911,-100,4,2,1,55,0,0
25859,-100,4,2,1,50,0,0
35964,-100,4,2,4,50,0,1
36122,-100,4,2,1,50,0,0
46069,-133.333333333333,4,2,1,50,0,0
47332,-133.333333333333,4,2,1,10,0,0
47490,-133.333333333333,4,2,1,50,0,0
48911,-133.333333333333,4,2,1,10,0,0
49069,-133.333333333333,4,2,1,50,0,0
49859,-133.333333333333,4,2,1,10,0,0
50017,-133.333333333333,4,2,1,50,0,0
51438,-133.333333333333,4,2,1,10,0,0
51596,-133.333333333333,4,2,1,50,0,0
52385,-133.333333333333,4,2,1,10,0,0
52543,-133.333333333333,4,2,1,50,0,0
52701,-133.333333333333,4,2,1,10,0,0
53017,-133.333333333333,4,2,1,50,0,0
53964,-133.333333333333,4,2,1,10,0,0
54122,-133.333333333333,4,2,1,50,0,0
54280,-133.333333333333,4,2,1,10,0,0
54596,-133.333333333333,4,2,1,50,0,0
55385,-133.333333333333,4,2,1,10,0,0
55543,-133.333333333333,4,2,1,50,0,0
56964,-133.333333333333,4,2,1,10,0,0
57122,-133.333333333333,4,2,1,50,0,0
57911,-133.333333333333,4,2,1,10,0,0
58069,-133.333333333333,4,2,1,50,0,0
59017,-133.333333333333,4,2,1,10,0,0
59175,-133.333333333333,4,2,1,50,0,0
59332,-133.333333333333,4,2,1,10,0,0
59648,-133.333333333333,4,2,1,50,0,0
68490,-133.333333333333,4,2,7,50,0,0
68806,-133.333333333333,4,2,1,50,0,0
73227,-133.333333333333,4,2,1,30,0,0
73859,-133.333333333333,4,2,1,40,0,0
74490,-133.333333333333,4,2,1,50,0,0
75122,-100,4,1,4,70,0,1
75438,-100,4,1,2,65,0,1
85148,-100,4,1,2,65,0,0
85227,-100,4,1,4,70,0,1
85543,-100,4,1,3,65,0,1
94069,-100,4,2,1,60,0,0
100385,-100,4,2,1,50,0,0
114280,-200,4,2,1,50,0,0
115543,-100,4,2,1,50,0,0
116806,-100,4,2,9,50,0,0
116964,-100,4,2,1,50,0,0
118069,-100,4,2,1,50,0,1
118227,-100,4,2,1,50,0,0
118701,-100,4,2,1,10,0,0
118859,-100,4,2,1,50,0,0
125648,-133.333333333333,4,2,1,50,0,0
126911,-133.333333333333,4,2,1,10,0,0
127069,-133.333333333333,4,2,1,50,0,0
127227,-133.333333333333,4,2,1,10,0,0
127543,-133.333333333333,4,2,1,50,0,0
131490,-133.333333333333,4,2,1,10,0,0
131648,-133.333333333333,4,2,1,50,0,0
131806,-133.333333333333,4,2,1,10,0,0
132122,-133.333333333333,4,2,1,50,0,0
133543,-133.333333333333,4,2,1,10,0,0
133701,-133.333333333333,4,2,1,50,0,0
133859,-133.333333333333,4,2,1,10,0,0
134175,-133.333333333333,4,2,1,50,0,0
134806,-133.333333333333,4,2,1,10,0,0
134964,-133.333333333333,4,2,1,50,0,0
135754,-133.333333333333,4,2,4,60,0,0
136069,-133.333333333333,4,2,1,10,0,0
136227,-133.333333333333,4,2,1,50,0,0
136385,-133.333333333333,4,2,1,10,0,0
136701,-133.333333333333,4,2,1,50,0,0
137490,-133.333333333333,4,2,1,10,0,0
137648,-133.333333333333,4,2,1,50,0,0
138596,-133.333333333333,4,2,1,10,0,0
138754,-133.333333333333,4,2,1,50,0,0
138911,-133.333333333333,4,2,1,10,0,0
139227,-133.333333333333,4,2,1,50,0,0
139543,-100,4,2,1,50,0,0
140648,-100,4,2,1,50,0,1
140727,-100,4,2,1,50,0,0
141911,-100,4,2,1,50,0,1
141990,-100,4,2,1,50,0,0
143175,-100,4,2,1,50,0,1
143254,-100,4,2,1,50,0,0
144438,-100,4,2,1,50,0,1
144517,-100,4,2,1,50,0,0
145859,-100,4,2,1,50,0,1
145938,-100,4,2,1,50,0,0
150911,-100,4,1,3,40,0,0
151543,315.789473684211,4,2,4,60,1,1
151543,-100,4,2,4,60,0,1
151859,-100,4,2,3,60,0,1
159911,-100,4,2,3,10,0,1
160069,-100,4,2,3,60,0,1
161175,-100,4,2,1,60,0,1
161569,-100,4,2,1,60,0,0
161648,-100,4,2,4,60,0,1
161727,-100,4,2,5,60,0,1
165279,-100,4,2,1,60,0,0
166700,-100,4,2,1,60,0,1
166779,-100,4,2,1,60,0,0
167964,-100,4,2,1,60,0,1
168043,-100,4,2,1,60,0,0
169227,-100,4,2,1,60,0,1
169306,-100,4,2,1,60,0,0
170490,-100,4,2,1,60,0,1
171674,-100,4,2,1,60,0,0
171753,-100,4,2,4,60,0,1
171832,-100,4,2,2,60,0,0
181858,-166.666666666667,4,2,1,60,0,0
191964,-200,4,2,1,60,0,0
192279,-200,4,2,1,10,0,0
192595,-200,4,2,1,60,0,0
192911,-200,4,2,1,10,0,0
193227,-200,4,2,1,60,0,0
204595,-200,4,2,2,50,0,0
214700,-200,4,2,4,50,0,0
215016,-200,4,2,2,50,0,0
219753,-100,4,2,1,50,0,0
224174,-166.666666666667,4,2,1,50,0,0
224490,-166.666666666667,4,2,1,10,0,0
224806,-100,4,1,4,70,0,1
224964,-100,4,1,3,65,0,1
234832,-100,4,1,3,65,0,0
234911,-100,4,1,4,70,0,1
235069,-100,4,1,3,65,0,1
244069,-100,4,2,9,60,0,1
244385,-100,4,2,8,60,0,1
244700,-100,4,1,3,65,0,1
244937,-100,4,1,3,65,0,0
245016,-100,4,2,4,65,0,1
245253,-100,4,2,6,45,0,1
251332,-100,4,2,6,60,0,1
254806,-100,4,2,6,75,0,1
255121,-100,4,2,2,45,0,0

[Colours]
Combo1 : 255,128,128
Combo2 : 128,255,128
Combo3 : 255,255,128
Combo4 : 128,255,255

[HitObjects]
108,64,15753,6,0,P|180:40|252:64,2,151,14|8|10,0:0|0:1|0:1,0:0:0:0:
56,120,16543,1,8,0:0:0:0:
108,320,16859,2,0,P|180:344|252:320,1,151,8|8,0:1|0:0,0:0:0:0:
260,248,17332,1,8,0:1:0:0:
364,236,17490,2,0,L|320:300,1,75.5,0|10,0:0|0:0,0:0:0:0:
412,352,17806,1,8,0:0:0:0:
472,268,17964,2,0,P|476:184|428:144,1,151,8|10,0:1|0:0,0:0:0:0:
292,76,18596,5,8,0:1:0:0:
140,72,18911,2,0,B|60:100|80:12|0:44,2,151,2|2|2,0:0|0:0|0:0,0:0:0:0:
172,140,19701,1,8,0:0:0:0:
236,180,19859,2,0,P|248:256|240:272,1,75.5,10|0,0:1|0:0,0:0:0:0:
176,228,20175,5,10,0:0:0:0:
312,164,20332,2,0,P|360:152|388:156,1,75.5,0|8,0:0|0:1,0:0:0:0:
368,308,20648,2,0,L|364:264,2,37.75,8|8|14,0:1|0:1|0:0,0:0:0:0:
464,120,21122,5,8,0:1:0:0:
332,48,21438,1,10,0:1:0:0:
332,48,21596,2,0,P|264:72|184:68,1,151,0|8,0:0|0:1,0:0:0:0:
36,60,22227,1,8,0:0:0:0:
48,136,22385,2,0,L|80:288,1,151,8|10,0:1|0:0,0:0:0:0:
168,256,22859,1,8,0:0:0:0:
224,328,23017,1,8,0:1:0:0:
224,328,23332,6,0,P|304:316|368:284,1,151,10|8,0:0|0:1,0:0:0:0:
288,56,23964,2,0,P|208:68|144:100,1,151,2|2,0:0|0:0,0:0:0:0:
84,168,24438,2,0,B|80:224|8:232|12:300,2,151,8|10|2,0:1|0:0|0:0,0:0:0:0:
168,196,25227,1,10,0:0:0:0:
168,196,25543,1,8,0:1:0:0:
252,232,25701,1,10,0:1:0:0:
252,232,25780,1,10,0:1:0:0:
252,232,25859,6,0,P|329:220|387:268,2,151,12|8|8,0:0|0:1|0:1,0:0:0:0:
175,280,26648,2,0,L|15:295,2,151,8|8|8,0:0|0:1|0:0,0:0:0:0:
252,232,27438,2,0,P|257:187|252:148,1,75.5,8|0,0:1|0:0,0:0:0:0:
220,72,27754,2,0,P|265:77|304:72,1,75.5,8|8,0:0|0:0,0:0:0:0:
379,44,28069,2,0,P|374:89|379:128,1,75.5,8|0,0:1|0:0,0:0:0:0:
436,181,28385,6,0,P|446:256|437:336,2,151,8|8|0,0:0|0:1|1:0,0:0:0:0:
377,118,29175,2,0,L|220:134,1,151,8|8,0:0|0:1,0:0:0:0:
159,82,29648,1,8,0:0:0:0:
74,90,29806,1,8,0:0:0:0:
30,164,29964,2,0,P|17:203|33:312,1,151,8|8,0:1|0:0,0:0:0:0:
102,357,30438,2,0,L|181:349,1,75.5,8|8,0:0|0:1,0:0:0:0:
224,265,30754,1,0,1:0:0:0:
233,278,30832,1,0,1:0:0:0:
243,291,30911,6,0,L|393:305,2,151,12|8|8,0:0|0:1|0:1,0:0:0:0:
242,206,31701,2,0,L|392:220,1,151,8|8,0:0|0:1,0:0:0:0:
392,220,32332,1,8,0:0:0:0:
466,180,32490,2,0,P|482:106|469:32,1,151,8|8,0:1|0:0,0:0:0:0:
393,71,32964,2,0,L|307:58,1,75.5,8|8,0:0|0:1,0:0:0:0:
244,100,33280,2,0,L|158:87,1,75.5,8|8,0:0|0:0,0:0:0:0:
169,88,33754,6,0,B|170:149|170:149|176:177|176:177|176:246,1,151,8|8,0:1|0:1,0:0:0:0:
93,247,34227,2,0,B|92:186|92:186|86:158|86:158|86:89,2,151,8|8|8,0:0|0:1|0:0,0:0:0:0:
142,319,35017,2,0,P|202:323|261:257,1,151,8|0,0:1|0:0,0:0:0:0:
254,174,35490,2,0,L|254:87,1,75.5,8|8,0:0|0:1,0:0:0:0:
339,69,35806,1,8,0:1:0:0:
352,58,35885,1,8,0:1:0:0:
364,47,35964,6,0,P|437:48|482:105,1,151,14|8,0:0|0:1,0:0:0:0:
482,105,36596,1,10,0:1:0:0:
447,187,36754,2,0,L|460:340,2,151,10|8|10,0:0|0:1|0:0,0:0:0:0:
482,105,37543,2,0,P|411:144|331:121,1,151,8|10,0:1|0:0,0:0:0:0:
288,68,38017,1,8,0:0:0:0:
214,113,38175,2,0,L|130:117,1,75.5,8|0,0:1|0:0,0:0:0:0:
58,153,38490,6,0,B|54:102|54:102|66:57|66:57|61:2,2,151,8|8|10,0:0|0:1|0:1,0:0:0:0:
140,112,39280,2,0,B|144:163|144:163|132:208|132:208|137:263,1,151,8|8,0:0|0:1,0:0:0:0:
136,261,39911,1,8,0:0:0:0:
78,329,40069,2,0,P|138:351|213:304,1,151,10|8,0:1|0:0,0:0:0:0:
272,249,40543,2,0,L|351:260,1,75.5,10|8,0:0|0:1,0:0:0:0:
404,332,40859,1,8,0:1:0:0:
404,332,40938,1,8,0:1:0:0:
404,332,41017,6,0,P|435:286|411:190,1,151,12|8,0:0|0:1,0:0:0:0:
417,196,41648,1,8,0:1:0:0:
370,119,41806,2,0,P|341:60|377:-27,2,151,8|8|8,0:0|0:1|0:0,0:0:0:0:
417,196,42596,2,0,B|366:202|366:202|323:190|323:190|243:196,1,151,8|8,0:1|0:0,0:0:0:0:
212,128,43069,1,10,0:0:0:0:
132,170,43227,2,0,L|122:250,1,75.5,8|2,0:1|0:0,0:0:0:0:
107,331,43543,6,0,L|91:163,1,151,10|8,0:0|0:1,0:0:0:0:
92,180,44175,1,8,0:1:0:0:
26,127,44332,1,8,0:0:0:0:
26,127,44648,2,0,B|73:136|73:136|186:113,1,151,8|8,0:1|0:0,0:0:0:0:
237,59,45122,2,0,L|312:74,1,75.5,10|0,0:1|0:0,0:0:0:0:
257,152,45438,2,0,L|198:200,1,75.5,10|8,0:0|0:0,0:0:0:0:
278,322,45754,2,0,L|279:245,1,75.5,10|8,0:1|0:1,0:0:0:0:
298,251,45990,1,8,0:1:0:0:
315,256,46069,6,0,P|374:272|421:251,1,113.250004320145,12|8,0:0|0:0,0:0:0:0:
467,188,46543,1,8,0:1:0:0:
400,44,46859,1,0,0:0:0:0:
324,20,47017,2,0,L|147:29,1,169.875006480217,8|8,0:0|0:1,0:0:0:0:
79,168,47806,1,0,0:0:0:0:
64,245,47964,2,0,P|104:244|156:180,1,113.250004320145,10|8,0:1|0:1,0:0:0:0:
12,135,48596,6,0,L|19:312,1,169.875006480217,14|8,0:0|0:1,0:0:0:0:
231,197,49543,2,0,P|294:177|375:232,1,169.875006480217,8|8,0:0|0:1,0:0:0:0:
161,336,50490,2,0,P|124:345|91:332,1,56.6250021600724,10|0,0:0|0:0,1:0:0:0:
49,285,50806,1,8,0:1:0:0:
49,285,50885,1,0,0:0:0:0:
49,285,50964,1,0,0:0:0:0:
43,205,51122,6,0,P|79:122|158:100,1,169.875006480217,12|8,0:0|0:1,0:0:0:0:
371,99,52069,2,0,P|448:127|477:204,2,169.875006480217,8|8|8,0:0|0:1|0:1,0:0:0:0:
291,99,53175,1,8,0:1:0:0:
277,108,53254,1,0,0:0:0:0:
264,119,53332,2,0,L|274:190,1,56.6250021600724
243,249,53648,6,0,P|187:279|84:232,2,169.875006480217,12|8|8,0:0|0:1|0:0,0:0:0:0:
249,90,54911,1,2,0:0:0:0:
249,90,54990,1,2,0:0:0:0:
249,90,55069,2,0,P|174:53|98:85,1,169.875006480217,10|10,0:3|0:1,0:0:0:0:
47,235,55859,1,8,0:3:0:0:
47,235,55938,1,8,0:3:0:0:
47,235,56017,1,2,0:0:0:0:
93,299,56175,6,0,L|206:293,1,113.250004320145,12|0,0:0|0:0,0:0:0:0:
279,323,56648,2,0,P|359:352|433:309,1,169.875006480217,8|8,0:1|0:1,0:0:0:0:
349,89,57596,2,0,B|372:135|349:176|349:176|332:216|355:255,1,169.875006480217,8|10,0:0|0:1,0:0:0:0:
421,209,58227,1,0,0:0:0:0:
421,209,58306,1,0,0:0:0:0:
421,209,58385,1,8,0:1:0:0:
284,133,58701,6,0,P|213:100|126:151,2,169.875006480217,10|4|8,0:0|0:3|1:0,0:0:0:0:
337,191,59806,2,0,L|332:264,1,56.6250021600724,8|0,0:1|0:0,0:0:0:0:
269,295,60122,2,0,L|196:290,1,56.6250021600724,6|0,1:3|0:0,0:0:0:0:
150,241,60438,2,0,P|119:233|91:244,1,56.6250021600724,10|0,1:3|0:0,0:0:0:0:
29,284,60754,2,0,P|14:251|19:222,1,56.6250021600724,10|0,1:2|1:0,0:0:0:0:
36,155,61069,6,0,P|51:100|26:37,1,113.250004320145,14|0,0:0|0:0,0:0:0:0:
94,100,61543,1,8,0:0:0:0:
168,127,61701,2,0,P|228:135|272:107,1,113.250004320145,6|0,0:0|0:0,0:0:0:0:
315,41,62175,1,8,0:0:0:0:
315,41,62332,1,8,0:0:0:0:
373,94,62490,2,0,B|391:129|391:129|383:218,1,113.250004320145,6|0,0:0|0:0,0:0:0:0:
345,272,62964,2,0,P|400:254|459:290,1,113.250004320145,10|8,0:1|0:1,0:0:0:0:
307,350,63596,1,0,0:0:0:0:
260,285,63754,6,0,P|242:242|263:171,2,113.250004320145,12|8|8,0:0|0:0|0:0,0:0:0:0:
403,352,64701,2,0,L|468:354,1,56.6250021600724,8|0,0:0|0:0,0:0:0:0:
499,284,65017,2,0,P|517:231|502:178,1,113.250004320145,10|8,0:0|0:0,0:0:0:0:
391,64,65648,1,8,0:0:0:0:
233,45,65964,1,8,0:0:0:0:
157,69,66122,1,8,0:1:0:0:
157,69,66201,1,8,0:1:0:0:
157,69,66280,6,0,P|179:106|257:119,1,113.250004320145,8|8,0:0|0:0,0:0:0:0:
391,64,66911,2,0,P|408:119|384:175,1,113.250004320145,8|8,0:0|0:0,0:0:0:0:
331,224,67385,1,8,0:1:0:0:
316,232,67464,1,8,0:1:0:0:
302,241,67543,2,0,L|188:235,1,113.250004320145,8|8,0:0|0:0,0:0:0:0:
130,180,68017,1,8,0:1:0:0:
121,165,68096,1,8,0:1:0:0:
110,151,68175,6,0,L|343:162,1,226.50000864029,8|0,0:0|0:0,0:0:0:0:
216,96,69596,6,0,P|210:62|221:28,1,56.6250021600724,2|2,0:0|0:0,0:0:0:0:
297,40,69911,2,0,P|302:68|296:95,1,56.6250021600724,0|2,0:0|0:0,0:0:0:0:
162,250,71017,6,0,L|221:262,1,56.6250021600724,2|2,0:0|0:0,0:0:0:0:
294,261,71332,2,0,L|417:241,2,113.250004320145,2|0|2,0:0|0:0|0:0,0:0:0:0:
64,266,73227,5,2,0:0:0:0:
18,137,73859,1,2,0:0:0:0:
123,51,74490,1,2,0:0:0:0:
123,51,75122,6,0,P|192:56|256:116,1,151,14|8,0:0|0:0,0:0:0:0:
276,196,75596,1,0,0:0:0:0:
248,284,75754,2,0,P|296:288|328:272,1,75.5
388,220,76069,2,0,P|392:172|376:140,1,75.5,8|0,0:0|0:0,0:0:0:0:
472,132,76385,2,0,P|468:180|484:212,1,75.5,14|0,0:3|0:0,0:0:0:0:
500,292,76701,2,0,L|432:324,1,75.5,8|0,0:0|0:0,0:0:0:0:
344,292,77017,6,0,P|312:248|336:152,1,151,0|8,0:0|0:0,0:0:0:0:
400,92,77490,1,0,0:0:0:0:
400,92,77648,2,0,L|336:52,1,75.5,14|0,0:3|0:0,0:0:0:0:
256,100,77964,2,0,L|192:60,1,75.5,8|0,0:0|0:0,0:0:0:0:
56,64,78280,2,0,L|120:104,1,75.5,0|0,0:0|0:0,0:0:0:0:
80,184,78596,2,0,L|144:224,1,75.5,8|0,0:0|0:0,0:0:0:0:
236,272,78911,6,0,P|248:332|244:352,2,75.5,14|0|8,0:3|0:0|0:0,0:0:0:0:
340,244,79385,1,0,0:0:0:0:
308,148,79543,2,0,P|312:72|388:28,1,151,0|8,0:0|0:0,0:0:0:0:
396,120,80017,1,0,0:0:0:0:
224,112,80175,6,0,P|189:112|152:96,1,75.5,14|0,0:3|0:0,0:0:0:0:
88,32,80490,2,0,L|68:104,1,75.5,8|0,0:0|0:0,0:0:0:0:
120,180,80806,2,0,L|100:252,1,75.5,0|0,0:0|0:0,0:0:0:0:
168,312,81122,1,8,0:0:0:0:
236,252,81280,1,0,0:0:0:0:
304,192,81438,6,0,P|344:164|436:188,1,151,14|8,0:3|0:0,0:0:0:0:
372,256,81911,1,0,0:0:0:0:
372,256,82069,2,0,L|424:316,1,75.5
236,252,82385,2,0,L|184:192,1,75.5,8|0,0:0|0:0,0:0:0:0:
140,116,82701,5,14,0:3:0:0:
176,32,82859,1,0,0:0:0:0:
252,80,83017,2,0,P|276:68|324:72,1,75.5,8|0,0:0|0:0,0:0:0:0:
340,204,83332,2,0,P|317:189|297:145,1,75.5
404,68,83648,2,0,P|402:94|374:134,1,75.5,8|0,0:0|0:0,0:0:0:0:
224,184,83964,6,0,L|148:184,1,75.5,14|0,0:3|0:3,0:3:0:0:
68,276,84280,2,0,L|144:276,1,75.5,8|0,0:0|0:0,0:0:0:0:
264,276,84596,2,0,L|304:276,7,37.75,8|8|0|0|8|8|8|8,0:0|0:0|0:0|0:0|0:0|0:0|0:0|0:0,0:0:0:0:
364,276,85227,6,0,P|416:256|444:168,1,151,14|0,0:0|0:0,0:0:0:0:
356,184,85701,1,8,0:0:0:0:
356,184,85859,2,0,P|356:152|380:112,1,75.5
288,128,86175,2,0,P|256:128|216:104,1,75.5,8|8,0:0|0:0,0:0:0:0:
208,88,86411,1,8,0:0:0:0:
200,68,86490,6,0,P|160:48|128:52,1,75.5,14|0,0:3|0:0,0:0:0:0:
56,104,86806,2,0,P|36:144|40:176,1,75.5,0|8,0:0|0:0,0:0:0:0:
72,260,87122,2,0,P|112:280|212:260,1,151,0|8,0:0|0:0,0:0:0:0:
272,332,87596,1,8,0:0:0:0:
296,336,87675,1,8,0:0:0:0:
320,340,87754,6,0,P|360:336|400:344,1,75.5,14|0,0:3|0:0,0:0:0:0:
472,296,88069,2,0,P|468:256|476:216,1,75.5,0|8,0:0|0:0,0:0:0:0:
396,172,88385,2,0,P|356:176|316:168,1,75.5,0|0,0:0|0:0,0:0:0:0:
236,136,88701,2,0,P|240:176|232:216,1,75.5,8|8,0:0|0:0,0:0:0:0:
220,228,88938,1,8,0:0:0:0:
204,244,89017,6,0,P|160:268|144:288,1,75.5,14|0,0:3|0:0,0:0:0:0:
56,260,89332,2,0,P|57:209|47:186,1,75.5,0|8,0:0|0:0,0:0:0:0:
116,128,89648,2,0,P|158:154|256:108,1,151,0|8,0:0|0:0,0:0:0:0:
180,64,90122,1,8,0:0:0:0:
180,64,90201,1,8,0:0:0:0:
180,64,90280,6,0,P|220:40|264:36,1,75.5,14|0,0:3|0:0,0:0:0:0:
364,72,90596,2,0,P|388:112|392:156,1,75.5,0|8,0:3|0:0,0:0:0:0:
352,256,90911,2,0,P|312:280|268:284,1,75.5,0|0,0:0|0:0,0:0:0:0:
168,248,91227,2,0,P|144:208|140:164,1,75.5,10|10,0:0|0:0,0:0:0:0:
96,64,91543,6,0,P|52:88|12:176,1,151,14|0,0:3|0:0,0:0:0:0:
44,260,92017,1,8,0:0:0:0:
44,260,92175,2,0,L|104:308,2,75.5,0|0|8,0:0|0:0|0:0,0:0:0:0:
108,196,92648,1,10,0:0:0:0:
108,196,92727,1,10,0:0:0:0:
108,196,92806,6,0,P|152:200|188:192,1,75.5,14|0,0:3|0:0,0:0:0:0:
252,104,93122,2,0,P|248:148|256:184,1,75.5,0|8,0:0|0:0,0:0:0:0:
352,248,93438,2,0,P|308:244|272:252,1,75.5,0|0,0:0|0:0,0:0:0:0:
208,340,93754,2,0,P|212:296|204:260,1,75.5,10|10,0:0|0:0,0:0:0:0:
196,228,93990,1,10,0:0:0:0:
184,192,94069,6,0,L|164:120,1,75.5,0|2,0:0|0:0,0:0:0:0:
252,104,94385,2,0,L|272:176,1,75.5,0|2,0:0|0:0,0:0:0:0:
360,160,94701,2,0,L|340:88,1,75.5,0|2,0:0|0:0,0:0:0:0:
428,72,95017,2,0,L|448:144,2,75.5,0|2|10,0:0|0:0|0:0,0:0:0:0:
462,109,100385,6,0,L|383:102,1,75.5,4|10,0:0|0:0,0:0:0:0:
329,29,100701,2,0,P|297:79|332:176,1,151,10|8,0:1|0:1,0:0:0:0:
369,232,101175,2,0,P|392:301|358:366,1,151,10|10,0:0|0:1,0:0:0:0:
357,366,101806,1,8,0:0:0:0:
281,322,101964,2,0,L|121:333,1,151,10|0,0:1|0:0,0:0:0:0:
130,332,102438,2,0,L|121:246,1,75.5,8|10,0:0|0:1,0:0:0:0:
57,127,102754,2,0,L|48:213,1,75.5,8|10,0:0|0:0,0:0:0:0:
49,202,103227,6,0,B|102:196|102:196|143:204|143:204|207:196,1,151,10|8,0:1|0:1,0:0:0:0:
198,197,103701,1,8,0:0:0:0:
332,85,104017,2,0,P|379:74|462:137,1,151,10|8,0:1|0:0,0:0:0:0:
374,166,104490,2,0,B|369:115|369:115|383:70|383:70|381:15,1,151,10|8,0:1|0:0,0:0:0:0:
459,129,104964,2,0,L|468:214,1,75.5,8|10,0:0|0:1,0:0:0:0:
388,263,105280,1,0,1:0:0:0:
384,285,105359,1,0,1:0:0:0:
380,307,105438,1,12,0:0:0:0:
160,245,105754,6,0,P|229:221|291:259,1,151,10|8,0:1|0:1,0:0:0:0:
217,308,106227,2,0,P|147:331|85:293,1,151,10|8,0:0|0:1,0:0:0:0:
85,293,106859,1,8,0:0:0:0:
42,218,107017,2,0,L|51:129,1,75.5,10|0,0:1|0:0,0:0:0:0:
116,84,107332,2,0,L|107:-5,1,75.5,10|8,0:0|0:0,0:0:0:0:
200,42,107648,2,0,B|218:68|249:75|283:75|308:58|308:58|329:10,1,151,10|8,0:1|0:0,0:0:0:0:
320,29,108280,6,0,L|306:197,1,151,10|8,0:1|0:0,0:0:0:0:
337,259,108754,1,10,0:0:0:0:
337,259,109069,2,0,P|394:279|473:228,1,151,8|8,0:1|0:0,0:0:0:0:
393,190,109543,2,0,P|378:238|441:319,1,151,10|10,0:1|0:0,0:0:0:0:
468,236,110017,2,0,P|476:194|482:155,1,75.5,8|8,0:0|0:1,0:0:0:0:
430,66,110332,1,0,1:0:0:0:
421,82,110411,1,0,1:0:0:0:
412,98,110490,6,0,P|331:108|256:114,1,151,12|8,0:0|0:1,0:0:0:0:
261,113,111122,1,10,0:1:0:0:
195,61,111280,2,0,P|120:51|44:45,2,151,8|8|8,0:0|0:1|0:0,0:0:0:0:
261,113,112069,6,0,B|251:155|251:155|265:279,1,151,8|8,0:1|0:0,0:0:0:0:
209,329,112543,2,0,L|133:337,1,75.5,8|8,0:0|0:1,0:0:0:0:
263,264,112859,1,2,0:0:0:0:
263,264,113017,6,0,L|418:279,2,151,10|8|10,0:0|0:1|0:1,0:0:0:0:
194,208,113806,2,0,P|173:128|197:56,1,151,8|8,0:0|0:1,0:0:0:0:
263,18,114280,6,2,B|403:47|349:-12|492:18,1,226.5,8|0,0:0|0:0,0:0:0:0:
496,28,115543,6,0,L|488:180,1,151,2|12,0:0|0:1,0:0:0:0:
444,260,116017,1,8,0:1:0:0:
424,248,116096,1,8,0:1:0:0:
404,240,116175,2,0,P|364:232|320:248,1,75.5,8|8,1:0|0:0,0:0:0:0:
264,304,116490,6,0,P|216:328|80:232,1,226.5,10|0,0:1|0:0,0:0:0:0:
64,156,117122,1,2,0:0:0:0:
0,216,117280,1,2,0:0:0:0:
136,164,117438,6,0,P|132:124|96:88,1,75.5,2|0,0:0|0:0,0:0:0:0:
196,68,117754,2,0,P|232:84|281:71,1,75.5,2|8,0:0|0:1,0:0:0:0:
260,172,118069,2,0,P|227:195|214:244,1,75.5,12|0,0:0|0:0,0:0:0:0:
264,304,118385,2,0,L|492:292,1,226.5,8|8,0:1|0:0,0:0:0:0:
496,284,119175,6,0,P|504:244|492:204,1,75.5,8|8,1:0|0:0,0:0:0:0:
440,140,119490,2,0,P|431:103|439:66,1,75.5,8|8,0:0|0:1,0:0:0:0:
348,76,119806,1,0,3:0:0:0:
328,88,119885,1,0,3:0:0:0:
304,92,119964,2,0,P|260:92|224:64,1,75.5,10|0,0:0|0:0,0:0:0:0:
160,24,120280,1,8,0:0:0:0:
160,24,120438,1,8,0:1:0:0:
96,88,120596,6,0,L|104:244,1,151,12|8,0:0|0:1,0:0:0:0:
252,344,121227,1,10,0:1:0:0:
212,260,121385,2,0,P|272:252|340:320,1,151,8|8,0:0|0:1,0:0:0:0:
144,320,122017,1,8,0:0:0:0:
104,240,122175,2,0,L|96:89,2,151,8|10|8,0:1|0:0|2:1,0:0:0:0:
252,344,123122,6,0,P|296:352|336:336,1,75.5,8|0,0:0|0:0,0:0:0:0:
392,280,123438,2,0,P|400:235|383:195,1,75.5,8|0,0:1|0:0,0:0:0:0:
324,144,123754,2,0,P|280:136|240:152,1,75.5,2|8,0:0|0:0,0:0:0:0:
188,208,124069,2,0,P|180:252|196:292,1,75.5,2|8,0:0|0:1,0:0:0:0:
272,244,124385,1,8,0:0:0:0:
412,356,124701,6,0,P|456:328|456:236,2,151,10|10|10,0:1|0:0|0:1,0:0:0:0:
272,244,125648,6,0,P|261:172|288:140,1,113.250004320145,14|0,0:0|0:0,0:0:0:0:
348,96,126122,1,4,0:3:0:0:
200,40,126438,1,0,0:0:0:0:
140,92,126596,2,0,P|76:104|8:28,2,169.875006480217,8|4|10,0:3|0:3|0:3,0:0:0:0:
164,208,127780,1,4,0:3:0:0:
164,208,127859,2,0,P|164:256|208:304,1,113.250004320145,4|14,0:3|0:0,0:0:0:0:
240,320,128648,5,4,0:3:0:0:
400,144,129122,1,8,0:3:0:0:
452,204,129280,2,0,P|424:224|352:208,2,113.250004320145,4|4|0,0:3|0:3|0:0,0:0:0:0:
476,128,130069,5,10,0:3:0:0:
476,48,130227,1,8,0:0:0:0:
400,64,130385,1,4,0:3:0:0:
392,68,130464,1,4,0:3:0:0:
384,72,130543,2,0,P|324:80|308:80,1,56.6250021600724,8|14,0:0|0:0,0:0:0:0:
176,264,131175,6,0,P|204:328|312:356,2,169.875006480217,4|8|4,0:3|0:3|0:3,0:0:0:0:
176,120,132596,2,0,P|204:56|248:32,1,113.250004320145,10|4,0:3|0:3,0:0:0:0:
264,192,133227,6,0,L|456:192,2,169.875006480217,14|4|8,0:0|0:3|0:3,0:0:0:0:
184,192,134332,1,8,0:0:0:0:
104,192,134490,2,0,P|56:160|72:52,1,169.875006480217,6|8,0:3|0:0,0:0:0:0:
116,116,135122,2,0,L|228:96,1,113.250004320145,6|8,0:3|0:3,0:0:0:0:
244,92,135517,1,8,0:3:0:0:
260,88,135596,1,8,0:0:0:0:
336,68,135754,6,0,P|376:68|464:160,2,169.875006480217,14|4|8,0:0|0:3|0:3,0:0:0:0:
276,300,137175,2,0,L|104:300,1,169.875006480217,4|10,0:3|0:3,0:0:0:0:
52,240,137806,1,0,0:3:0:0:
52,240,137885,1,4,0:3:0:0:
52,240,137964,1,4,0:3:0:0:
88,84,138280,6,4,P|140:88|196:188,2,169.875006480217,6|4|4,0:3|0:3|0:3,0:3:0:0:
112,168,139385,1,0,1:0:0:0:
112,168,139701,6,0,L|106:253,1,75.5,6|0,1:3|0:0,0:0:0:0:
199,128,140017,2,0,L|254:192,1,75.5,10|0,1:3|0:0,0:0:0:0:
248,44,140332,2,0,L|323:49,1,75.5,10|0,1:2|1:0,0:0:0:0:
443,22,140648,6,0,B|410:51|410:51|392:109|423:160,1,151,14|0,0:0|0:0,0:0:0:0:
469,225,141122,1,8,0:0:0:0:
469,225,141280,2,0,B|496:270|478:328|478:328|445:357,1,151,14|8,0:1|0:1,0:0:0:0:
302,308,141911,6,0,L|146:322,1,151,6|0,0:0|0:0,0:0:0:0:
151,321,142385,1,8,0:0:0:0:
151,321,142543,2,0,P|176:265|152:170,1,151,14|8,0:1|0:1,0:0:0:0:
129,101,143017,2,0,P|123:55|132:20,1,75.5,8|14,0:0|0:0,0:0:0:0:
302,16,143490,6,0,L|393:6,1,75.5,8|8,0:0|0:0,0:0:0:0:
465,24,143806,2,0,B|449:65|449:65|461:183,1,151,14|8,0:1|0:3,0:0:0:0:
375,361,144438,6,0,B|391:320|391:320|379:202,1,151,14|8,0:1|0:1,0:0:0:0:
301,258,144911,1,8,0:0:0:0:
301,258,145069,2,0,B|251:253|251:253|202:264|202:264|146:258,1,151,14|8,0:1|0:1,0:0:0:0:
151,258,145701,1,8,0:0:0:0:
98,329,145859,6,0,P|60:265|94:189,1,151,14|8,0:0|0:0,0:0:0:0:
142,127,146332,2,0,P|150:91|143:49,1,75.5,0|8,0:0|0:0,0:0:0:0:
236,107,146648,2,0,P|276:113|322:103,1,75.5,0|8,0:0|0:0,0:0:0:0:
277,203,146964,2,0,P|271:240|279:285,1,75.5,0|10,0:0|0:0,0:0:0:0:
408,365,147438,5,8,0:0:0:0:
495,233,147754,2,0,L|491:77,2,151,10|8|10,0:0|0:0|0:0,0:0:0:0:
495,233,148701,5,8,0:0:0:0:
408,365,149017,1,8,0:0:0:0:
276,278,149332,1,8,0:0:0:0:
363,146,149648,5,10,0:0:0:0:
461,20,149964,1,8,0:0:0:0:
290,3,150280,1,10,0:0:0:0:
202,132,150596,1,8,0:0:0:0:
202,132,150911,2,0,L|199:179,3,37.75,8|8|8|8,1:0|1:0|1:0|1:0,0:0:0:0:
179,196,151227,2,0,L|176:243,3,37.75,8|8|8|8,1:0|1:0|1:0|1:0,0:0:0:0:
157,260,151543,6,0,P|118:290|16:269,2,151,14|8|8,0:1|0:1|0:0,0:0:0:0:
266,115,152490,1,10,0:1:0:0:
338,60,152648,2,0,P|377:30|479:51,1,151,0|10,0:0|0:0,0:0:0:0:
411,112,153121,2,0,B|428:193|428:193|413:271,1,151,8|10,0:1|0:0,0:0:0:0:
346,320,153595,1,10,0:0:0:0:
271,268,153753,2,0,P|210:240|116:286,1,151,8|10,0:1|0:2,0:0:0:0:
45,106,154385,1,8,0:1:0:0:
116,50,154543,6,0,L|268:53,2,151,2|10|6,0:0|0:0|0:0,0:0:0:0:
48,218,155490,1,8,0:0:0:0:
119,273,155648,2,0,L|277:268,1,151,8|0,0:1|0:0,0:0:0:0:
344,320,156121,1,8,3:2:0:0:
344,320,156200,1,0,3:0:0:0:
344,320,156279,1,0,1:0:0:0:
405,253,156437,1,8,0:1:0:0:
472,315,156595,2,0,P|495:273|456:178,1,151,4|8,0:0|0:1,0:0:0:0:
285,223,157227,6,0,P|239:236|197:216,1,75.5,10|0,0:0|0:0,0:0:0:0:
180,143,157543,1,2,1:2:0:0:
180,143,157700,1,2,0:0:0:0:
90,154,157858,1,10,0:0:0:0:
90,154,158016,1,0,0:0:0:0:
79,244,158174,1,2,1:2:0:0:
79,244,158332,1,2,0:0:0:0:
131,318,158490,6,0,L|222:312,1,75.5,10|10,0:0|0:0,0:0:0:0:
294,291,158806,2,0,L|380:297,1,75.5,2|10,1:2|0:0,0:0:0:0:
460,304,159121,2,0,P|490:246|454:162,1,151,12|10,0:0|0:1,0:0:0:0:
388,116,159595,2,0,L|143:122,1,226.5,10|10,0:0|0:1,0:0:0:0:
3,162,160385,6,0,P|-9:126|2:86,1,75.5,2|0,1:0|1:0,0:0:0:0:
50,15,160700,2,0,L|135:10,1,75.5,2|0,1:0|1:0,0:0:0:0:
211,41,161016,2,0,L|288:46,1,75.5,2|8,1:0|0:3,0:0:0:0:
368,7,161332,1,10,0:3:0:0:
368,7,161490,1,6,0:3:0:0:
453,35,161648,6,0,P|472:84|445:150,1,113.25,14|2,0:0|0:0,0:0:0:0:
429,169,161964,2,0,L|339:169,1,75.5,8|2,0:1|0:0,0:0:0:0:
319,152,162200,2,0,P|267:135|208:162,1,113.25,2|0,0:0|0:0,0:0:0:0:
131,193,162595,1,10,0:1:0:0:
131,193,162674,2,0,P|77:189|36:143,1,113.25,2|8,0:0|0:0,0:0:0:0:
17,236,163069,1,10,0:0:0:0:
17,236,163148,2,0,L|19:353,1,113.25,2|0,0:0|0:0,0:0:0:0:
110,306,163543,5,10,0:0:0:0:
198,364,163700,1,10,0:0:0:0:
284,303,163858,1,10,0:1:0:0:
370,363,164016,1,2,1:0:0:0:
459,305,164174,2,0,P|485:238|448:157,1,151,14|8,0:0|0:1,0:0:0:0:
365,116,164648,1,2,0:0:0:0:
273,169,164806,6,0,P|232:180|191:161,1,75.5,8|10,0:0|0:0,0:0:0:0:
111,113,165121,1,8,0:1:0:0:
173,27,165279,2,0,L|345:37,1,151,14|10,0:0|0:0,0:0:0:0:
428,52,165753,1,2,0:0:0:0:
428,52,165911,1,2,0:0:0:0:
470,148,166069,1,10,0:0:0:0:
401,228,166227,1,2,0:0:0:0:
401,228,166306,1,8,0:1:0:0:
401,228,166385,2,0,P|362:238|318:219,1,75.5,8|6,0:1|0:3,0:0:0:0:
268,140,166700,6,0,P|227:213|303:327,1,226.5,4|8,0:0|0:0,0:0:0:0:
295,325,167490,2,0,L|370:321,1,75.5,8|8,0:1|0:3,0:0:0:0:
475,302,167806,1,4,0:3:0:0:
475,302,167964,1,14,0:0:0:0:
506,200,168121,2,0,L|495:48,2,151,8|12|8,0:1|0:0|0:3,0:0:0:0:
407,161,168911,2,0,L|403:120,3,37.75,6|2|10|2,0:3|0:0|0:0|0:0,0:0:0:0:
399,70,169227,5,14,0:0:0:0:
301,29,169385,1,2,0:0:0:0:
301,29,169464,1,8,0:1:0:0:
301,29,169543,1,8,0:1:0:0:
221,98,169700,2,0,P|149:116|90:67,1,151,14|2,0:0|0:0,0:0:0:0:
3,12,170174,2,0,L|11:115,1,75.5,10|10,0:0|0:0,0:0:0:0:
65,176,170490,6,0,L|61:264,1,75.5,14|8,0:1|0:0,0:0:0:0:
158,354,170806,2,0,L|154:266,1,75.5,14|8,0:1|0:0,0:0:0:0:
212,189,171121,2,0,L|216:151,3,37.75,14|8|8|8,0:1|0:1|0:1|0:1,0:0:0:0:
221,98,171437,2,0,P|259:90|307:110,1,75.5,14|4,0:1|0:3,0:0:0:0:
376,156,171753,5,6,0:0:0:0:
408,240,172385,1,0,0:0:0:0:
328,284,173016,1,2,0:0:0:0:
296,200,173648,1,0,0:0:0:0:
264,116,174279,5,2,0:0:0:0:
232,32,174911,1,0,0:0:0:0:
148,64,175227,1,0,0:0:0:0:
180,148,175543,1,2,0:0:0:0:
264,116,176174,1,0,0:0:0:0:
348,88,176806,5,2,0:0:0:0:
440,88,177437,1,0,0:0:0:0:
460,176,178069,1,2,0:0:0:0:
392,236,178700,1,0,0:0:0:0:
324,176,179332,5,2,0:0:0:0:
264,108,179964,1,0,0:0:0:0:
200,172,180595,1,2,0:0:0:0:
264,236,181227,1,0,0:0:0:0:
264,236,181858,6,0,L|272:336,2,90.5999972351075,10|8|10,0:0|0:0|0:1,0:0:0:0:
138,108,182806,2,0,L|90:104,1,45.2999986175538,8|8,0:1|0:1,0:0:0:0:
190,28,183121,2,0,L|220:63,1,45.2999986175538,10|8,0:1|0:1,0:0:0:0:
307,87,183437,2,0,L|311:39,1,45.2999986175538,8|0,0:0|0:0,0:0:0:0:
396,80,183753,2,0,P|444:86|499:77,1,90.5999972351075,10|2,0:1|0:0,0:0:0:0:
462,165,184227,5,8,0:1:0:0:
462,165,184385,2,0,L|471:265,1,90.5999972351075,10|8,0:0|0:0,0:0:0:0:
319,229,185016,2,8,L|310:329,1,90.5999972351075,10|8,0:1|0:1,0:0:0:0:
310,319,185490,2,0,L|256:313,1,45.2999986175538,8|10,0:1|0:1,0:0:0:0:
185,304,185806,2,0,L|130:297,1,45.2999986175538,8|8,0:1|0:0,0:0:0:0:
58,285,186121,2,0,L|51:230,1,45.2999986175538,8|10,0:1|0:1,0:0:0:0:
43,159,186437,2,0,L|36:104,1,45.2999986175538,8|4,0:1|0:3,0:0:0:0:
26,32,186753,5,8,0:0:0:0:
26,32,186911,1,6,0:0:0:0:
26,32,187543,1,0,0:0:0:0:
12,133,188174,5,2,0:0:0:0:
12,133,188806,1,0,0:0:0:0:
107,175,189437,5,2,0:0:0:0:
107,175,190069,1,0,0:0:0:0:
183,97,190700,5,2,0:0:0:0:
141,8,191964,6,0,P|198:51|279:17,2,151,2|2|2,0:0|0:0|0:0,0:0:0:0:
316,112,204595,6,0,L|336:144,1,37.75,10|0,0:0|0:0,0:0:0:0:
295,283,205227,2,0,L|257:285,1,37.75,0|0,0:0|0:0,0:0:0:0:
156,180,205858,2,0,L|174:146,1,37.75,10|0,0:0|0:0,0:0:0:0:
256,56,206332,1,0,0:0:0:0:
292,56,206490,1,0,0:0:0:0:
328,56,206648,1,0,0:0:0:0:
364,56,206806,1,0,0:0:0:0:
400,56,206964,1,0,0:0:0:0:
436,56,207121,6,0,L|444:100,1,37.75,10|0,0:0|0:0,0:0:0:0:
488,240,207753,2,0,L|494:202,1,37.75,0|0,0:0|0:0,0:0:0:0:
412,336,208385,2,0,L|368:332,1,37.75,10|0,0:0|0:0,0:0:0:0:
260,300,208858,1,0,0:0:0:0:
224,308,209016,1,0,0:0:0:0:
188,316,209174,1,0,0:0:0:0:
152,324,209332,1,0,0:0:0:0:
116,332,209490,1,0,0:0:0:0:
80,340,209648,6,0,L|36:316,1,37.75,10|0,0:0|0:0,0:0:0:0:
36,164,210279,2,0,L|-8:140,1,37.75
156,108,210911,2,0,L|189:126,1,37.75,10|0,0:0|0:0,0:0:0:0:
288,196,211385,1,0,0:0:0:0:
324,188,211543,1,0,0:0:0:0:
360,180,211700,1,0,0:0:0:0:
396,172,211858,1,0,0:0:0:0:
432,164,212016,1,0,0:0:0:0:
468,156,212174,6,0,L|480:112,1,37.75,10|0,0:0|0:0,0:0:0:0:
328,42,212806,2,0,L|328:80,1,37.75,2|0,0:0|0:0,0:0:0:0:
212,152,213437,2,0,L|200:108,1,37.75,10|0,0:0|0:0,0:0:0:0:
72,28,214069,2,0,L|64:76,1,37.75,10|0,0:0|0:0,0:0:0:0:
40,244,214700,6,0,L|128:228,1,75.5,14|0,0:0|1:0,0:0:0:0:
224,280,215332,2,0,L|316:288,1,75.5,2|0,0:0|0:0,0:0:0:0:
460,152,215964,6,0,L|368:144,1,75.5,10|0,0:0|0:0,0:0:0:0:
296,64,216595,2,0,L|292:152,1,75.5,2|0,0:0|0:0,0:0:0:0:
220,356,217227,6,0,L|224:268,1,75.5,10|0,0:0|0:0,0:0:0:0:
56,268,217858,2,0,L|148:276,1,75.5,2|0,0:0|0:0,0:0:0:0:
168,72,218490,6,0,L|92:64,2,75.5,10|0|2,0:0|0:0|0:0,0:0:0:0:
200,76,219279,1,0,0:0:0:0:
228,80,219437,2,0,L|304:88,1,75.5,0|10,0:0|0:0,0:0:0:0:
412,192,220069,5,8,0:0:0:0:
328,316,220385,1,8,0:0:0:0:
412,192,220700,1,8,0:0:0:0:
384,44,221016,5,10,0:0:0:0:
236,76,221332,1,8,0:0:0:0:
264,224,221648,1,8,0:0:0:0:
412,192,221964,1,8,0:0:0:0:
328,316,222279,5,10,0:0:0:0:
176,316,222595,1,8,0:0:0:0:
176,164,222911,1,10,0:0:0:0:
328,164,223227,1,8,0:0:0:0:
328,316,223543,5,10,0:0:0:0:
252,184,223858,1,8,0:0:0:0:
176,316,224174,2,0,B|136:284|92:296|92:296|48:308|8:264,1,181.199994470215,10|14,0:1|0:0,0:0:0:0:
81,206,224964,5,0,0:0:0:0:
81,206,225043,1,8,0:0:0:0:
81,206,225121,2,0,P|85:157|78:122,1,75.5,8|8,0:0|0:0,0:0:0:0:
121,46,225437,1,0,0:0:0:0:
171,124,225595,2,0,L|253:117,1,75.5,8|8,0:0|0:0,0:0:0:0:
334,86,225911,6,0,L|327:168,1,75.5,8|14,0:0|0:3,0:0:0:0:
388,233,226227,1,0,0:0:0:0:
388,233,226306,1,8,0:0:0:0:
388,233,226385,1,8,0:0:0:0:
465,178,226543,2,0,L|472:96,2,75.5,0|10|0,0:0|0:0|0:0,0:0:0:0:
388,233,227016,2,0,L|395:315,1,75.5,8|8,0:0|0:0,0:0:0:0:
307,287,227332,6,0,P|270:282|222:287,1,75.5,14|0,0:3|0:0,0:0:0:0:
206,293,227569,1,8,0:0:0:0:
206,293,227648,2,0,P|169:298|121:293,1,75.5,8|8,0:0|0:0,0:0:0:0:
67,228,227964,1,0,0:0:0:0:
128,151,228121,2,0,L|126:66,1,75.5,0|8,0:0|0:0,0:0:0:0:
196,19,228437,1,8,0:0:0:0:
268,73,228595,6,0,L|270:158,1,75.5,14|0,0:3|0:0,0:0:0:0:
311,239,228911,2,0,L|363:184,1,75.5,8|8,0:0|0:0,0:0:0:0:
352,327,229227,2,0,L|276:328,1,75.5,0|0,0:0|0:0,0:0:0:0:
202,281,229543,2,0,L|126:282,1,75.5,8|8,0:0|0:0,0:0:0:0:
56,337,229858,6,0,P|38:288|60:222,1,113.25,14|8,0:3|0:0,0:0:0:0:
67,210,230174,2,0,P|75:165|67:126,1,75.5,8|8,0:0|0:0,0:0:0:0:
10,71,230490,1,0,0:0:0:0:
70,135,230648,1,0,0:0:0:0:
157,117,230806,1,8,0:0:0:0:
185,30,230964,1,8,0:0:0:0:
246,97,231121,6,0,L|323:91,1,75.5,14|0,0:3|0:0,0:0:0:0:
415,49,231437,2,0,L|357:0,1,75.5,8|8,0:0|0:0,0:0:0:0:
503,5,231753,2,0,L|508:80,1,75.5,8|0,0:0|0:0,0:0:0:0:
446,156,232069,2,0,L|440:231,1,75.5,8|8,0:0|0:0,0:0:0:0:
446,256,232306,1,8,0:0:0:0:
453,281,232385,6,0,P|397:286|363:276,1,75.5,14|0,0:3|0:0,0:0:0:0:
302,243,232700,2,0,P|264:237|227:243,1,75.5,8|8,0:0|0:0,0:0:0:0:
171,313,233016,1,8,0:0:0:0:
171,313,233174,1,0,0:0:0:0:
84,317,233332,1,8,0:0:0:0:
84,317,233490,1,8,0:0:0:0:
26,252,233648,6,0,P|19:213|26:169,1,75.5,14|0,0:3|0:0,0:0:0:0:
104,130,233964,2,0,P|111:169|104:213,1,75.5,8|8,0:0|0:0,0:0:0:0:
175,264,234279,1,2,0:0:0:0:
175,264,234437,1,0,0:0:0:0:
260,227,234595,2,0,L|335:233,1,75.5,8|10,0:0|0:0,0:0:0:0:
416,192,234911,6,0,P|424:157|413:115,1,75.5,14|0,0:0|0:0,0:0:0:0:
346,58,235227,2,0,L|265:66,1,75.5,8|0,0:0|0:0,0:0:0:0:
185,98,235543,2,0,L|109:92,1,75.5,2|0,0:0|0:0,0:0:0:0:
20,73,235858,1,8,0:0:0:0:
20,73,236016,1,8,0:0:0:0:
22,163,236174,6,0,L|25:255,1,75.5,14|0,0:3|0:0,0:0:0:0:
103,320,236490,2,0,L|112:246,1,75.5,8|8,0:0|0:0,0:0:0:0:
159,167,236806,1,0,0:0:0:0:
175,151,236885,2,0,P|226:136|303:168,1,113.25,8|8,0:0|0:0,0:0:0:0:
350,211,237279,1,8,0:0:0:0:
364,228,237358,1,8,0:0:0:0:
379,244,237437,6,0,L|461:241,1,75.5,14|0,0:3|0:0,0:0:0:0:
446,332,237753,2,0,P|406:342|368:326,1,75.5,8|8,0:0|0:0,0:0:0:0:
294,286,238069,2,0,P|261:297|232:337,1,75.5,8|0,0:0|0:0,0:0:0:0:
148,354,238385,2,0,L|58:349,1,75.5,8|8,0:0|0:0,0:0:0:0:
17,277,238700,6,0,P|6:237|15:203,1,75.5,14|0,0:3|0:0,0:0:0:0:
82,144,239016,2,0,P|119:139|162:161,2,75.5,0|0|8,0:0|0:0|0:0,0:0:0:0:
106,233,239490,1,0,0:0:0:0:
196,239,239648,2,0,P|234:216|245:188,1,75.5,8|8,0:0|0:0,0:0:0:0:
227,98,239964,6,0,L|309:103,1,75.5,14|0,0:3|0:0,0:0:0:0:
387,72,240279,2,0,L|382:154,1,75.5,8|8,0:0|0:0,0:0:0:0:
411,233,240595,2,0,L|329:228,1,75.5,8|0,0:0|0:0,0:0:0:0:
363,315,240911,2,0,L|438:319,1,75.5,8|8,0:0|0:0,0:0:0:0:
268,308,241227,6,0,L|108:299,1,151,14|8,0:3|0:0,0:0:0:0:
48,240,241700,1,8,0:0:0:0:
48,240,241779,1,0,0:0:0:0:
48,240,241858,1,0,0:0:0:0:
86,158,242016,2,0,P|121:181|134:228,1,75.5,0|8,0:0|0:0,0:0:0:0:
48,240,242332,1,8,0:0:0:0:
8,158,242490,6,0,P|17:119|50:91,1,75.5,14|0,0:3|0:0,0:0:0:0:
124,55,242806,2,0,L|212:60,1,75.5,8|8,0:0|0:0,0:0:0:0:
276,106,243121,2,0,L|354:102,1,75.5,8|0,0:0|0:0,0:0:0:0:
435,65,243437,1,8,0:0:0:0:
435,65,243595,1,8,0:0:0:0:
491,136,243753,6,0,P|417:271|164:207,1,453,14|8,0:3|0:0,0:0:0:0:
123,128,244858,1,10,0:0:0:0:
192,68,245016,6,0,P|244:56|324:104,1,151,14|14,0:2|0:0,0:0:0:0:
316,208,245490,2,0,P|376:196|428:104,1,151,10|2,0:0|0:0,0:0:0:0:
448,232,245964,2,0,L|444:308,1,75.5,14|10,0:0|0:0,0:0:0:0:
344,336,246279,6,0,P|292:320|196:336,1,151,14|14,0:1|0:0,0:0:0:0:
96,356,246753,2,0,P|56:312|60:260,2,113.25,10|8|14,0:0|0:0|0:0,0:0:0:0:
156,268,247385,1,10,0:0:0:0:
160,240,247464,1,8,0:0:0:0:
164,212,247543,6,0,P|188:168|208:156,1,75.5,14|2,0:1|0:0,0:0:0:0:
316,240,247858,2,0,P|265:241|245:229,1,75.5,6|10,0:0|0:0,0:0:0:0:
264,96,248174,2,0,P|290:138|290:162,1,75.5,6|2,0:0|0:0,0:0:0:0:
152,156,248490,2,0,P|125:113|125:89,1,75.5,14|10,0:0|0:0,0:0:0:0:
128,60,248727,1,8,0:0:0:0:
132,32,248806,6,0,P|104:64|36:84,2,113.25,14|8|10,0:1|0:0|0:0,0:0:0:0:
236,40,249437,1,14,0:0:0:0:
264,48,249516,2,0,P|316:56|372:32,1,113.25,8|14,0:0|0:0,0:0:0:0:
404,136,249911,1,10,0:0:0:0:
400,168,249990,1,8,0:0:0:0:
396,196,250069,6,0,P|376:244|356:260,1,75.5,14|2,0:1|0:0,0:0:0:0:
256,240,250385,2,0,P|276:192|296:176,1,75.5,6|10,0:0|0:0,0:0:0:0:
296,312,250700,2,0,P|256:320|220:312,1,75.5,6|2,0:0|0:0,0:0:0:0:
140,248,251016,2,0,L|120:176,1,75.5,14|10,0:0|0:0,0:0:0:0:
100,72,251332,6,0,P|132:92|236:64,1,151,14|6,0:1|0:0,0:0:0:0:
324,4,251806,2,0,P|364:36|372:100,2,113.25,10|8|14,0:0|0:0|0:0,0:0:0:0:
288,104,252437,1,10,0:0:0:0:
280,132,252516,1,8,0:0:0:0:
268,160,252595,6,0,P|236:192|208:200,1,75.5,14|2,0:1|0:0,0:0:0:0:
108,164,252911,2,0,B|112:180|112:180|104:248,1,75.5,6|10,0:0|0:0,0:0:0:0:
148,336,253227,2,0,L|224:328,1,75.5,6|2,0:0|0:0,0:0:0:0:
304,260,253543,2,0,P|356:232|380:232,1,75.5,14|10,0:0|0:0,0:0:0:0:
400,236,253779,1,8,0:0:0:0:
428,244,253858,6,0,L|428:168,1,75.5,14|2,0:1|0:0,0:0:0:0:
348,76,254174,2,0,L|328:152,1,75.5,6|10,0:0|0:0,0:0:0:0:
232,220,254490,2,0,L|200:136,1,75.5,6|2,0:0|0:0,0:0:0:0:
124,60,254806,1,10,1:2:0:0:
100,80,254885,1,8,1:2:0:0:
80,104,254964,1,10,1:2:0:0:
64,128,255043,1,8,1:2:0:0:
52,156,255121,1,10,0:0:0:0:
