osu file format v14

[General]
AudioFilename: audio.mp3
AudioLeadIn: 0
PreviewTime: 40120
Countdown: 0
SampleSet: Soft
StackLeniency: 0.5
Mode: 0
LetterboxInBreaks: 0
WidescreenStoryboard: 0

[Editor]
DistanceSpacing: 1.1
BeatDivisor: 4
GridSize: 8
TimelineZoom: 1

[Metadata]
Title:the new non non biyori disco groove
TitleUnicode:the new non non biyori disco groove
Artist:Moe Shop
ArtistUnicode:Moe Shop
Creator:Plaudible
Version:Insane
Source:のんのんびより
Tags:anime japanese electronic lokidoki okaeri おかえり Koiwai Kotori Murakawa Rie Sakura Ayane Asumi Kana 小岩井ことり 村川梨衣 佐倉綾音 阿澄佳奈
BeatmapID:2156120
BeatmapSetID:1031041

[Difficulty]
HPDrainRate:5
CircleSize:4
OverallDifficulty:7.5
ApproachRate:8
SliderMultiplier:1.6
SliderTickRate:1

[Events]
//Background and Video events
0,0,"Non-Non-Biyori-4-non-non-biyori-40179108-1920-1080.jpg",0,0
//Break Periods
//Storyboard Layer 0 (Background)
//Storyboard Layer 1 (Fail)
//Storyboard Layer 2 (Pass)
//Storyboard Layer 3 (Foreground)
//Storyboard Layer 4 (Overlay)
//Storyboard Sound Samples

[TimingPoints]
9,444.444444444444,4,2,2,100,1,0
5342,-100,4,2,2,100,0,1
12453,-133.333333333333,4,2,2,80,0,0
26676,-133.333333333333,4,2,2,70,0,0
33787,-111.111111111111,4,2,2,90,0,0
40231,-111.111111111111,4,2,2,70,0,0
40897,-100,4,2,2,100,0,1
68231,-133.333333333333,4,2,2,80,0,1
69342,-133.333333333333,4,2,2,50,0,0

[Colours]
Combo1 : 255,213,170
Combo2 : 158,138,229
Combo3 : 255,255,136
Combo4 : 255,176,216

[HitObjects]
352,210,5343,6,0,P|402:209|435:229,1,80,2|2,0:1|0:0,0:0:0:0:
246,358,5787,1,8,0:0:0:0:
143,266,6009,2,0,L|158:177,1,80,2|2,0:0|0:1,0:0:0:0:
180,79,6454,1,2,0:0:0:0:
180,79,6565,1,2,0:0:0:0:
180,79,6676,2,0,P|130:80|97:96,1,80,8|0,0:0|0:0,0:0:0:0:
32,250,7120,5,2,0:1:0:0:
277,198,7342,1,2,0:0:0:0:
180,79,7565,1,8,0:0:0:0:
143,266,7787,1,2,0:0:0:0:
359,243,8009,2,0,P|367:222|367:183,2,53.3333333333333,2|2|2,0:1|0:0|0:0,0:0:0:0:
306,319,8454,2,0,L|406:336,1,80,0|0,0:0|0:0,0:0:0:0:
180,79,8898,5,2,0:1:0:0:
143,266,9120,1,2,0:0:0:0:
291,145,9342,1,8,0:0:0:0:
167,47,9565,1,2,0:0:0:0:
143,266,9787,6,0,B|185:269|185:269|227:248,1,80,2|0,0:1|0:0,0:0:0:0:
252,239,10120,2,0,L|265:323,1,80,10|0,0:0|0:0,0:0:0:0:
271,353,10454,1,2,0:1:0:0:
198,166,10676,6,0,B|231:119|230:52|230:52|238:118|285:159,2,240,2|8|0,0:1|0:0|0:0,0:0:0:0:
259,246,12231,1,2,0:0:0:0:
259,246,12342,1,2,0:0:0:0:
259,246,12454,6,0,L|337:257,1,60.0000022888184,2|0,0:1|0:0,0:0:0:0:
421,193,12898,2,0,P|396:157|339:133,2,90.0000034332277,8|0|0,0:0|0:0|0:0,0:0:0:0:
375,380,13787,1,8,0:0:0:0:
304,268,14009,1,0,0:0:0:0:
498,230,14231,6,0,P|506:187|493:150,1,60.0000022888184,2|0,0:1|0:0,0:0:0:0:
304,268,14676,2,0,P|296:309|308:346,1,60.0000022888184,8|0,0:0|0:0,0:0:0:0:
394,198,15120,1,2,0:1:0:0:
252,85,15342,2,0,P|257:55|259:49,2,30.0000011444092,0|0|8,0:0|0:0|0:0,0:0:0:0:
272,194,15786,1,0,0:0:0:0:
272,194,15898,1,0,0:0:0:0:
272,194,16009,6,0,L|200:180,1,60.0000022888184,2|0,0:1|0:0,0:0:0:0:
91,139,16454,1,8,0:0:0:0:
213,182,16676,1,0,0:0:0:0:
28,204,16898,2,0,P|-1:150|8:100,1,90.0000034332277,2|0,0:1|0:0,0:0:0:0:
9,98,17342,1,8,0:0:0:0:
141,263,17565,1,0,0:0:0:0:
213,182,17787,6,0,P|223:145|218:113,1,60.0000022888184,2|0,0:1|0:0,0:0:0:0:
2,188,18231,2,0,P|12:215|33:237,1,60.0000022888184,8|0,0:0|0:0,0:0:0:0:
258,268,18676,2,0,P|283:252|301:228,1,60.0000022888184,2|0,0:1|0:0,0:0:0:0:
111,103,19120,2,0,P|101:131|102:161,1,60.0000022888184,8|0,0:0|0:0,0:0:0:0:
135,309,19565,5,2,0:1:0:0:
196,146,19787,1,0,0:0:0:0:
36,279,20009,2,0,P|31:315|40:348,1,60.0000022888184,8|0,0:0|0:0,0:0:0:0:
35,337,20342,1,0,0:0:0:0:
35,337,20454,1,2,0:1:0:0:
205,369,20676,2,0,P|227:340|236:307,1,60.0000022888184,0|8,0:0|0:0,0:0:0:0:
166,168,21120,2,0,L|173:133,2,30.0000011444092,0|0|2,0:0|0:0|0:1,0:0:0:0:
135,309,21565,5,0,0:0:0:0:
271,221,21787,2,0,L|335:232,1,60.0000022888184,8|0,0:0|0:0,0:0:0:0:
330,231,22120,1,0,0:0:0:0:
330,231,22231,1,2,0:1:0:0:
430,282,22453,2,0,P|444:239|441:215,2,60.0000022888184,0|8|0,0:0|0:0|0:0,0:0:0:0:
253,189,23120,5,2,0:1:0:0:
395,109,23342,1,0,0:0:0:0:
430,282,23565,1,8,0:0:0:0:
410,88,23787,5,0,0:0:0:0:
268,168,24009,1,2,0:1:0:0:
353,326,24231,1,0,0:0:0:0:
176,252,24454,2,0,P|159:215|158:185,1,60.0000022888184,8|0,0:0|0:0,0:0:0:0:
190,75,24898,6,0,L|267:62,1,60.0000022888184,2|0,0:1|0:0,0:0:0:0:
321,26,25231,1,0,0:0:0:0:
321,26,25342,2,0,P|331:59|328:88,1,60.0000022888184,8|0,0:0|0:0,0:0:0:0:
286,159,25676,1,0,0:0:0:0:
286,159,25787,2,0,P|284:188|294:217,1,60.0000022888184,2|0,0:1|0:0,0:0:0:0:
369,265,26120,1,0,0:0:0:0:
369,265,26231,2,0,L|446:252,1,60.0000022888184,8|0,0:0|0:0,0:0:0:0:
235,345,26676,5,2,0:1:0:0:
235,345,26898,1,0,0:0:0:0:
99,302,27120,2,0,P|114:265|144:241,1,60.0000022888184,0|0,0:0|0:0,0:0:0:0:
157,236,27454,2,0,L|247:220,1,90.0000034332277,0|0,0:0|0:0,0:0:0:0:
334,134,28009,1,0,0:0:0:0:
323,283,28231,1,0,0:0:0:0:
426,99,28454,6,0,P|407:63|383:48,1,60.0000022888184,2|0,0:1|0:0,0:0:0:0:
411,198,28898,2,0,P|451:200|476:185,1,60.0000022888184,0|0,0:0|0:0,0:0:0:0:
334,134,29342,2,0,L|295:127,2,30.0000011444092,2|2|0,0:0|0:0|0:0,0:0:0:0:
246,262,29787,2,0,L|258:334,1,60.0000022888184,0|0,0:0|0:0,0:0:0:0:
116,177,30231,5,2,0:1:0:0:
116,177,30454,1,0,0:0:0:0:
191,58,30676,2,0,P|224:48|260:51,1,60.0000022888184,0|0,0:0|0:0,0:0:0:0:
275,70,31009,2,0,L|369:58,1,90.0000034332277,0|0,0:0|0:0,0:0:0:0:
468,76,31565,2,0,P|470:40|458:11,1,60.0000022888184,0|0,0:0|0:0,0:0:0:0:
396,161,32009,6,0,B|385:206|412:253|412:253|426:220,1,120.000004577637,2|0,0:1|0:0,0:0:0:0:
364,59,32676,2,0,B|335:47|304:60|304:60|273:73|242:62,1,120.000004577637,0|0,0:0|0:0,0:0:0:0:
131,21,33342,1,2,0:0:0:0:
164,184,33565,1,0,0:0:0:0:
336,144,33787,6,0,P|348:194|338:232,1,71.9999978027344,8|0,0:0|0:0,0:0:0:0:
289,289,34120,1,0,0:0:0:0:
289,289,34231,2,0,L|207:305,1,71.9999978027344,8|0,0:0|0:0,0:0:0:0:
159,86,34676,5,10,0:0:0:0:
13,307,34898,1,2,0:0:0:0:
60,88,35120,5,10,0:0:0:0:
235,291,35342,1,2,0:0:0:0:
159,86,35565,5,10,0:0:0:0:
107,384,35787,1,2,0:0:0:0:
385,247,36009,1,8,0:0:0:0:
99,203,36231,2,0,P|85:237|87:276,1,71.9999978027344,2|8,0:0|0:0,0:0:0:0:
280,153,36676,2,0,P|294:119|292:80,1,71.9999978027344,2|8,0:0|0:0,0:0:0:0:
139,96,37120,1,2,0:0:0:0:
228,270,37342,6,0,L|312:284,1,71.9999978027344,8|0,0:0|0:0,0:0:0:0:
139,96,37787,2,0,L|54:81,1,71.9999978027344,10|0,0:0|0:0,0:0:0:0:
280,153,38231,2,0,P|294:119|292:80,1,71.9999978027344,8|0,0:0|0:0,0:0:0:0:
88,211,38676,2,0,P|74:245|76:284,1,71.9999978027344,10|0,0:0|0:0,0:0:0:0:
280,153,39120,5,8,0:0:0:0:
173,32,39342,1,8,0:0:0:0:
88,211,39565,2,0,L|90:238,4,17.9999994506836,10|0|0|0|10,0:0|0:0|0:0|0:0|0:0,0:0:0:0:
202,233,40231,5,2,0:0:0:0:
159,124,40454,1,2,0:0:0:0:
88,211,40676,1,2,0:0:0:0:
376,44,40898,6,0,P|394:84|390:129,1,80,2|2,0:1|0:0,0:0:0:0:
218,308,41342,2,0,P|200:268|204:223,1,80,8|2,0:0|0:0,0:0:0:0:
376,44,41787,1,2,0:1:0:0:
326,270,42009,1,2,0:0:0:0:
144,123,42231,1,8,0:0:0:0:
398,191,42454,2,0,P|422:218|431:272,1,80,2|2,0:0|0:1,0:0:0:0:
247,28,42898,5,2,0:0:0:0:
208,260,43120,1,8,0:0:0:0:
57,134,43342,2,0,L|73:226,1,80,2|2,0:0|0:1,0:0:0:0:
266,168,43787,1,2,0:0:0:0:
57,134,44009,1,8,0:0:0:0:
313,87,44231,1,2,0:0:0:0:
341,319,44454,6,0,P|291:329|255:316,1,80,2|2,0:1|0:0,0:0:0:0:
436,186,44898,2,0,P|486:176|522:189,1,80,8|2,0:0|0:0,0:0:0:0:
313,87,45342,2,0,L|298:-4,1,80,2|2,0:1|0:0,0:0:0:0:
478,267,45787,1,8,0:0:0:0:
431,7,46009,1,2,0:0:0:0:
235,187,46231,6,0,P|195:183|161:163,2,80,2|2|8,0:1|0:0|0:0,0:0:0:0:
502,95,46898,1,2,0:0:0:0:
352,354,47120,2,0,B|296:344|296:344|253:360|253:360|190:349,1,160,2|8,0:1|0:0,0:0:0:0:
26,213,47787,1,2,0:0:0:0:
26,213,47898,1,0,0:0:0:0:
26,213,48009,6,0,P|61:238|100:242,1,80,2|2,0:1|0:0,0:0:0:0:
214,24,48453,2,0,P|174:41|151:73,1,80,8|0,0:0|0:0,0:0:0:0:
227,339,48898,1,2,0:1:0:0:
253,120,49120,1,2,0:0:0:0:
88,256,49342,1,8,0:0:0:0:
358,223,49565,1,2,0:0:0:0:
102,150,49787,5,2,0:1:0:0:
399,71,50009,1,2,0:0:0:0:
227,339,50231,1,8,0:0:0:0:
160,33,50454,1,2,0:0:0:0:
354,307,50676,2,0,B|401:329|438:314|438:314|484:297|523:320,1,160,2|8,0:1|0:0,0:0:0:0:
401,222,51342,1,2,0:0:0:0:
268,352,51565,5,2,0:1:0:0:
400,119,51787,1,2,0:0:0:0:
357,365,52009,5,8,0:0:0:0:
307,97,52231,1,2,0:0:0:0:
187,376,52454,5,2,0:1:0:0:
417,210,52676,1,2,0:0:0:0:
173,102,52898,1,8,0:0:0:0:
278,268,53120,1,2,0:0:0:0:
366,34,53342,6,0,B|323:12|323:12|195:34,2,160,2|8|2,0:1|0:0|0:1,0:0:0:0:
278,268,54454,1,2,0:0:0:0:
306,104,54676,1,8,0:0:0:0:
385,362,54898,1,2,0:0:0:0:
161,332,55120,6,0,L|69:314,1,80,2|2,0:1|0:0,0:0:0:0:
227,119,55565,2,0,L|318:101,1,80,8|2,0:0|0:0,0:0:0:0:
150,215,56009,1,2,0:1:0:0:
109,31,56231,1,2,0:0:0:0:
305,103,56454,1,8,0:0:0:0:
160,303,56676,2,0,P|113:298|83:276,1,80,2|2,0:0|0:1,0:0:0:0:
255,296,57120,5,2,0:0:0:0:
205,74,57342,1,8,0:0:0:0:
35,180,57565,2,0,P|25:128|34:95,1,80,2|2,0:0|0:1,0:0:0:0:
205,74,58009,1,2,0:0:0:0:
128,258,58231,1,8,0:0:0:0:
85,22,58454,1,2,0:0:0:0:
300,148,58676,6,0,L|284:235,1,80,2|2,0:1|0:0,0:0:0:0:
470,98,59120,2,0,P|434:84|395:89,1,80,8|2,0:0|0:0,0:0:0:0:
373,301,59565,2,0,P|409:315|448:310,1,80,2|2,0:1|0:0,0:0:0:0:
213,163,60009,1,8,0:0:0:0:
419,197,60231,1,2,0:0:0:0:
282,368,60454,6,0,L|204:354,2,80,2|2|8,0:1|0:0|0:0,0:0:0:0:
324,130,61120,1,2,0:0:0:0:
21,206,61342,2,0,B|63:191|96:222|96:222|130:256|200:233,1,160,2|8,0:1|0:0,0:0:0:0:
150,13,62009,1,2,0:0:0:0:
308,208,62231,6,0,L|324:130,1,80,2|2,0:1|0:0,0:0:0:0:
84,343,62676,2,0,P|120:360|160:357,1,80,8|2,0:0|0:0,0:0:0:0:
171,90,63120,2,0,P|139:113|123:148,1,80,2|2,0:1|0:0,0:0:0:0:
334,280,63564,2,0,P|331:240|309:208,1,80,8|0,0:0|0:0,0:0:0:0:
37,232,64009,6,0,L|197:246,1,160,2|8,0:1|0:0,0:0:0:0:
123,149,64676,1,2,0:0:0:0:
109,332,64898,1,2,0:1:0:0:
203,68,65120,1,2,0:0:0:0:
254,309,65342,1,8,0:0:0:0:
21,230,65565,1,2,0:0:0:0:
340,264,65787,6,0,P|354:313|346:347,1,80,2|2,0:1|0:0,0:0:0:0:
202,162,66231,2,0,L|123:149,1,80,8|2,0:0|0:0,0:0:0:0:
366,92,66676,2,0,L|416:30,1,80,2|2,0:1|0:0,0:0:0:0:
339,263,67120,2,0,L|368:338,1,80,8|2,0:0|0:0,0:0:0:0:
306,175,67564,5,2,0:1:0:0:
306,175,68231,2,0,P|342:168|386:180,2,60.0000022888184,2|2|2,0:0|0:0|0:0,0:0:0:0:
217,224,68898,2,0,L|166:215,2,30.0000011444092,2|2|0,0:0|0:0|0:0,0:0:0:0:
99,202,69342,5,2,0:1:0:0:
295,43,69787,5,2,0:0:0:0:
285,120,70231,1,2,0:0:0:0:
208,110,70676,1,2,0:0:0:0:
217,33,71120,1,2,0:0:0:0:
