osu file format v14

[General]
AudioFilename: audio.mp3
AudioLeadIn: 0
PreviewTime: -1
Countdown: 1
SampleSet: Normal
StackLeniency: 0.7
Mode: 0
LetterboxInBreaks: 0
WidescreenStoryboard: 0

[Editor]
DistanceSpacing: 2
BeatDivisor: 1
GridSize: 8
TimelineZoom: 1

[Metadata]
Title:Pretty Please
TitleUnicode:Pretty Please
Artist:Moe Shop
ArtistUnicode:Moe Shop
Creator:Ignite
Version:Moegnite
Source:
Tags:
BeatmapID:942934
BeatmapSetID:437963

[Difficulty]
HPDrainRate:5
CircleSize:4
OverallDifficulty:7
ApproachRate:9
SliderMultiplier:3
SliderTickRate:1

[Events]
//Background and Video events
0,0,"d2e1f0e3a5c8acba1cdc970172f7c950.jpg",0,0
//Break Periods
//Storyboard Layer 0 (Background)
//Storyboard Layer 1 (Fail)
//Storyboard Layer 2 (Pass)
//Storyboard Layer 3 (Foreground)
//Storyboard Sound Samples

[TimingPoints]
1571.75862068966,517.241379310345,4,1,0,100,1,0

[HitObjects]
248,184,537,5,0,0:0:0:0:
112,80,1054,5,8,0:0:0:0:
416,80,1571,1,8,0:0:0:0:
424,320,2089,1,8,0:0:0:0:
112,320,2606,1,8,0:0:0:0:
112,192,3123,2,8,L|448:192,1,300
256,40,4157,2,0,L|256:344,1,300
112,80,5192,5,0,0:0:0:0:
112,80,5709,1,0,0:0:0:0:
416,304,6226,1,0,0:0:0:0:
416,304,6744,1,0,0:0:0:0:
408,80,7261,1,0,0:0:0:0:
408,80,7778,1,0,0:0:0:0:
88,320,8295,1,0,0:0:0:0:
88,320,8813,1,0,0:0:0:0:
72,72,9330,5,0,0:0:0:0:
264,192,9847,1,0,0:0:0:0:
80,304,10364,1,0,0:0:0:0:
432,128,10882,1,0,0:0:0:0:
416,296,11399,1,0,0:0:0:0:
224,232,11916,1,0,0:0:0:0:
264,184,12433,1,0,0:0:0:0:
328,56,12951,1,0,0:0:0:0:
456,320,13468,5,0,0:0:0:0:
320,336,13985,1,0,0:0:0:0:
400,168,14502,1,0,0:0:0:0:
144,288,15020,1,0,0:0:0:0:
288,48,15537,1,0,0:0:0:0:
56,160,16054,1,0,0:0:0:0:
144,48,16571,1,0,0:0:0:0:
56,48,17089,1,0,0:0:0:0:
128,208,17606,6,0,B|448:216|456:240|456:240|152:336|152:336|384:48,1,900
80,56,19675,2,0,B|336:264|336:264|64:176|64:176|352:88,1,900
256,336,21744,2,0,B|264:32|264:32|256:360|256:360|264:48,1,900
32,80,23813,2,0,B|336:184|336:184|32:168|392:312|392:312|320:72,1,900
224,280,25882,5,0,0:0:0:0:
128,112,26399,1,0,0:0:0:0:
400,112,26916,1,0,0:0:0:0:
264,288,27433,1,0,0:0:0:0:
112,112,27951,1,0,0:0:0:0:
384,112,28468,1,0,0:0:0:0:
256,296,28985,1,0,0:0:0:0:
136,112,29502,1,0,0:0:0:0:
352,112,30020,6,0,B|56:304|56:304|88:48|496:48,1,900
192,256,32089,5,0,0:0:0:0:
48,56,32606,1,0,0:0:0:0:
464,328,33123,1,0,0:0:0:0:
448,72,33640,1,0,0:0:0:0:
272,192,34157,1,0,0:0:0:0:
272,192,34675,1,0,0:0:0:0:
96,80,35192,1,0,0:0:0:0:
128,280,35709,1,0,0:0:0:0:
96,64,36226,5,0,0:0:0:0:
288,88,36744,1,0,0:0:0:0:
400,256,37261,1,0,0:0:0:0:
248,352,37778,1,0,0:0:0:0:
104,192,38295,1,0,0:0:0:0:
360,48,38813,1,0,0:0:0:0:
456,272,39330,1,0,0:0:0:0:
240,192,39847,1,0,0:0:0:0:
80,48,40364,5,0,0:0:0:0:
80,328,40882,1,0,0:0:0:0:
240,336,41399,1,0,0:0:0:0:
240,40,41916,1,0,0:0:0:0:
384,48,42433,1,0,0:0:0:0:
384,344,42951,1,0,0:0:0:0:
480,344,43468,1,0,0:0:0:0:
480,40,43985,1,0,0:0:0:0:
48,48,44502,5,0,0:0:0:0:
472,344,45020,1,0,0:0:0:0:
40,128,45537,1,0,0:0:0:0:
472,272,46054,1,0,0:0:0:0:
40,224,46571,1,0,0:0:0:0:
464,160,47089,1,0,0:0:0:0:
56,328,47606,1,0,0:0:0:0:
480,56,48123,1,0,0:0:0:0:
128,96,48640,5,0,0:0:0:0:
256,192,49157,1,0,0:0:0:0:
416,288,49675,1,0,0:0:0:0:
432,56,50192,1,0,0:0:0:0:
96,296,50709,1,0,0:0:0:0:
64,104,51226,1,0,0:0:0:0:
384,200,51744,1,0,0:0:0:0:
280,112,52261,1,0,0:0:0:0:
192,296,52778,6,0,B|248:-24|176:88|176:88|440:272|440:272|128:64|448:408,1,900
48,320,54847,2,0,B|200:48|200:48|312:336|312:336|424:40|424:40|464:352,1,1200
224,64,57433,2,0,B|24:336|312:328|392:288|424:272|424:272|456:120|208:40|208:40|112:280,1,900
80,264,59502,2,0,B|280:24|336:296|432:48|104:72|104:72|304:240|32:352|352:336,1,900
240,48,61571,2,0,B|-80:312|192:376|464:304|464:304|336:64|64:360,1,900
48,336,63640,2,0,B|232:32|232:32|296:336|296:336|480:64,1,900
88,64,65709,2,0,B|424:56|424:56|240:64|248:304|248:304|16:304|16:304|440:296|440:296|608:304|208:296,1,1500
40,48,68813,2,0,B|504:48|504:48|256:48|112:64|272:48|272:48|264:384|264:384|336:392|40:368,1,1200
120,256,71399,2,0,B|320:16|376:288|472:40|144:64|144:64|344:232|72:344|392:328,1,900
64,64,73468,5,0,0:0:0:0:
160,168,73985,1,0,0:0:0:0:
280,328,74502,1,0,0:0:0:0:
144,184,75020,1,0,0:0:0:0:
288,80,75537,1,0,0:0:0:0:
64,312,76054,1,0,0:0:0:0:
368,72,76571,1,0,0:0:0:0:
352,216,77089,1,0,0:0:0:0:
360,352,77606,1,0,0:0:0:0:
480,320,78123,1,0,0:0:0:0:
472,112,78640,1,0,0:0:0:0:
72,56,79157,6,0,B|72:368|72:368|72:208|72:208|256:64|256:64|80:208|80:208|336:360|336:360,1,1500
88,64,82261,2,0,B|424:56|424:56|240:64|248:304|248:304|16:304|16:304|440:296|440:296|608:304|208:296,1,1500
88,40,85364,2,0,B|88:344|88:344|408:344|408:344,1,600
88,40,86916,2,0,B|88:344|88:344|408:344|408:344,1,600
56,328,88468,2,0,B|232:40|232:40|296:320|296:320|416:48|416:48|472:352,1,1200
120,256,91054,2,0,B|320:16|376:288|472:40|144:64|144:64|344:232|72:344|392:328,1,900
256,192,93123,12,0,99847,0:0:0:0:
88,288,100364,5,0,0:0:0:0:
456,128,100882,1,0,0:0:0:0:
112,72,101399,1,0,0:0:0:0:
400,304,101916,1,0,0:0:0:0:
96,256,102433,1,0,0:0:0:0:
360,104,102951,1,0,0:0:0:0:
288,296,103468,1,0,0:0:0:0:
120,144,103985,1,0,0:0:0:0:
296,128,104502,5,0,0:0:0:0:
328,232,105020,1,0,0:0:0:0:
440,168,105537,1,0,0:0:0:0:
392,96,106054,1,0,0:0:0:0:
80,128,106571,1,0,0:0:0:0:
168,192,107089,1,0,0:0:0:0:
96,280,107606,1,0,0:0:0:0:
40,200,108123,1,0,0:0:0:0:
264,296,108640,5,0,0:0:0:0:
144,192,109157,1,0,0:0:0:0:
344,192,109675,1,0,0:0:0:0:
256,232,110192,1,0,0:0:0:0:
144,120,110709,1,0,0:0:0:0:
368,112,111226,1,0,0:0:0:0:
256,104,111744,1,0,0:0:0:0:
256,32,112261,1,0,0:0:0:0:
56,80,112778,6,0,B|368:304|432:136|64:32|64:32|208:304|208:304|488:336|440:112|440:112|176:8|8:336|144:344|144:344|464:40|464:40|480:320|8:160|8:160|336:32|336:32|480:216|480:216|360:368|0:272|0:272|416:24,1,4200
256,192,120537,1,0,0:0:0:0:
360,40,121054,2,0,B|64:136|64:136|360:248|360:248|64:336|-8:312,1,900
224,64,123123,2,0,B|24:336|312:328|392:288|424:272|424:272|456:120|208:40|208:40|112:280,1,900
112,56,125192,2,0,B|112:360|112:360|112:48|272:48|272:48|472:144|472:144|120:176|120:176|480:368|480:368|536:368,1,1500
112,56,128295,2,0,B|112:360|112:360|112:48|272:48|272:48|472:144|472:144|120:176|120:176|480:368|480:368|536:368,1,1500
176,320,131399,2,0,B|368:56|368:56|280:176|280:176|136:-72,1,600
104,80,132951,5,0,0:0:0:0:
256,200,133468,1,0,0:0:0:0:
424,64,133985,1,0,0:0:0:0:
432,320,134502,1,0,0:0:0:0:
88,320,135020,1,0,0:0:0:0:
256,56,135537,1,0,0:0:0:0:
256,288,136054,1,0,0:0:0:0:
112,136,136571,1,0,0:0:0:0:
448,64,137089,5,0,0:0:0:0:
448,328,137606,1,0,0:0:0:0:
48,336,138123,1,0,0:0:0:0:
56,48,138640,1,0,0:0:0:0:
160,136,139157,1,0,0:0:0:0:
328,136,139675,1,0,0:0:0:0:
336,280,140192,1,0,0:0:0:0:
176,288,140709,1,0,0:0:0:0:
256,56,141226,5,0,0:0:0:0:
256,344,141744,1,0,0:0:0:0:
40,192,142261,1,0,0:0:0:0:
472,200,142778,1,0,0:0:0:0:
160,192,143295,1,0,0:0:0:0:
256,112,143813,1,0,0:0:0:0:
336,192,144330,1,0,0:0:0:0:
264,248,144847,1,0,0:0:0:0:
88,80,145364,2,0,B|440:96|440:96|152:208|152:208|416:304|320:24|72:264|72:264|-72:312|464:320,1,1500
456,80,148468,6,0,B|64:72|56:232|448:320|448:320|128:48|128:48|72:216|160:344|160:344|336:352|440:168|440:168|472:104,1,1800
56,64,152089,2,0,B|432:64|432:64|88:144|88:144|440:192|440:192|104:224|104:224|432:256|432:256|96:304|96:304|408:320|408:320|104:368|104:368|400:144,1,3000
256,192,157778,1,0,0:0:0:0:
56,48,158295,2,0,B|64:368|64:368|352:360|80:248|80:248|352:152|-96:-24,1,900
56,344,160364,2,0,B|248:32|248:32|416:360|416:360|312:152|120:192|120:192|32:160|480:224,1,1500
72,56,163468,2,0,B|72:368|72:368|72:208|72:208|256:64|256:64|80:208|80:208|336:360|336:360,1,1500
56,344,166571,2,0,B|248:32|248:32|416:360|416:360|312:152|120:192|120:192|32:160|480:224,1,1500
