osu file format v14

[General]
AudioFilename: audio.mp3
AudioLeadIn: 0
PreviewTime: -1
Countdown: 2
SampleSet: None
StackLeniency: 0.7
Mode: 0
LetterboxInBreaks: 0
WidescreenStoryboard: 1
SamplesMatchPlaybackRate: 1

[Editor]
DistanceSpacing: 0.8
BeatDivisor: 4
GridSize: 32
TimelineZoom: 1.1

[Metadata]
Title:Moestep
TitleUnicode:Moestep
Artist:Moe Shop
ArtistUnicode:Moe Shop
Creator:OtakuFizz
Version:Insane
Source:
Tags:
BeatmapID:1516722
BeatmapSetID:604034

[Difficulty]
HPDrainRate:8
CircleSize:4
OverallDifficulty:8
ApproachRate:8
SliderMultiplier:2
SliderTickRate:1

[Events]
//Background and Video events
//Break Periods
2,64297,83791
//Storyboard Layer 0 (Background)
//Storyboard Layer 1 (Fail)
//Storyboard Layer 2 (Pass)
//Storyboard Layer 3 (Foreground)
//Storyboard Sound Samples

[TimingPoints]
3653,444.444444444444,4,1,1,100,1,0
32097,-66.6666666666667,4,3,1,100,0,1
49875,444.444444444444,4,3,1,100,1,0

[Colours]
Combo1 : 247,250,118
Combo2 : 249,183,242
Combo3 : 125,233,238
Combo4 : 116,244,94

[HitObjects]
416,32,2764,5,0,0:0:0:0:
416,128,2986,1,0,0:0:0:0:
416,224,3208,1,8,0:0:0:0:
256,224,3430,1,0,0:0:0:0:
96,224,3653,5,4,0:0:0:0:
96,32,4097,1,8,0:0:0:0:
160,128,4319,1,0,0:0:0:0:
224,224,4541,1,0,0:0:0:0:
416,224,4875,1,0,0:0:0:0:
480,224,4986,1,8,0:0:0:0:
320,224,5208,5,0,0:0:0:0:
128,64,5652,1,0,0:0:0:0:
128,224,5875,2,0,P|160:256|224:256,1,100,8|0,0:0|0:0,0:0:0:0:
160,128,6319,2,0,P|192:160|256:160,1,100,8|0,0:0|0:0,0:0:0:0:
192,32,6764,2,0,P|224:64|288:64,1,100,8|0,0:0|0:0,0:0:0:0:
96,32,7208,6,0,L|224:32,1,100,8|0,0:0|0:0,0:0:0:0:
352,96,7652,2,0,L|256:160,1,100,0|8,0:0|0:0,0:0:0:0:
256,192,7986,1,0,0:0:0:0:
256,224,8097,1,0,0:0:0:0:
256,320,8319,6,0,P|352:320|384:288,2,100,8|0|8,0:0|0:0|0:0,0:0:0:0:
128,128,9208,1,0,0:0:0:0:
128,32,9430,2,0,P|192:0|224:0,1,100,0|8,0:0|0:0,0:0:0:0:
224,0,9764,1,0,0:0:0:0:
224,0,9875,1,0,0:0:0:0:
352,0,10097,1,0,0:0:0:0:
256,96,10319,1,8,0:0:0:0:
160,192,10541,1,8,0:0:0:0:
256,320,10763,5,4,0:0:0:0:
416,320,10986,1,0,0:0:0:0:
416,192,11208,1,0,0:0:0:0:
384,192,11319,1,0,0:0:0:0:
352,192,11430,1,8,0:0:0:0:
320,192,11541,1,0,0:0:0:0:
288,192,11652,1,0,0:0:0:0:
96,192,11875,5,0,0:0:0:0:
96,160,11986,1,0,0:0:0:0:
96,128,12097,1,8,0:0:0:0:
96,32,12319,1,12,0:0:0:0:
192,128,12541,1,0,0:0:0:0:
288,32,12764,1,0,0:0:0:0:
416,96,12986,5,0,0:0:0:0:
416,128,13097,1,0,0:0:0:0:
416,256,13319,1,0,0:0:0:0:
384,256,13430,1,0,0:0:0:0:
320,256,13652,5,0,0:0:0:0:
288,256,13764,1,0,0:0:0:0:
256,256,13875,1,0,0:0:0:0:
224,256,13986,1,0,0:0:0:0:
192,256,14097,1,0,0:0:0:0:
160,256,14208,1,0,0:0:0:0:
128,256,14319,2,0,P|128:192|160:160,2,100
256,352,14986,6,0,P|320:352|320:320,1,100
384,192,15430,2,0,P|448:160|480:192,1,100
320,288,15875,2,0,L|160:320,2,150
384,192,16764,2,0,L|384:64,2,100
256,192,17430,5,0,0:0:0:0:
224,192,17541,1,0,0:0:0:0:
192,192,17652,1,0,0:0:0:0:
160,192,17764,1,0,0:0:0:0:
128,192,17875,1,0,0:0:0:0:
128,288,18097,5,0,0:0:0:0:
256,288,18319,1,0,0:0:0:0:
416,288,18541,1,0,0:0:0:0:
416,192,18764,1,0,0:0:0:0:
256,192,18986,1,0,0:0:0:0:
96,192,19208,1,0,0:0:0:0:
96,128,19430,5,0,0:0:0:0:
96,96,19541,1,0,0:0:0:0:
96,64,19652,1,0,0:0:0:0:
256,64,19875,1,0,0:0:0:0:
416,64,20097,1,0,0:0:0:0:
96,96,20541,5,0,0:0:0:0:
256,192,20763,1,0,0:0:0:0:
416,288,20985,1,0,0:0:0:0:
256,192,21208,1,0,0:0:0:0:
96,96,21430,2,0,B|160:32|160:32|288:32,1,200
288,32,21986,5,0,0:0:0:0:
320,32,22097,1,0,0:0:0:0:
352,32,22208,1,0,0:0:0:0:
384,32,22319,1,0,0:0:0:0:
384,192,22541,1,0,0:0:0:0:
256,192,22764,1,0,0:0:0:0:
128,192,22986,2,0,B|128:96|128:96|224:32,1,200
224,160,23652,1,0,0:0:0:0:
224,256,23875,6,0,B|352:256|352:256|416:224,1,200
416,192,24430,1,0,0:0:0:0:
416,160,24541,2,0,B|416:96|416:96|416:32,1,100
128,32,24986,6,0,B|64:96|64:96|64:192,2,150,0|0|12,0:0|0:0|0:0,0:0:0:0:
160,32,25764,1,0,0:0:0:0:
192,32,25875,1,8,0:0:0:0:
224,32,25986,1,0,0:0:0:0:
256,32,26097,1,0,0:0:0:0:
288,32,26208,1,0,0:0:0:0:
320,32,26319,1,0,0:0:0:0:
352,32,26430,1,0,0:0:0:0:
384,32,26541,1,12,0:0:0:0:
384,192,26986,5,0,0:0:0:0:
128,192,27208,1,8,0:0:0:0:
128,352,27430,1,0,0:0:0:0:
128,192,27652,1,8,0:0:0:0:
128,160,27764,1,0,0:0:0:0:
128,128,27875,1,0,0:0:0:0:
128,96,27986,1,0,0:0:0:0:
160,96,28097,1,0,0:0:0:0:
192,96,28208,1,0,0:0:0:0:
224,96,28319,1,8,0:0:0:0:
256,192,28541,5,0,0:0:0:0:
448,192,28764,1,8,0:0:0:0:
256,192,28986,1,0,0:0:0:0:
64,192,29208,1,8,0:0:0:0:
256,192,29430,1,8,0:0:0:0:
448,192,29652,1,0,0:0:0:0:
256,192,29875,1,0,0:0:0:0:
256,64,30097,6,8,B|128:64|128:64|64:128,1,200
64,224,30764,1,8,0:0:0:0:
256,224,30986,1,8,0:0:0:0:
448,224,31208,2,0,B|448:160|448:160|416:128,1,100
448,224,31652,2,0,B|448:160|448:160|416:128,1,100
384,32,32097,6,0,P|480:32|512:96,1,150.000005722046
384,160,32541,2,0,P|480:160|512:224,1,150.000005722046
384,320,32986,2,0,P|480:320|512:384,2,150.000005722046
160,320,33652,5,0,0:0:0:0:
128,64,34097,2,0,P|224:32|288:32,1,150.000005722046
480,32,34541,1,0,0:0:0:0:
480,64,34652,1,0,0:0:0:0:
480,96,34764,1,0,0:0:0:0:
320,96,34986,5,0,0:0:0:0:
320,64,35097,1,0,0:0:0:0:
320,32,35208,1,0,0:0:0:0:
32,32,35430,1,0,0:0:0:0:
192,256,35652,2,0,B|448:160|160:96,1,300.000011444092
32,96,36319,5,0,0:0:0:0:
32,128,36430,1,0,0:0:0:0:
32,160,36541,1,0,0:0:0:0:
32,192,36652,1,0,0:0:0:0:
64,192,36764,1,0,0:0:0:0:
224,192,36986,1,0,0:0:0:0:
256,64,37208,5,0,0:0:0:0:
128,192,37430,1,0,0:0:0:0:
256,320,37652,1,0,0:0:0:0:
384,192,37875,1,0,0:0:0:0:
256,320,38097,1,0,0:0:0:0:
128,192,38319,1,0,0:0:0:0:
256,64,38541,1,0,0:0:0:0:
384,192,38764,5,0,0:0:0:0:
384,352,38986,1,0,0:0:0:0:
160,352,39208,2,0,B|96:288|96:288|96:224,1,150.000005722046
352,32,39652,2,0,B|416:96|416:96|416:160,1,150.000005722046
256,352,40097,6,0,B|192:288|192:288|192:224,1,150.000005722046
256,32,40541,2,0,B|320:96|320:96|320:160,1,150.000005722046
320,288,40986,1,0,0:0:0:0:
288,320,41097,1,0,0:0:0:0:
256,288,41208,1,0,0:0:0:0:
224,320,41319,1,0,0:0:0:0:
192,288,41430,6,0,B|128:224|128:224|128:160,2,150.000005722046
352,288,42097,1,0,0:0:0:0:
352,96,42319,1,0,0:0:0:0:
128,96,42541,1,0,0:0:0:0:
256,192,42764,12,0,45430,0:0:0:0:
128,192,45652,5,0,0:0:0:0:
256,320,45875,1,0,0:0:0:0:
384,192,46097,1,0,0:0:0:0:
256,64,46319,1,0,0:0:0:0:
256,160,46541,1,0,0:0:0:0:
256,256,46764,1,0,0:0:0:0:
64,32,47208,5,0,0:0:0:0:
256,32,47430,1,0,0:0:0:0:
448,32,47652,1,0,0:0:0:0:
448,192,47875,1,0,0:0:0:0:
64,192,48319,1,0,0:0:0:0:
448,192,48764,1,0,0:0:0:0:
256,32,48986,1,0,0:0:0:0:
256,192,49208,1,0,0:0:0:0:
256,352,49430,1,0,0:0:0:0:
64,192,49652,1,0,0:0:0:0:
256,192,49875,5,0,0:0:0:0:
128,32,50208,1,0,0:0:0:0:
128,32,50319,1,0,0:0:0:0:
320,32,50541,1,0,0:0:0:0:
320,192,50763,1,0,0:0:0:0:
288,192,50875,1,0,0:0:0:0:
256,192,50986,1,0,0:0:0:0:
96,192,51208,1,0,0:0:0:0:
96,224,51319,1,0,0:0:0:0:
96,256,51430,1,0,0:0:0:0:
256,256,51652,5,0,0:0:0:0:
256,64,51875,1,0,0:0:0:0:
96,64,52097,1,0,0:0:0:0:
96,192,52319,1,0,0:0:0:0:
96,224,52430,1,0,0:0:0:0:
96,256,52541,1,0,0:0:0:0:
96,288,52652,1,0,0:0:0:0:
128,288,52763,2,0,L|192:288,2,50
256,192,53208,5,0,0:0:0:0:
256,64,53430,1,0,0:0:0:0:
64,64,53763,1,0,0:0:0:0:
64,96,53874,2,0,B|64:160|64:160|128:224,2,150
256,32,54763,2,0,B|320:32|320:32|352:64,2,100
224,128,55430,2,0,B|160:128|160:128|128:160,1,100
256,224,55874,2,0,B|320:224|320:224|352:256,1,100
160,224,56319,6,0,B|160:288|160:288|192:320,2,100
160,128,56986,2,0,B|160:64|160:64|224:0,2,150
160,224,57874,2,0,B|192:288|192:288|256:288,2,100
352,192,58541,1,0,0:0:0:0:
352,160,58652,2,0,B|352:96|352:96|416:32,1,150
352,160,59208,1,0,0:0:0:0:
192,192,59430,6,0,B|128:192|128:192|96:160,1,100
192,256,59874,2,0,B|128:256|128:256|96:224,1,100
192,256,60319,1,0,0:0:0:0:
288,256,60541,2,0,B|384:256|384:256|480:160,1,200
256,96,61208,2,0,B|192:96|192:96|128:128,1,100
256,160,61652,2,0,B|192:160|192:160|128:192,1,100
256,224,62097,6,0,B|192:224|192:224|64:288,1,200
256,224,62763,1,0,0:0:0:0:
256,96,62986,1,0,0:0:0:0:
384,192,63208,1,0,0:0:0:0:
256,288,63430,2,0,B|192:288|192:288|128:256,2,100
256,192,64097,1,4,0:0:0:0:
256,32,84541,5,0,0:0:0:0:
256,64,84652,1,0,0:0:0:0:
256,96,84763,1,0,0:0:0:0:
256,128,84874,1,0,0:0:0:0:
256,160,84986,1,0,0:0:0:0:
256,192,85097,1,0,0:0:0:0:
256,192,85208,5,0,0:0:0:0:
128,64,85430,6,0,L|160:160,1,100,8|0,0:0|0:0,0:0:0:0:
256,64,85874,2,0,L|288:160,1,100,8|0,0:0|0:0,0:0:0:0:
384,64,86319,2,0,B|416:128|416:128|416:256,1,200,0|8,0:0|0:0,0:0:0:0:
128,256,86986,5,4,0:0:0:0:
128,224,87097,1,0,0:0:0:0:
128,192,87208,1,0,0:0:0:0:
128,32,87430,1,0,0:0:0:0:
256,96,87652,1,8,0:0:0:0:
384,32,87874,1,4,0:0:0:0:
384,192,88097,5,0,0:0:0:0:
256,96,88319,1,4,0:0:0:0:
128,192,88541,1,8,0:0:0:0:
256,256,88763,1,8,0:0:0:0:
384,192,88986,1,2,0:0:0:0:
96,64,89430,5,0,0:0:0:0:
96,192,89652,1,4,0:0:0:0:
96,320,89874,1,2,0:0:0:0:
256,192,90097,1,0,0:0:0:0:
448,64,90319,1,0,0:0:0:0:
448,192,90541,1,4,0:0:0:0:
448,320,90763,1,2,0:0:0:0:
256,320,90986,5,0,0:0:0:0:
256,32,91430,1,0,0:0:0:0:
256,320,91874,1,0,0:0:0:0:
384,192,92097,1,2,0:0:0:0:
256,64,92319,1,0,0:0:0:0:
256,192,92541,12,0,94319,0:0:0:0:
256,192,94319,12,0,96097,0:0:0:0:
256,192,96097,12,0,98319,0:0:0:0:
