osu file format v14

[General]
AudioFilename: audio.mp3
AudioLeadIn: 0
PreviewTime: 3740
Countdown: 0
SampleSet: Soft
StackLeniency: 0.7
Mode: 0
LetterboxInBreaks: 0
WidescreenStoryboard: 1

[Editor]
DistanceSpacing: 1.6
BeatDivisor: 4
GridSize: 4
TimelineZoom: 1

[Metadata]
Title:Moestep
TitleUnicode:Moestep
Artist:Moe Shop
ArtistUnicode:Moe Shop
Creator:Aviaty
Version:Hard
Source:
Tags:moe shop ring of fortune plastic memories waifu wednesdays future bass aesthetic
BeatmapID:1558370
BeatmapSetID:738411

[Difficulty]
HPDrainRate:6.5
CircleSize:4.5
OverallDifficulty:7.5
ApproachRate:8.3
SliderMultiplier:2.2
SliderTickRate:1

[Events]
//Background and Video events
0,0,"DHxTpvKXYAAko_l.jpg",0,0
//Break Periods
//Storyboard Layer 0 (Background)
//Storyboard Layer 1 (Fail)
//Storyboard Layer 2 (Pass)
//Storyboard Layer 3 (Foreground)
//Storyboard Sound Samples

[TimingPoints]
0,-100,4,2,5,30,0,0
2859.97407357773,444.444444444444,4,1,0,100,1,0
3740,-100,4,2,4,40,0,0
16963,-100,4,2,4,40,0,0
17926,-100,4,2,4,40,0,0
31185,-100,4,2,4,40,0,0
32157,-100,4,2,4,40,0,0
33037,-117.647058823529,4,2,4,40,0,0
33851,-142.857142857143,4,2,4,40,0,0
34077,-100,4,2,4,40,0,0
46370,-149.253731343284,4,2,4,40,0,0
52240,-149.253731343284,4,2,5,30,0,0

[Colours]
Combo1 : 243,63,145
Combo2 : 166,255,235

[HitObjects]
40,184,3748,6,0,P|72:82|173:51,1,220,0|8,3:0|0:0,0:0:0:0:
145,156,4415,1,0,0:0:0:0:
145,156,4637,2,0,P|205:160|253:132,1,110,0|0,3:0|0:0,0:0:0:0:
172,51,5082,1,8,0:0:0:0:
227,253,5304,1,0,0:0:0:0:
227,253,5526,5,0,3:0:0:0:
247,137,5748,1,0,0:0:0:0:
247,137,5971,1,8,0:0:0:0:
304,332,6193,1,0,0:0:0:0:
304,332,6304,1,0,0:0:0:0:
304,332,6415,6,0,P|260:360|188:360,1,110,0|0,3:0|0:0,0:0:0:0:
195,205,6859,1,8,0:0:0:0:
48,356,7082,1,0,0:0:0:0:
48,356,7193,1,0,0:0:0:0:
48,356,7304,6,0,P|24:296|52:220,1,110,0|0,3:0|0:0,0:0:0:0:
195,205,7748,2,0,P|167:253|109:291,1,110,8|0,0:0|0:0,0:0:0:0:
48,356,8193,2,0,P|24:296|52:220,1,110,0|0,3:0|0:0,0:0:0:0:
31,252,8526,5,0,0:0:0:0:
31,252,8637,1,8,0:0:0:0:
176,128,8859,1,0,0:0:0:0:
36,256,9082,1,0,3:0:0:0:
176,128,9304,1,0,0:0:0:0:
123,285,9526,1,8,0:0:0:0:
176,128,9748,1,0,0:0:0:0:
36,256,9971,5,0,3:0:0:0:
40,100,10193,1,0,0:0:0:0:
36,256,10415,1,8,0:0:0:0:
40,100,10637,1,0,0:0:0:0:
36,256,10859,6,0,P|96:340|224:356,1,220,0|8,3:0|0:0,0:0:0:0:
160,248,11526,1,0,0:0:0:0:
160,248,11748,2,0,P|216:240|288:272,1,110,0|0,3:0|0:0,0:0:0:0:
204,360,12193,1,8,0:0:0:0:
220,116,12415,6,0,P|328:136|416:208,1,220
264,252,13082,2,0,P|208:260|148:240,1,110,8|0,0:0|0:0,0:0:0:0:
220,116,13526,2,0,P|272:96|316:44,1,110,0|0,3:0|0:0,0:0:0:0:
474,172,13971,1,8,0:0:0:0:
264,252,14193,1,0,0:0:0:0:
264,252,14304,1,0,0:0:0:0:
264,252,14415,6,0,L|148:212,1,110,0|0,3:0|0:0,0:0:0:0:
256,120,14859,2,0,L|372:160,1,110,8|0,0:0|0:0,0:0:0:0:
264,252,15304,2,0,L|148:212,1,110,0|0,3:0|0:0,0:0:0:0:
160,216,15637,1,0,0:0:0:0:
160,216,15748,1,8,0:0:0:0:
256,120,15971,6,0,P|356:152|400:256,1,220
264,248,16637,2,0,L|345:166,1,110,8|0,0:0|0:0,0:0:0:0:
469,43,17082,1,0,3:0:0:0:
469,43,17193,1,0,0:0:0:0:
469,43,17304,1,0,0:0:0:0:
359,78,17526,1,8,0:0:0:0:
255,117,17748,1,0,0:0:0:0:
339,167,17971,6,0,P|301:265|191:308,1,220,0|8,3:0|0:0,0:0:0:0:
232,194,18637,1,0,0:0:0:0:
232,194,18859,2,0,P|178:175|101:196,1,110,0|0,3:0|0:0,0:0:0:0:
171,246,19304,1,8,0:0:0:0:
197,34,19526,6,0,P|301:63|385:155,1,220
339,0,20193,1,8,0:0:0:0:
262,134,20415,1,0,0:0:0:0:
346,0,20637,1,0,3:0:0:0:
377,141,20859,1,0,0:0:0:0:
346,0,21082,1,8,0:0:0:0:
262,134,21304,1,0,0:0:0:0:
262,134,21415,1,0,0:0:0:0:
262,134,21526,6,0,P|230:172|168:205,1,110,0|0,3:0|0:0,0:0:0:0:
174,94,21971,2,0,P|213:54|286:41,1,110,8|0,0:0|0:0,0:0:0:0:
262,134,22415,1,0,3:0:0:0:
161,0,22637,1,0,0:0:0:0:
161,0,22748,1,0,0:0:0:0:
161,0,22859,5,8,0:0:0:0:
91,159,23082,1,0,0:0:0:0:
262,134,23304,1,0,3:0:0:0:
75,60,23526,1,0,0:0:0:0:
181,178,23748,1,8,0:0:0:0:
254,44,23971,1,0,0:0:0:0:
91,159,24193,1,0,3:0:0:0:
254,44,24415,1,0,0:0:0:0:
94,155,24637,1,8,0:0:0:0:
254,44,24859,1,0,0:0:0:0:
181,178,25082,6,0,P|239:269|346:279,1,220,0|8,3:0|0:0,0:0:0:0:
305,162,25748,1,0,0:0:0:0:
305,162,25971,2,0,P|352:154|424:182,1,110,0|0,3:0|0:0,0:0:0:0:
364,47,26415,1,8,0:0:0:0:
344,271,26637,6,0,P|241:238|182:115,1,220
287,57,27304,2,0,P|309:107|295:181,1,110,8|0,0:0|0:0,0:0:0:0:
344,271,27748,2,0,P|293:265|231:227,1,110,0|0,3:0|0:0,0:0:0:0:
184,146,28193,1,8,0:0:0:0:
290,58,28415,1,0,0:0:0:0:
290,58,28526,1,0,0:0:0:0:
290,58,28637,6,0,L|349:163,1,110,0|0,3:0|0:0,0:0:0:0:
474,154,29082,2,0,L|415:49,1,110,8|0,0:0|0:0,0:0:0:0:
290,58,29526,2,0,L|349:163,1,110,0|0,3:0|0:0,0:0:0:0:
343,153,29859,1,0,0:0:0:0:
343,153,29971,1,8,0:0:0:0:
475,152,30193,6,0,P|423:61|279:71,1,220
202,142,30859,1,8,0:0:0:0:
348,159,31082,1,0,0:0:0:0:
465,62,31304,1,0,3:0:0:0:
465,62,31415,1,0,0:0:0:0:
465,62,31526,1,0,0:0:0:0:
450,166,31748,1,0,3:0:0:0:
437,263,31971,1,0,3:0:0:0:
344,157,32193,6,0,P|289:163|236:205,1,110,0|0,3:0|0:0,0:0:0:0:
277,320,32637,2,0,P|233:288|165:284,1,110,8|0,0:0|0:0,0:0:0:0:
151,193,33082,1,0,3:0:0:0:
123,110,33304,1,0,0:0:0:0:
100,29,33526,1,8,0:0:0:0:
151,193,33748,2,0,L|184:298,1,93.500001783371,0|0,0:0|3:0,0:0:0:0:
262,358,34193,1,0,0:0:0:0:
248,204,34415,2,0,P|306:219|347:275,1,110,8|0,0:0|0:0,0:0:0:0:
361,349,34859,6,0,P|410:323|434:257,1,110,0|0,3:0|0:0,0:0:0:0:
445,149,35304,1,8,0:0:0:0:
340,258,35526,1,0,0:0:0:0:
340,258,35748,2,0,L|250:182,1,110,0|0,3:0|0:0,0:0:0:0:
276,71,36193,2,0,L|370:151,1,110,8|0,0:0|0:0,0:0:0:0:
340,258,36637,1,0,3:0:0:0:
340,258,36859,2,0,P|291:278|211:265,1,110,0|8,0:0|0:0,0:0:0:0:
168,216,37304,5,0,0:0:0:0:
270,196,37526,1,0,3:0:0:0:
235,273,37748,1,0,0:0:0:0:
199,107,37971,1,8,0:0:0:0:
143,203,38193,1,0,0:0:0:0:
284,171,38415,1,0,3:0:0:0:
317,166,38526,1,0,0:0:0:0:
350,168,38637,1,0,0:0:0:0:
383,174,38748,1,0,0:0:0:0:
415,186,38859,1,8,0:0:0:0:
340,258,39082,5,0,0:0:0:0:
350,168,39304,2,0,L|359:34,1,110,0|0,3:0|0:0,0:0:0:0:
263,112,39748,2,0,L|253:232,1,110,8|0,0:0|0:0,0:0:0:0:
427,294,40193,1,0,3:0:0:0:
427,294,40637,5,8,0:0:0:0:
251,218,40859,1,0,0:0:0:0:
224,332,41081,1,0,3:0:0:0:
128,172,41303,1,0,0:0:0:0:
251,218,41525,1,8,0:0:0:0:
112,296,41748,1,0,0:0:0:0:
304,123,41971,1,0,3:0:0:0:
304,123,42415,6,0,P|293:173|243:221,1,110,8|0,0:0|0:0,0:0:0:0:
201,128,42859,2,0,P|156:104|89:113,1,110,0|0,3:0|0:0,0:0:0:0:
136,182,43304,2,0,L|109:291,1,110,8|0,0:0|0:0,0:0:0:0:
195,274,43748,2,0,P|223:316|284:345,1,110,0|0,3:0|0:0,0:0:0:0:
286,261,44193,1,8,0:0:0:0:
286,261,44415,5,0,0:0:0:0:
389,283,44637,1,0,3:0:0:0:
366,176,44859,1,0,0:0:0:0:
389,283,45082,1,8,0:0:0:0:
285,256,45304,1,0,0:0:0:0:
409,224,45526,1,0,3:0:0:0:
332,299,45749,1,0,0:0:0:0:
306,197,45971,1,8,0:0:0:0:
392,286,46193,1,0,0:0:0:0:
306,197,46415,6,0,L|275:162,4,36.8499982569123,0|0|0|0|0,3:0|0:0|0:0|0:0|0:0,0:0:0:0:
167,332,47082,1,0,3:0:0:0:
148,139,47526,1,0,3:0:0:0:
306,197,47971,1,0,3:0:0:0:
306,197,48193,6,0,L|338:165,4,36.8499982569123,0|0|0|0|0,3:0|0:0|0:0|0:0|0:0,0:0:0:0:
195,38,48860,1,0,3:0:0:0:
388,19,49304,1,0,3:0:0:0:
306,197,49748,1,0,3:0:0:0:
306,197,49971,6,0,L|340:232,4,36.8499982569123,0|0|0|0|0,3:0|0:0|0:0|0:0|0:0,0:0:0:0:
489,65,50637,1,0,3:0:0:0:
508,258,51082,1,0,3:0:0:0:
328,199,51526,5,0,3:0:0:0:
508,258,51971,5,0,3:0:0:0:
489,65,52193,5,0,3:0:0:0:
256,192,52304,12,0,55304,0:0:0:0:
