osu file format v14

[General]
AudioFilename: audio.mp3
AudioLeadIn: 0
PreviewTime: -1
Countdown: 0
SampleSet: Normal
StackLeniency: 0.7
Mode: 0
LetterboxInBreaks: 0
WidescreenStoryboard: 0

[Editor]
DistanceSpacing: 0.7
BeatDivisor: 4
GridSize: 4
TimelineZoom: 1

[Metadata]
Title:Moestep
TitleUnicode:Moestep
Artist:Moe Shop
ArtistUnicode:Moe Shop
Creator:- J E N -
Version:Moe
Source:
Tags:
BeatmapID:1234270
BeatmapSetID:583233

[Difficulty]
HPDrainRate:6
CircleSize:4
OverallDifficulty:8
ApproachRate:8
SliderMultiplier:1.4
SliderTickRate:1

[Events]
//Background and Video events
0,0,"anime-girls-hatsune-miku-moe-cute-anime-13395.png",0,0
//Break Periods
//Storyboard Layer 0 (Background)
//Storyboard Layer 1 (Fail)
//Storyboard Layer 2 (Pass)
//Storyboard Layer 3 (Foreground)
//Storyboard Sound Samples

[TimingPoints]
2797.25064578914,444.444444444444,4,1,0,100,1,0
2911.25064578914,-66.6666666666667,4,1,0,100,0,0

[HitObjects]
256,192,686,12,0,2463,0:0:0:0:
256,283,2797,5,0,3:0:0:0:
253,82,3019,1,0,3:0:0:0:
140,188,3241,1,0,3:0:0:0:
358,187,3463,1,0,3:0:0:0:
253,82,3686,6,0,B|185:74|184:73|187:73|187:73|146:140,1,105.000004005432,8|0,1:0|3:0,3:0:0:0:
249,284,4130,1,0,3:0:0:0:
414,175,4352,1,0,3:0:0:0:
414,175,4463,1,0,3:0:0:0:
414,175,4575,6,8,B|346:183|345:184|348:184|348:184|328:152,1,105.000004005432,8|8,0:0|2:0,0:0:0:0:
206,64,5019,1,0,2:0:0:0:
88,175,5241,2,0,L|175:246,1,105.000004005432,0|0,3:0|2:0,2:0:0:0:
206,64,5686,1,0,0:0:0:0:
55,209,5908,2,0,L|142:280,1,105.000004005432,0|0,3:0|2:0,2:0:0:0:
201,101,6352,5,8,0:0:0:0:
367,255,6575,1,8,0:0:0:0:
351,96,6797,1,8,0:0:0:0:
211,259,7019,1,8,0:0:0:0:
95,153,7241,6,0,B|104:97|104:97|157:82,1,105.000004005432,0|8,3:0|0:0,0:0:0:0:
363,153,7686,2,0,B|354:97|354:97|301:82,1,105.000004005432,0|8,3:0|0:0,0:0:0:0:
95,153,8130,2,0,B|104:97|104:97|157:82,1,105.000004005432,0|8,3:0|0:0,0:0:0:0:
285,214,8575,1,8,0:0:0:0:
449,178,8797,1,8,0:0:0:0:
250,220,9019,1,8,0:0:0:0:
483,169,9241,1,8,0:0:0:0:
298,72,9463,1,8,0:0:0:0:
168,92,9686,6,0,B|96:113|96:113|90:158,1,105.000004005432,0|0,3:0|3:0,0:0:0:0:
257,289,10130,1,0,3:0:0:0:
258,77,10352,1,8,2:0:0:0:
422,196,10575,1,0,3:0:0:0:
242,208,10797,6,0,B|194:256|194:256|236:305,1,105.000004005432,0|0,3:0|3:0,3:0:0:0:
377,152,11241,1,8,0:0:0:0:
218,46,11463,1,0,3:0:0:0:
218,46,11575,1,0,3:0:0:0:
218,46,11686,2,0,B|144:59|144:59|127:102,1,105.000004005432,0|8,3:0|0:0,0:0:0:0:
249,255,12130,1,8,0:0:0:0:
391,128,12352,6,0,L|429:238,1,105.000004005432,0|0,2:0|0:0,0:0:0:0:
258,61,12797,1,8,1:0:0:0:
115,253,13019,2,0,L|153:143,1,105.000004005432,0|0,2:0|2:0,2:0:0:0:
308,114,13463,5,8,0:0:0:0:
473,276,13686,1,8,0:0:0:0:
258,252,13908,1,8,0:0:0:0:
440,83,14130,1,8,0:0:0:0:
202,85,14352,6,0,B|145:94|145:94|135:150,1,105.000004005432,0|8,1:0|0:0,1:0:0:0:
331,127,14797,2,0,B|356:178|356:178|316:219,1,105.000004005432,0|8,1:0|0:0,0:0:0:0:
202,85,15241,2,0,B|145:94|145:94|135:150,1,105.000004005432,0|8,1:0|0:0,0:0:0:0:
270,273,15686,1,8,2:0:0:0:
404,171,15908,2,0,B|401:111|401:111|357:87,1,105.000004005432,0|0,3:0|3:0,3:0:0:0:
174,95,16352,2,0,B|135:117|135:117|132:177,1,105.000004005432,0|0,3:0|3:0,3:0:0:0:
246,286,16797,1,0,3:0:0:0:
386,202,17019,5,8,2:0:0:0:
383,169,17130,1,8,2:0:0:0:
371,135,17241,1,8,2:0:0:0:
355,110,17352,1,8,2:0:0:0:
335,84,17463,2,0,B|299:54|299:54|232:78,1,105.000004005432,0|0,3:0|3:0,3:0:0:0:
128,203,17908,6,0,B|138:265|138:265|216:296,1,105.000004005432,0|0,3:0|3:0,3:0:0:0:
313,96,18352,1,8,0:0:0:0:
432,296,18574,1,0,3:0:0:0:
432,296,18686,1,0,3:0:0:0:
432,296,18797,6,0,B|369:302|369:302|319:235,1,105.000004005432,0|8,3:0|0:0,0:0:0:0:
239,80,19241,1,8,1:0:0:0:
117,186,19463,2,0,B|105:243|105:243|161:266,1,105.000004005432,0|0,3:0|3:0,3:0:0:0:
239,80,19908,1,8,0:0:0:0:
346,249,20130,2,0,B|394:217|394:217|371:161,1,105.000004005432,0|0,3:0|3:0,3:0:0:0:
239,80,20575,5,0,0:0:0:0:
23,204,20797,1,8,0:0:0:0:
254,261,21019,1,8,0:0:0:0:
83,87,21241,1,8,0:0:0:0:
90,264,21463,6,0,B|143:306|143:306|193:282,1,105.000004005432,0|0,3:0|3:0,3:0:0:0:
199,121,21908,2,0,B|258:153|258:153|255:208,1,105.000004005432,0|0,3:0|3:0,3:0:0:0:
90,264,22352,2,0,B|143:306|143:306|193:282,1,105.000004005432,0|0,3:0|3:0,3:0:0:0:
222,138,22797,1,8,0:0:0:0:
377,93,23019,5,8,0:0:0:0:
345,289,23241,1,8,0:0:0:0:
466,141,23463,1,8,0:0:0:0:
294,181,23686,1,8,0:0:0:0:
468,269,23908,1,8,0:0:0:0:
377,93,24130,6,0,B|358:44|358:44|281:54,1,105.000004005432,0|0,3:0|3:0,3:0:0:0:
222,138,24575,2,0,B|241:187|241:187|318:177,1,105.000004005432,0|0,3:0|3:0,3:0:0:0:
433,62,25019,5,0,3:0:0:0:
401,231,25241,2,0,B|353:279|353:279|287:242,1,105.000004005432,8|0,0:0|3:0,3:0:0:0:
201,87,25686,1,8,2:0:0:0:
201,87,25797,1,8,2:0:0:0:
201,87,25908,2,0,B|137:110|137:110|144:186,1,105.000004005432,0|8,3:0|0:0,3:0:0:0:
320,260,26352,1,8,1:0:0:0:
313,90,26575,6,0,B|280:40|280:40|204:73,1,105.000004005432,0|0,3:0|3:0,3:0:0:0:
152,215,27019,2,0,B|164:258|164:258|224:251,1,105.000004005432,0|0,3:0|3:0,3:0:0:0:
336,54,27463,1,8,0:0:0:0:
461,184,27686,2,0,B|450:238|450:238|386:276,1,105.000004005432,0|0,3:0|3:0,3:0:0:0:
234,297,28130,2,0,B|288:326|288:326|368:319,1,105.000004005432,0|0,3:0|3:0,3:0:0:0:
350,88,28575,5,8,2:0:0:0:
173,57,28797,1,8,2:0:0:0:
137,237,29019,1,8,2:0:0:0:
330,264,29241,1,8,2:0:0:0:
412,125,29463,2,0,B|379:78|379:78|317:84,2,105.000004005432,8|0|8,2:0|3:0|2:0,3:0:0:0:
268,197,30130,2,0,B|275:243|275:243|329:263,1,105.000004005432,8|0,2:0|3:0,3:0:0:0:
378,70,30575,1,8,0:0:0:0:
215,58,30797,5,8,2:0:0:0:
187,72,30908,1,8,2:0:0:0:
161,89,31019,1,8,2:0:0:0:
138,108,31130,1,8,2:0:0:0:
111,130,31241,2,0,B|73:174|73:174|114:222,1,105.000004005432,0|0,3:0|3:0,3:0:0:0:
252,177,31686,2,0,B|290:221|290:221|249:269,1,105.000004005432,0|0,3:0|3:0,3:0:0:0:
