osu file format v14

[General]
AudioFilename: audio.mp3
AudioLeadIn: 0
PreviewTime: -1
Countdown: 0
SampleSet: Soft
StackLeniency: 0.7
Mode: 3
LetterboxInBreaks: 0
SpecialStyle: 0
WidescreenStoryboard: 0

[Editor]
Bookmarks: 8807,26261,43716,61170,65534,82989,91716
DistanceSpacing: 0.8
BeatDivisor: 8
GridSize: 8
TimelineZoom: 1.4

[Metadata]
Title:Love Taste (w/ Jamie Paige & Shiki) (Cut Ver.)
TitleUnicode:Love Taste (w/ Jamie Paige & Shiki) (Cut Ver.)
Artist:Moe Shop
ArtistUnicode:Moe Shop
Creator:zero2snow
Version:Sweet (NSV)
Source:
Tags:sv ruleblazing TMNS megpoid GUMI グミ vocaloid pop hip hop hiphop rap electronic english 4DM2 z2s
BeatmapID:2326953
BeatmapSetID:1113833

[Difficulty]
HPDrainRate:7
CircleSize:4
OverallDifficulty:7
ApproachRate:5
SliderMultiplier:1.4
SliderTickRate:1

[Events]
//Background and Video events
0,0,"cover.JPG",0,0
//Break Periods
//Storyboard Layer 0 (Background)
//Storyboard Layer 1 (Fail)
//Storyboard Layer 2 (Pass)
//Storyboard Layer 3 (Foreground)
//Storyboard Layer 4 (Overlay)
//Storyboard Sound Samples

[TimingPoints]
80,545.454545454546,4,2,0,20,1,0
109170,681.818181818182,4,2,0,20,1,0
130988,545.454545454546,4,2,0,20,1,0

[HitObjects]
448,192,80,5,0,0:0:0:0:
320,192,80,1,0,0:0:0:0:
64,192,352,1,0,0:0:0:0:
448,192,534,1,0,0:0:0:0:
320,192,625,1,0,0:0:0:0:
192,192,625,1,0,0:0:0:0:
64,192,625,1,0,0:0:0:0:
448,192,807,1,0,0:0:0:0:
192,192,898,1,0,0:0:0:0:
448,192,1170,1,0,0:0:0:0:
320,192,1170,1,0,0:0:0:0:
64,192,1443,1,0,0:0:0:0:
448,192,1625,1,0,0:0:0:0:
64,192,1716,1,0,0:0:0:0:
320,192,1716,1,0,0:0:0:0:
192,192,1716,1,0,0:0:0:0:
448,192,1898,1,0,0:0:0:0:
192,192,1989,1,0,0:0:0:0:
320,192,2261,1,0,0:0:0:0:
448,192,2261,1,0,0:0:0:0:
64,192,2534,1,0,0:0:0:0:
448,192,2716,1,0,0:0:0:0:
192,192,2807,1,0,0:0:0:0:
320,192,2807,1,0,0:0:0:0:
64,192,2807,1,0,0:0:0:0:
448,192,2989,1,0,0:0:0:0:
192,192,3080,1,0,0:0:0:0:
448,192,3352,1,0,0:0:0:0:
320,192,3352,1,0,0:0:0:0:
64,192,3625,1,0,0:0:0:0:
448,192,3807,1,0,0:0:0:0:
320,192,3898,1,0,0:0:0:0:
192,192,3898,128,0,4443:0:0:0:0:
64,192,3898,128,0,4443:0:0:0:0:
320,192,4443,1,0,0:0:0:0:
448,192,4443,1,0,0:0:0:0:
64,192,4716,1,0,0:0:0:0:
448,192,4898,1,0,0:0:0:0:
192,192,4989,1,0,0:0:0:0:
320,192,4989,1,0,0:0:0:0:
64,192,4989,1,0,0:0:0:0:
448,192,5170,1,0,0:0:0:0:
192,192,5261,1,0,0:0:0:0:
448,192,5534,1,0,0:0:0:0:
320,192,5534,1,0,0:0:0:0:
64,192,5807,1,0,0:0:0:0:
448,192,5989,1,0,0:0:0:0:
64,192,6080,1,0,0:0:0:0:
320,192,6080,1,0,0:0:0:0:
192,192,6080,1,0,0:0:0:0:
448,192,6261,1,0,0:0:0:0:
192,192,6352,1,0,0:0:0:0:
320,192,6625,1,0,0:0:0:0:
448,192,6625,1,0,0:0:0:0:
64,192,6898,1,0,0:0:0:0:
448,192,7080,1,0,0:0:0:0:
192,192,7170,1,0,0:0:0:0:
320,192,7170,1,0,0:0:0:0:
64,192,7170,1,0,0:0:0:0:
448,192,7352,1,0,0:0:0:0:
192,192,7443,1,0,0:0:0:0:
320,192,7716,1,0,0:0:0:0:
192,192,7716,1,0,0:0:0:0:
192,192,7989,1,0,0:0:0:0:
320,192,7989,1,0,0:0:0:0:
192,192,8261,1,0,0:0:0:0:
320,192,8261,1,0,0:0:0:0:
192,192,8534,1,0,0:0:0:0:
320,192,8534,1,0,0:0:0:0:
320,192,8807,1,0,0:0:0:0:
448,192,8807,1,0,0:0:0:0:
64,192,9080,1,0,0:0:0:0:
448,192,9261,1,0,0:0:0:0:
64,192,9352,1,0,0:0:0:0:
320,192,9352,1,0,0:0:0:0:
192,192,9352,1,0,0:0:0:0:
448,192,9534,1,0,0:0:0:0:
192,192,9625,1,0,0:0:0:0:
320,192,9898,1,0,0:0:0:0:
448,192,9898,1,0,0:0:0:0:
64,192,10170,1,0,0:0:0:0:
448,192,10352,1,0,0:0:0:0:
192,192,10443,1,0,0:0:0:0:
320,192,10443,1,0,0:0:0:0:
64,192,10443,1,0,0:0:0:0:
448,192,10625,1,0,0:0:0:0:
192,192,10716,128,0,10989:0:0:0:0:
320,192,10716,128,0,10989:0:0:0:0:
448,192,10989,1,0,0:0:0:0:
64,192,11261,1,0,0:0:0:0:
448,192,11443,1,0,0:0:0:0:
64,192,11534,1,0,0:0:0:0:
320,192,11534,1,0,0:0:0:0:
192,192,11534,1,0,0:0:0:0:
448,192,11716,1,0,0:0:0:0:
192,192,11807,1,0,0:0:0:0:
320,192,12080,1,0,0:0:0:0:
448,192,12080,1,0,0:0:0:0:
64,192,12352,1,0,0:0:0:0:
448,192,12534,1,0,0:0:0:0:
320,192,12625,1,0,0:0:0:0:
192,192,12625,128,0,13170:0:0:0:0:
64,192,12625,128,0,13170:0:0:0:0:
448,192,13170,1,0,0:0:0:0:
320,192,13170,1,0,0:0:0:0:
64,192,13443,1,0,0:0:0:0:
448,192,13625,1,0,0:0:0:0:
64,192,13716,1,0,0:0:0:0:
320,192,13716,1,0,0:0:0:0:
192,192,13716,1,0,0:0:0:0:
448,192,13898,1,0,0:0:0:0:
192,192,13989,1,0,0:0:0:0:
320,192,14261,1,0,0:0:0:0:
448,192,14261,1,0,0:0:0:0:
64,192,14534,1,0,0:0:0:0:
448,192,14716,1,0,0:0:0:0:
192,192,14807,1,0,0:0:0:0:
320,192,14807,1,0,0:0:0:0:
64,192,14807,1,0,0:0:0:0:
448,192,14989,1,0,0:0:0:0:
192,192,15080,128,0,15352:0:0:0:0:
320,192,15080,128,0,15352:0:0:0:0:
448,192,15352,1,0,0:0:0:0:
64,192,15352,1,0,0:0:0:0:
192,192,15625,128,0,15898:0:0:0:0:
320,192,15625,128,0,15898:0:0:0:0:
64,192,15898,1,0,0:0:0:0:
448,192,15898,1,0,0:0:0:0:
192,192,16034,128,0,16307:0:0:0:0:
320,192,16034,128,0,16307:0:0:0:0:
448,192,16307,1,0,0:0:0:0:
64,192,16307,1,0,0:0:0:0:
192,192,16443,1,0,0:0:0:0:
320,192,16443,1,0,0:0:0:0:
448,192,16989,128,0,17534:0:0:0:0:
320,192,16989,128,0,17534:0:0:0:0:
192,192,16989,1,0,0:0:0:0:
192,192,17534,1,0,0:0:0:0:
64,192,17534,1,0,0:0:0:0:
448,192,17807,1,0,0:0:0:0:
64,192,17989,1,0,0:0:0:0:
320,192,18080,1,0,0:0:0:0:
192,192,18080,1,0,0:0:0:0:
448,192,18080,1,0,0:0:0:0:
64,192,18261,1,0,0:0:0:0:
320,192,18352,1,0,0:0:0:0:
192,192,18625,1,0,0:0:0:0:
64,192,18625,1,0,0:0:0:0:
448,192,18898,1,0,0:0:0:0:
64,192,19080,1,0,0:0:0:0:
320,192,19170,1,0,0:0:0:0:
192,192,19170,1,0,0:0:0:0:
448,192,19170,1,0,0:0:0:0:
64,192,19352,1,0,0:0:0:0:
192,192,19443,128,0,19716:0:0:0:0:
320,192,19443,128,0,19716:0:0:0:0:
64,192,19716,1,0,0:0:0:0:
448,192,19989,1,0,0:0:0:0:
64,192,20170,1,0,0:0:0:0:
448,192,20261,1,0,0:0:0:0:
192,192,20261,1,0,0:0:0:0:
320,192,20261,1,0,0:0:0:0:
64,192,20443,1,0,0:0:0:0:
320,192,20534,1,0,0:0:0:0:
192,192,20807,1,0,0:0:0:0:
64,192,20807,1,0,0:0:0:0:
448,192,21080,1,0,0:0:0:0:
64,192,21261,1,0,0:0:0:0:
192,192,21352,1,0,0:0:0:0:
320,192,21352,128,0,21898:0:0:0:0:
448,192,21352,128,0,21898:0:0:0:0:
64,192,21898,1,0,0:0:0:0:
192,192,21898,1,0,0:0:0:0:
448,192,22170,1,0,0:0:0:0:
64,192,22352,1,0,0:0:0:0:
448,192,22443,1,0,0:0:0:0:
192,192,22443,1,0,0:0:0:0:
320,192,22443,1,0,0:0:0:0:
64,192,22625,1,0,0:0:0:0:
320,192,22716,1,0,0:0:0:0:
192,192,22989,1,0,0:0:0:0:
64,192,22989,1,0,0:0:0:0:
448,192,23261,1,0,0:0:0:0:
64,192,23443,1,0,0:0:0:0:
320,192,23534,1,0,0:0:0:0:
192,192,23534,1,0,0:0:0:0:
448,192,23534,1,0,0:0:0:0:
64,192,23716,1,0,0:0:0:0:
320,192,23807,1,0,0:0:0:0:
64,192,24080,1,0,0:0:0:0:
448,192,24080,1,0,0:0:0:0:
192,192,24352,1,0,0:0:0:0:
320,192,24489,1,0,0:0:0:0:
448,192,24625,1,0,0:0:0:0:
64,192,24625,1,0,0:0:0:0:
192,192,24807,1,0,0:0:0:0:
192,192,24989,1,0,0:0:0:0:
320,192,25170,1,0,0:0:0:0:
448,192,25170,1,0,0:0:0:0:
192,192,25307,1,0,0:0:0:0:
64,192,25307,1,0,0:0:0:0:
448,192,25443,1,0,0:0:0:0:
64,192,25443,1,0,0:0:0:0:
448,192,25716,128,0,26261:0:0:0:0:
320,192,25716,128,0,26261:0:0:0:0:
64,192,25716,1,0,0:0:0:0:
192,192,26261,1,0,0:0:0:0:
64,192,26261,1,0,0:0:0:0:
448,192,26534,1,0,0:0:0:0:
64,192,26716,1,0,0:0:0:0:
192,192,26807,1,0,0:0:0:0:
320,192,26807,1,0,0:0:0:0:
448,192,26807,1,0,0:0:0:0:
64,192,26989,1,0,0:0:0:0:
320,192,27080,1,0,0:0:0:0:
192,192,27352,1,0,0:0:0:0:
64,192,27352,1,0,0:0:0:0:
320,192,27625,128,0,27898:0:0:0:0:
64,192,27898,128,0,28170:0:0:0:0:
448,192,27898,1,0,0:0:0:0:
192,192,28080,1,0,0:0:0:0:
448,192,28170,128,0,28443:0:0:0:0:
320,192,28170,128,0,28443:0:0:0:0:
192,192,28443,1,0,0:0:0:0:
64,192,28443,1,0,0:0:0:0:
448,192,28716,1,0,0:0:0:0:
64,192,28898,1,0,0:0:0:0:
192,192,28989,1,0,0:0:0:0:
320,192,28989,1,0,0:0:0:0:
448,192,28989,1,0,0:0:0:0:
64,192,29170,1,0,0:0:0:0:
320,192,29261,1,0,0:0:0:0:
64,192,29534,1,0,0:0:0:0:
192,192,29534,1,0,0:0:0:0:
448,192,29807,1,0,0:0:0:0:
64,192,29989,1,0,0:0:0:0:
192,192,30080,1,0,0:0:0:0:
320,192,30080,128,0,30625:0:0:0:0:
448,192,30080,128,0,30625:0:0:0:0:
192,192,30625,1,0,0:0:0:0:
64,192,30625,1,0,0:0:0:0:
448,192,30898,1,0,0:0:0:0:
64,192,31080,1,0,0:0:0:0:
192,192,31170,1,0,0:0:0:0:
320,192,31170,1,0,0:0:0:0:
448,192,31170,1,0,0:0:0:0:
64,192,31352,1,0,0:0:0:0:
320,192,31443,1,0,0:0:0:0:
64,192,31716,1,0,0:0:0:0:
192,192,31716,1,0,0:0:0:0:
448,192,31989,128,0,32261:0:0:0:0:
64,192,32261,128,0,32534:0:0:0:0:
192,192,32261,1,0,0:0:0:0:
448,192,32443,1,0,0:0:0:0:
192,192,32534,128,0,32807:0:0:0:0:
320,192,32534,128,0,32807:0:0:0:0:
64,192,32807,1,0,0:0:0:0:
448,192,32807,1,0,0:0:0:0:
192,192,33080,128,0,33352:0:0:0:0:
320,192,33080,128,0,33352:0:0:0:0:
64,192,33352,1,0,0:0:0:0:
448,192,33352,1,0,0:0:0:0:
192,192,33489,128,0,33761:0:0:0:0:
320,192,33489,128,0,33761:0:0:0:0:
448,192,33761,1,0,0:0:0:0:
64,192,33761,1,0,0:0:0:0:
192,192,33898,1,0,0:0:0:0:
320,192,33898,1,0,0:0:0:0:
64,192,34443,128,0,34989:0:0:0:0:
192,192,34443,128,0,34989:0:0:0:0:
320,192,34443,1,0,0:0:0:0:
320,192,34989,1,0,0:0:0:0:
448,192,34989,1,0,0:0:0:0:
64,192,35261,1,0,0:0:0:0:
448,192,35443,1,0,0:0:0:0:
64,192,35534,1,0,0:0:0:0:
192,192,35534,1,0,0:0:0:0:
320,192,35534,1,0,0:0:0:0:
448,192,35716,1,0,0:0:0:0:
192,192,35807,1,0,0:0:0:0:
448,192,36080,1,0,0:0:0:0:
320,192,36080,1,0,0:0:0:0:
192,192,36352,128,0,36625:0:0:0:0:
64,192,36625,1,0,0:0:0:0:
448,192,36625,128,0,36898:0:0:0:0:
320,192,36807,1,0,0:0:0:0:
192,192,36898,128,0,37170:0:0:0:0:
64,192,36898,128,0,37170:0:0:0:0:
320,192,37170,1,0,0:0:0:0:
448,192,37170,1,0,0:0:0:0:
64,192,37443,1,0,0:0:0:0:
448,192,37625,1,0,0:0:0:0:
64,192,37716,1,0,0:0:0:0:
192,192,37716,1,0,0:0:0:0:
320,192,37716,1,0,0:0:0:0:
448,192,37898,1,0,0:0:0:0:
192,192,37989,1,0,0:0:0:0:
320,192,38261,1,0,0:0:0:0:
448,192,38261,1,0,0:0:0:0:
64,192,38534,1,0,0:0:0:0:
448,192,38716,1,0,0:0:0:0:
64,192,38807,128,0,39352:0:0:0:0:
192,192,38807,128,0,39352:0:0:0:0:
320,192,38807,1,0,0:0:0:0:
448,192,39352,1,0,0:0:0:0:
320,192,39352,1,0,0:0:0:0:
64,192,39625,1,0,0:0:0:0:
448,192,39807,1,0,0:0:0:0:
64,192,39898,1,0,0:0:0:0:
192,192,39898,1,0,0:0:0:0:
320,192,39898,1,0,0:0:0:0:
448,192,40080,1,0,0:0:0:0:
192,192,40170,1,0,0:0:0:0:
448,192,40443,1,0,0:0:0:0:
320,192,40443,1,0,0:0:0:0:
192,192,40716,1,0,0:0:0:0:
448,192,40898,1,0,0:0:0:0:
320,192,40989,1,0,0:0:0:0:
192,192,40989,1,0,0:0:0:0:
64,192,40989,1,0,0:0:0:0:
192,192,41534,1,0,0:0:0:0:
64,192,41534,128,0,41807:0:0:0:0:
448,192,41807,128,0,42080:0:0:0:0:
64,192,42080,128,0,42352:0:0:0:0:
192,192,42080,1,0,0:0:0:0:
448,192,42352,128,0,42625:0:0:0:0:
192,192,42625,1,0,0:0:0:0:
64,192,42625,1,0,0:0:0:0:
320,192,42761,1,0,0:0:0:0:
320,192,43034,1,0,0:0:0:0:
64,192,43170,128,0,43716:0:0:0:0:
192,192,43170,128,0,43716:0:0:0:0:
448,192,43170,1,0,0:0:0:0:
320,192,43716,128,0,43989:0:0:0:0:
448,192,43716,128,0,43989:0:0:0:0:
64,192,43989,1,0,0:0:0:0:
192,192,44125,1,0,0:0:0:0:
320,192,44261,128,0,44534:0:0:0:0:
448,192,44261,128,0,44534:0:0:0:0:
64,192,44534,1,0,0:0:0:0:
192,192,44670,1,0,0:0:0:0:
448,192,44807,1,0,0:0:0:0:
320,192,44807,1,0,0:0:0:0:
192,192,44943,1,0,0:0:0:0:
448,192,45080,1,0,0:0:0:0:
320,192,45352,1,0,0:0:0:0:
64,192,45352,1,0,0:0:0:0:
192,192,45489,1,0,0:0:0:0:
448,192,45625,128,0,45898:0:0:0:0:
320,192,45625,128,0,45898:0:0:0:0:
192,192,45898,1,0,0:0:0:0:
64,192,45898,1,0,0:0:0:0:
320,192,46170,1,0,0:0:0:0:
192,192,46307,1,0,0:0:0:0:
320,192,46443,1,0,0:0:0:0:
448,192,46443,1,0,0:0:0:0:
192,192,46716,1,0,0:0:0:0:
320,192,46852,1,0,0:0:0:0:
64,192,46989,1,0,0:0:0:0:
192,192,46989,1,0,0:0:0:0:
320,192,47261,1,0,0:0:0:0:
448,192,47398,1,0,0:0:0:0:
192,192,47534,128,0,48080:0:0:0:0:
64,192,47534,128,0,48080:0:0:0:0:
320,192,47534,1,0,0:0:0:0:
320,192,48080,128,0,48352:0:0:0:0:
448,192,48080,128,0,48352:0:0:0:0:
64,192,48352,1,0,0:0:0:0:
192,192,48489,1,0,0:0:0:0:
448,192,48625,1,0,0:0:0:0:
320,192,48625,1,0,0:0:0:0:
64,192,48761,1,0,0:0:0:0:
320,192,48898,1,0,0:0:0:0:
64,192,49170,1,0,0:0:0:0:
448,192,49170,1,0,0:0:0:0:
192,192,49443,1,0,0:0:0:0:
320,192,49580,1,0,0:0:0:0:
64,192,49716,1,0,0:0:0:0:
192,192,49716,1,0,0:0:0:0:
448,192,49852,1,0,0:0:0:0:
320,192,49989,128,0,50261:0:0:0:0:
192,192,49989,128,0,50261:0:0:0:0:
64,192,50261,1,0,0:0:0:0:
448,192,50261,1,0,0:0:0:0:
320,192,50534,128,0,50807:0:0:0:0:
192,192,50534,128,0,50807:0:0:0:0:
448,192,50807,1,0,0:0:0:0:
64,192,50807,1,0,0:0:0:0:
320,192,50943,128,0,51216:0:0:0:0:
192,192,50943,128,0,51216:0:0:0:0:
64,192,51216,1,0,0:0:0:0:
448,192,51216,1,0,0:0:0:0:
320,192,51352,1,0,0:0:0:0:
192,192,51352,1,0,0:0:0:0:
192,192,51898,1,0,0:0:0:0:
320,192,51898,128,0,52443:0:0:0:0:
448,192,51898,128,0,52443:0:0:0:0:
192,192,52443,128,0,52716:0:0:0:0:
64,192,52443,128,0,52716:0:0:0:0:
448,192,52716,1,0,0:0:0:0:
320,192,52852,1,0,0:0:0:0:
192,192,52989,128,0,53261:0:0:0:0:
64,192,52989,128,0,53261:0:0:0:0:
448,192,53261,1,0,0:0:0:0:
320,192,53398,1,0,0:0:0:0:
64,192,53534,1,0,0:0:0:0:
192,192,53534,1,0,0:0:0:0:
320,192,53670,1,0,0:0:0:0:
64,192,53807,1,0,0:0:0:0:
192,192,54080,1,0,0:0:0:0:
448,192,54080,1,0,0:0:0:0:
320,192,54216,1,0,0:0:0:0:
64,192,54352,128,0,54625:0:0:0:0:
192,192,54352,128,0,54625:0:0:0:0:
320,192,54625,1,0,0:0:0:0:
448,192,54625,1,0,0:0:0:0:
192,192,54898,1,0,0:0:0:0:
320,192,55034,1,0,0:0:0:0:
192,192,55170,1,0,0:0:0:0:
64,192,55170,1,0,0:0:0:0:
320,192,55443,1,0,0:0:0:0:
192,192,55580,1,0,0:0:0:0:
448,192,55716,1,0,0:0:0:0:
320,192,55716,1,0,0:0:0:0:
192,192,55989,1,0,0:0:0:0:
64,192,56125,1,0,0:0:0:0:
320,192,56261,128,0,56807:0:0:0:0:
448,192,56261,128,0,56807:0:0:0:0:
192,192,56261,1,0,0:0:0:0:
192,192,56807,128,0,57080:0:0:0:0:
64,192,56807,128,0,57080:0:0:0:0:
448,192,57080,1,0,0:0:0:0:
320,192,57216,1,0,0:0:0:0:
64,192,57352,1,0,0:0:0:0:
192,192,57352,1,0,0:0:0:0:
448,192,57489,1,0,0:0:0:0:
192,192,57625,5,0,0:0:0:0:
448,192,57898,1,0,0:0:0:0:
64,192,57898,1,0,0:0:0:0:
320,192,58170,1,0,0:0:0:0:
192,192,58307,1,0,0:0:0:0:
448,192,58443,1,0,0:0:0:0:
320,192,58443,1,0,0:0:0:0:
64,192,58580,1,0,0:0:0:0:
192,192,58716,128,0,58989:0:0:0:0:
320,192,58716,128,0,58989:0:0:0:0:
448,192,58989,1,0,0:0:0:0:
64,192,58989,1,0,0:0:0:0:
192,192,59261,128,0,59534:0:0:0:0:
320,192,59261,128,0,59534:0:0:0:0:
64,192,59534,1,0,0:0:0:0:
448,192,59534,1,0,0:0:0:0:
192,192,59670,128,0,59943:0:0:0:0:
320,192,59670,128,0,59943:0:0:0:0:
448,192,59943,1,0,0:0:0:0:
64,192,59943,1,0,0:0:0:0:
192,192,60080,1,0,0:0:0:0:
320,192,60080,1,0,0:0:0:0:
448,192,60352,1,0,0:0:0:0:
64,192,60625,1,0,0:0:0:0:
448,192,60898,1,0,0:0:0:0:
64,192,61170,128,0,61443:0:0:0:0:
320,192,61443,1,0,0:0:0:0:
192,192,61580,1,0,0:0:0:0:
448,192,61716,128,0,61989:0:0:0:0:
192,192,61989,1,0,0:0:0:0:
320,192,62125,1,0,0:0:0:0:
64,192,62261,128,0,62534:0:0:0:0:
320,192,62534,1,0,0:0:0:0:
192,192,62670,1,0,0:0:0:0:
448,192,62807,128,0,63080:0:0:0:0:
192,192,63080,1,0,0:0:0:0:
320,192,63216,1,0,0:0:0:0:
64,192,63352,128,0,63625:0:0:0:0:
192,192,63625,1,0,0:0:0:0:
320,192,63761,1,0,0:0:0:0:
448,192,63898,128,0,64170:0:0:0:0:
320,192,64170,1,0,0:0:0:0:
192,192,64307,1,0,0:0:0:0:
64,192,64443,128,0,64716:0:0:0:0:
192,192,64716,1,0,0:0:0:0:
320,192,64852,1,0,0:0:0:0:
448,192,64989,128,0,65534:0:0:0:0:
64,192,65534,128,0,65807:0:0:0:0:
192,192,65534,128,0,65807:0:0:0:0:
448,192,65807,1,0,0:0:0:0:
320,192,65943,1,0,0:0:0:0:
64,192,66080,128,0,66352:0:0:0:0:
192,192,66080,128,0,66352:0:0:0:0:
320,192,66352,1,0,0:0:0:0:
448,192,66489,1,0,0:0:0:0:
192,192,66625,1,0,0:0:0:0:
64,192,66625,1,0,0:0:0:0:
320,192,66898,1,0,0:0:0:0:
448,192,66898,1,0,0:0:0:0:
192,192,67034,1,0,0:0:0:0:
64,192,67170,1,0,0:0:0:0:
448,192,67170,1,0,0:0:0:0:
320,192,67307,1,0,0:0:0:0:
192,192,67443,1,0,0:0:0:0:
448,192,67580,1,0,0:0:0:0:
192,192,67716,128,0,67989:0:0:0:0:
64,192,67716,128,0,67989:0:0:0:0:
448,192,67989,1,0,0:0:0:0:
320,192,68125,1,0,0:0:0:0:
192,192,68261,128,0,68534:0:0:0:0:
64,192,68261,128,0,68534:0:0:0:0:
320,192,68534,1,0,0:0:0:0:
448,192,68534,1,0,0:0:0:0:
192,192,68807,128,0,69080:0:0:0:0:
64,192,68807,128,0,69080:0:0:0:0:
448,192,69080,1,0,0:0:0:0:
320,192,69216,1,0,0:0:0:0:
192,192,69352,128,0,69898:0:0:0:0:
64,192,69352,128,0,69898:0:0:0:0:
448,192,69352,1,0,0:0:0:0:
320,192,69898,128,0,70170:0:0:0:0:
448,192,69898,128,0,70170:0:0:0:0:
64,192,70170,1,0,0:0:0:0:
192,192,70307,1,0,0:0:0:0:
448,192,70443,128,0,70716:0:0:0:0:
320,192,70443,128,0,70716:0:0:0:0:
192,192,70716,1,0,0:0:0:0:
64,192,70852,1,0,0:0:0:0:
320,192,70989,1,0,0:0:0:0:
448,192,70989,1,0,0:0:0:0:
192,192,71261,1,0,0:0:0:0:
64,192,71261,1,0,0:0:0:0:
320,192,71398,1,0,0:0:0:0:
448,192,71534,1,0,0:0:0:0:
64,192,71534,1,0,0:0:0:0:
192,192,71670,1,0,0:0:0:0:
320,192,71807,1,0,0:0:0:0:
192,192,71943,1,0,0:0:0:0:
320,192,72080,128,0,72352:0:0:0:0:
448,192,72080,128,0,72352:0:0:0:0:
64,192,72352,1,0,0:0:0:0:
192,192,72489,1,0,0:0:0:0:
320,192,72625,128,0,72898:0:0:0:0:
448,192,72625,128,0,72898:0:0:0:0:
192,192,72898,1,0,0:0:0:0:
64,192,72898,1,0,0:0:0:0:
192,192,73170,1,0,0:0:0:0:
320,192,73170,1,0,0:0:0:0:
192,192,73443,1,0,0:0:0:0:
320,192,73443,1,0,0:0:0:0:
320,192,73716,128,0,74261:0:0:0:0:
448,192,73716,128,0,74261:0:0:0:0:
64,192,73716,1,0,0:0:0:0:
64,192,74261,128,0,74534:0:0:0:0:
192,192,74261,128,0,74534:0:0:0:0:
448,192,74534,1,0,0:0:0:0:
320,192,74670,1,0,0:0:0:0:
64,192,74807,128,0,75080:0:0:0:0:
192,192,74807,128,0,75080:0:0:0:0:
320,192,75080,1,0,0:0:0:0:
448,192,75216,1,0,0:0:0:0:
192,192,75352,1,0,0:0:0:0:
64,192,75352,1,0,0:0:0:0:
320,192,75625,1,0,0:0:0:0:
448,192,75625,1,0,0:0:0:0:
192,192,75761,1,0,0:0:0:0:
64,192,75898,1,0,0:0:0:0:
448,192,75898,1,0,0:0:0:0:
320,192,76034,1,0,0:0:0:0:
192,192,76170,1,0,0:0:0:0:
448,192,76307,1,0,0:0:0:0:
192,192,76443,128,0,76716:0:0:0:0:
64,192,76443,128,0,76716:0:0:0:0:
448,192,76716,1,0,0:0:0:0:
320,192,76852,1,0,0:0:0:0:
192,192,76989,128,0,77261:0:0:0:0:
64,192,76989,128,0,77261:0:0:0:0:
320,192,77261,1,0,0:0:0:0:
448,192,77261,1,0,0:0:0:0:
192,192,77534,128,0,77807:0:0:0:0:
64,192,77534,128,0,77807:0:0:0:0:
448,192,77807,1,0,0:0:0:0:
320,192,77943,1,0,0:0:0:0:
192,192,78080,128,0,78625:0:0:0:0:
64,192,78080,128,0,78625:0:0:0:0:
448,192,78080,1,0,0:0:0:0:
320,192,78625,128,0,78898:0:0:0:0:
448,192,78625,128,0,78898:0:0:0:0:
64,192,78898,1,0,0:0:0:0:
192,192,79034,1,0,0:0:0:0:
448,192,79170,128,0,79443:0:0:0:0:
320,192,79170,128,0,79443:0:0:0:0:
192,192,79443,1,0,0:0:0:0:
64,192,79580,1,0,0:0:0:0:
320,192,79716,1,0,0:0:0:0:
448,192,79716,1,0,0:0:0:0:
192,192,79989,1,0,0:0:0:0:
64,192,79989,1,0,0:0:0:0:
320,192,80125,1,0,0:0:0:0:
448,192,80261,1,0,0:0:0:0:
64,192,80261,1,0,0:0:0:0:
192,192,80398,1,0,0:0:0:0:
320,192,80534,1,0,0:0:0:0:
192,192,80670,1,0,0:0:0:0:
320,192,80807,128,0,81080:0:0:0:0:
448,192,80807,128,0,81080:0:0:0:0:
64,192,81080,1,0,0:0:0:0:
192,192,81216,1,0,0:0:0:0:
64,192,81352,1,0,0:0:0:0:
448,192,81352,128,0,81898:0:0:0:0:
320,192,81352,128,0,81898:0:0:0:0:
192,192,81898,128,0,82443:0:0:0:0:
64,192,81898,128,0,82443:0:0:0:0:
448,192,82443,1,0,0:0:0:0:
448,192,82625,1,0,0:0:0:0:
64,192,82807,1,0,0:0:0:0:
320,192,82989,1,0,0:0:0:0:
448,192,82989,1,0,0:0:0:0:
320,192,83261,1,0,0:0:0:0:
448,192,83261,1,0,0:0:0:0:
320,192,83670,1,0,0:0:0:0:
448,192,83670,1,0,0:0:0:0:
192,192,83943,1,0,0:0:0:0:
64,192,83943,1,0,0:0:0:0:
320,192,84080,1,0,0:0:0:0:
448,192,84080,1,0,0:0:0:0:
320,192,84352,1,0,0:0:0:0:
448,192,84352,1,0,0:0:0:0:
192,192,84898,128,0,85170:0:0:0:0:
320,192,85170,1,0,0:0:0:0:
448,192,85170,1,0,0:0:0:0:
320,192,85443,1,0,0:0:0:0:
448,192,85443,1,0,0:0:0:0:
320,192,85852,1,0,0:0:0:0:
448,192,85852,1,0,0:0:0:0:
192,192,86125,1,0,0:0:0:0:
64,192,86125,1,0,0:0:0:0:
320,192,86261,1,0,0:0:0:0:
448,192,86261,1,0,0:0:0:0:
320,192,86534,1,0,0:0:0:0:
448,192,86534,1,0,0:0:0:0:
192,192,86807,1,0,0:0:0:0:
320,192,86807,1,0,0:0:0:0:
448,192,86943,1,0,0:0:0:0:
64,192,87080,1,0,0:0:0:0:
320,192,87216,1,0,0:0:0:0:
192,192,87352,1,0,0:0:0:0:
64,192,87352,1,0,0:0:0:0:
192,192,87625,1,0,0:0:0:0:
64,192,87625,1,0,0:0:0:0:
192,192,88034,1,0,0:0:0:0:
64,192,88034,1,0,0:0:0:0:
320,192,88307,1,0,0:0:0:0:
448,192,88307,1,0,0:0:0:0:
192,192,88443,1,0,0:0:0:0:
64,192,88443,1,0,0:0:0:0:
192,192,88716,1,0,0:0:0:0:
64,192,88716,1,0,0:0:0:0:
320,192,89261,128,0,89534:0:0:0:0:
192,192,89534,1,0,0:0:0:0:
64,192,89534,1,0,0:0:0:0:
192,192,89807,1,0,0:0:0:0:
64,192,89807,1,0,0:0:0:0:
192,192,90216,1,0,0:0:0:0:
64,192,90216,1,0,0:0:0:0:
448,192,90489,1,0,0:0:0:0:
320,192,90489,1,0,0:0:0:0:
192,192,90625,1,0,0:0:0:0:
64,192,90625,1,0,0:0:0:0:
192,192,90898,1,0,0:0:0:0:
64,192,90898,1,0,0:0:0:0:
64,192,91170,1,0,0:0:0:0:
320,192,91170,128,0,91716:0:0:0:0:
448,192,91170,128,0,91716:0:0:0:0:
192,192,91716,1,0,0:0:0:0:
64,192,91716,1,0,0:0:0:0:
192,192,91989,1,0,0:0:0:0:
64,192,91989,1,0,0:0:0:0:
320,192,92261,1,0,0:0:0:0:
448,192,92261,1,0,0:0:0:0:
192,192,92398,1,0,0:0:0:0:
64,192,92398,1,0,0:0:0:0:
448,192,92670,128,0,92807:0:0:0:0:
64,192,92807,1,0,0:0:0:0:
192,192,92807,1,0,0:0:0:0:
192,192,93080,1,0,0:0:0:0:
64,192,93080,1,0,0:0:0:0:
192,192,93352,1,0,0:0:0:0:
320,192,93352,1,0,0:0:0:0:
448,192,93489,1,0,0:0:0:0:
64,192,93625,128,0,93898:0:0:0:0:
192,192,93761,128,0,93898:0:0:0:0:
320,192,93898,1,0,0:0:0:0:
448,192,93898,1,0,0:0:0:0:
320,192,94170,1,0,0:0:0:0:
448,192,94170,1,0,0:0:0:0:
64,192,94443,1,0,0:0:0:0:
192,192,94443,1,0,0:0:0:0:
320,192,94580,1,0,0:0:0:0:
448,192,94580,1,0,0:0:0:0:
192,192,94852,128,0,94989:0:0:0:0:
320,192,94989,1,0,0:0:0:0:
448,192,94989,1,0,0:0:0:0:
320,192,95261,1,0,0:0:0:0:
448,192,95261,1,0,0:0:0:0:
64,192,95534,1,0,0:0:0:0:
192,192,95534,1,0,0:0:0:0:
320,192,95670,1,0,0:0:0:0:
64,192,95807,128,0,96080:0:0:0:0:
320,192,95943,128,0,96080:0:0:0:0:
192,192,96080,1,0,0:0:0:0:
448,192,96080,1,0,0:0:0:0:
192,192,96352,1,0,0:0:0:0:
448,192,96352,1,0,0:0:0:0:
64,192,96625,1,0,0:0:0:0:
320,192,96625,1,0,0:0:0:0:
192,192,96761,1,0,0:0:0:0:
448,192,96761,1,0,0:0:0:0:
320,192,97034,128,0,97170:0:0:0:0:
192,192,97170,1,0,0:0:0:0:
448,192,97170,1,0,0:0:0:0:
192,192,97443,1,0,0:0:0:0:
448,192,97443,1,0,0:0:0:0:
320,192,97716,1,0,0:0:0:0:
64,192,97716,1,0,0:0:0:0:
192,192,97852,1,0,0:0:0:0:
448,192,97989,128,0,98261:0:0:0:0:
192,192,98125,128,0,98261:0:0:0:0:
320,192,98261,1,0,0:0:0:0:
64,192,98261,1,0,0:0:0:0:
64,192,98534,1,0,0:0:0:0:
320,192,98534,1,0,0:0:0:0:
192,192,98807,1,0,0:0:0:0:
448,192,98807,1,0,0:0:0:0:
320,192,98943,1,0,0:0:0:0:
64,192,98943,1,0,0:0:0:0:
192,192,99216,128,0,99352:0:0:0:0:
320,192,99352,1,0,0:0:0:0:
64,192,99352,1,0,0:0:0:0:
320,192,99625,1,0,0:0:0:0:
64,192,99625,1,0,0:0:0:0:
192,192,99898,1,0,0:0:0:0:
320,192,99898,128,0,100443:0:0:0:0:
448,192,99898,128,0,100443:0:0:0:0:
192,192,100443,1,0,0:0:0:0:
64,192,100443,1,0,0:0:0:0:
192,192,100716,1,0,0:0:0:0:
64,192,100716,1,0,0:0:0:0:
320,192,100989,1,0,0:0:0:0:
448,192,100989,1,0,0:0:0:0:
192,192,101125,1,0,0:0:0:0:
64,192,101125,1,0,0:0:0:0:
448,192,101398,128,0,101534:0:0:0:0:
64,192,101534,1,0,0:0:0:0:
192,192,101534,1,0,0:0:0:0:
192,192,101807,1,0,0:0:0:0:
64,192,101807,1,0,0:0:0:0:
192,192,102080,1,0,0:0:0:0:
320,192,102080,1,0,0:0:0:0:
448,192,102216,1,0,0:0:0:0:
64,192,102352,128,0,102625:0:0:0:0:
192,192,102489,128,0,102625:0:0:0:0:
320,192,102625,1,0,0:0:0:0:
448,192,102625,1,0,0:0:0:0:
320,192,102898,1,0,0:0:0:0:
448,192,102898,1,0,0:0:0:0:
64,192,103170,1,0,0:0:0:0:
192,192,103170,1,0,0:0:0:0:
320,192,103307,1,0,0:0:0:0:
448,192,103307,1,0,0:0:0:0:
192,192,103580,128,0,103716:0:0:0:0:
320,192,103716,1,0,0:0:0:0:
448,192,103716,1,0,0:0:0:0:
320,192,103989,1,0,0:0:0:0:
448,192,103989,1,0,0:0:0:0:
64,192,104261,1,0,0:0:0:0:
192,192,104261,1,0,0:0:0:0:
320,192,104398,1,0,0:0:0:0:
64,192,104534,128,0,104807:0:0:0:0:
320,192,104670,128,0,104807:0:0:0:0:
192,192,104807,1,0,0:0:0:0:
448,192,104807,1,0,0:0:0:0:
192,192,105080,1,0,0:0:0:0:
448,192,105080,1,0,0:0:0:0:
64,192,105352,1,0,0:0:0:0:
320,192,105352,1,0,0:0:0:0:
192,192,105489,1,0,0:0:0:0:
448,192,105489,1,0,0:0:0:0:
320,192,105761,128,0,105898:0:0:0:0:
192,192,105898,1,0,0:0:0:0:
448,192,105898,1,0,0:0:0:0:
192,192,106170,1,0,0:0:0:0:
448,192,106170,1,0,0:0:0:0:
320,192,106443,1,0,0:0:0:0:
64,192,106443,1,0,0:0:0:0:
192,192,106580,1,0,0:0:0:0:
448,192,106716,128,0,106989:0:0:0:0:
320,192,106852,128,0,106989:0:0:0:0:
192,192,106989,1,0,0:0:0:0:
64,192,106989,1,0,0:0:0:0:
448,192,107125,1,0,0:0:0:0:
64,192,107261,1,0,0:0:0:0:
192,192,107398,1,0,0:0:0:0:
320,192,107534,1,0,0:0:0:0:
448,192,107534,1,0,0:0:0:0:
64,192,107670,1,0,0:0:0:0:
448,192,107807,1,0,0:0:0:0:
320,192,107943,1,0,0:0:0:0:
192,192,108080,1,0,0:0:0:0:
64,192,108080,1,0,0:0:0:0:
448,192,108216,1,0,0:0:0:0:
64,192,108352,1,0,0:0:0:0:
192,192,108489,1,0,0:0:0:0:
320,192,108625,128,0,109170:0:0:0:0:
448,192,108625,128,0,109170:0:0:0:0:
64,192,108625,1,0,0:0:0:0:
192,192,109170,1,0,0:0:0:0:
64,192,109170,1,0,0:0:0:0:
