osu file format v14

[General]
AudioFilename: audio130.mp3
AudioLeadIn: 0
PreviewTime: 2817
Countdown: 0
SampleSet: None
StackLeniency: 0.7
Mode: 3
LetterboxInBreaks: 0
SpecialStyle: 0
WidescreenStoryboard: 1

[Editor]
DistanceSpacing: 0.8
BeatDivisor: 4
GridSize: 4
TimelineZoom: 1.6

[Metadata]
Title:<3
TitleUnicode:<3
Artist:Moe Shop
ArtistUnicode:Moe Shop
Creator:Benzopirene
Version:Shield Practice [1,3x Rate]
Source:
Tags:
BeatmapID:2132476
BeatmapSetID:1019068

[Difficulty]
HPDrainRate:8
CircleSize:7
OverallDifficulty:6.5
ApproachRate:5
SliderMultiplier:1.4
SliderTickRate:1

[Events]
//Background and Video events
0,0,"Moe.jpg",0,0
//Break Periods
//Storyboard Layer 0 (Background)
//Storyboard Layer 1 (Fail)
//Storyboard Layer 2 (Pass)
//Storyboard Layer 3 (Foreground)
//Storyboard Layer 4 (Overlay)
//Storyboard Sound Samples

[TimingPoints]
2134,341.880341880342,4,1,0,15,1,0
2817,341.880341880342,4,1,0,15,1,0

[HitObjects]
402,192,2134,5,0,0:0:0:0:
475,192,2134,1,0,0:0:0:0:
402,192,2304,1,0,0:0:0:0:
475,192,2304,1,0,0:0:0:0:
402,192,2475,1,0,0:0:0:0:
475,192,2475,1,0,0:0:0:0:
402,192,2646,1,0,0:0:0:0:
475,192,2646,1,0,0:0:0:0:
36,192,2817,1,0,0:0:0:0:
109,192,2987,1,0,0:0:0:0:
36,192,2987,128,0,3329:0:0:0:0:
182,192,3158,1,0,0:0:0:0:
109,192,3158,128,0,3500:0:0:0:0:
256,192,3329,1,0,0:0:0:0:
182,192,3329,128,0,3671:0:0:0:0:
36,192,3500,1,0,0:0:0:0:
109,192,3671,1,0,0:0:0:0:
36,192,3671,128,0,4013:0:0:0:0:
182,192,3842,1,0,0:0:0:0:
109,192,3842,128,0,4184:0:0:0:0:
256,192,4013,1,0,0:0:0:0:
182,192,4013,128,0,4184:0:0:0:0:
475,192,4184,1,0,0:0:0:0:
402,192,4355,1,0,0:0:0:0:
475,192,4355,128,0,4697:0:0:0:0:
329,192,4526,1,0,0:0:0:0:
402,192,4526,128,0,4868:0:0:0:0:
256,192,4697,1,0,0:0:0:0:
329,192,4697,128,0,5039:0:0:0:0:
475,192,4868,1,0,0:0:0:0:
402,192,5039,1,0,0:0:0:0:
475,192,5039,128,0,5381:0:0:0:0:
329,192,5210,1,0,0:0:0:0:
402,192,5210,128,0,5552:0:0:0:0:
256,192,5381,1,0,0:0:0:0:
329,192,5381,128,0,5552:0:0:0:0:
36,192,5552,1,0,0:0:0:0:
109,192,5722,1,0,0:0:0:0:
36,192,5722,128,0,6064:0:0:0:0:
475,192,5893,1,0,0:0:0:0:
402,192,6064,1,0,0:0:0:0:
475,192,6064,128,0,6406:0:0:0:0:
36,192,6235,1,0,0:0:0:0:
109,192,6406,1,0,0:0:0:0:
36,192,6406,128,0,6748:0:0:0:0:
475,192,6577,1,0,0:0:0:0:
402,192,6748,1,0,0:0:0:0:
475,192,6748,128,0,7090:0:0:0:0:
329,192,6919,1,0,0:0:0:0:
402,192,6919,128,0,7261:0:0:0:0:
256,192,7090,1,0,0:0:0:0:
329,192,7090,128,0,7432:0:0:0:0:
182,192,7261,1,0,0:0:0:0:
256,192,7261,128,0,7603:0:0:0:0:
109,192,7432,1,0,0:0:0:0:
182,192,7432,128,0,7774:0:0:0:0:
36,192,7603,1,0,0:0:0:0:
109,192,7603,128,0,7945:0:0:0:0:
36,192,7774,128,0,8116:0:0:0:0:
402,192,7945,1,0,0:0:0:0:
475,192,7945,128,0,8287:0:0:0:0:
329,192,8116,1,0,0:0:0:0:
402,192,8116,128,0,8287:0:0:0:0:
36,192,8287,1,0,0:0:0:0:
109,192,8458,1,0,0:0:0:0:
36,192,8458,128,0,8799:0:0:0:0:
182,192,8628,1,0,0:0:0:0:
109,192,8628,128,0,8970:0:0:0:0:
256,192,8799,1,0,0:0:0:0:
182,192,8799,128,0,9141:0:0:0:0:
36,192,8970,1,0,0:0:0:0:
109,192,9141,1,0,0:0:0:0:
36,192,9141,128,0,9483:0:0:0:0:
182,192,9312,1,0,0:0:0:0:
109,192,9312,128,0,9654:0:0:0:0:
256,192,9483,1,0,0:0:0:0:
182,192,9483,128,0,9654:0:0:0:0:
475,192,9654,1,0,0:0:0:0:
402,192,9825,1,0,0:0:0:0:
475,192,9825,128,0,10167:0:0:0:0:
329,192,9996,1,0,0:0:0:0:
402,192,9996,128,0,10338:0:0:0:0:
256,192,10167,1,0,0:0:0:0:
329,192,10167,128,0,10509:0:0:0:0:
475,192,10338,1,0,0:0:0:0:
402,192,10509,1,0,0:0:0:0:
475,192,10509,128,0,10851:0:0:0:0:
329,192,10680,1,0,0:0:0:0:
402,192,10680,128,0,11022:0:0:0:0:
256,192,10851,1,0,0:0:0:0:
329,192,10851,128,0,11022:0:0:0:0:
109,192,11022,1,0,0:0:0:0:
36,192,11022,128,0,11364:0:0:0:0:
182,192,11193,1,0,0:0:0:0:
109,192,11193,128,0,11534:0:0:0:0:
402,192,11364,1,0,0:0:0:0:
475,192,11364,128,0,11705:0:0:0:0:
329,192,11534,1,0,0:0:0:0:
402,192,11534,128,0,11876:0:0:0:0:
182,192,11705,1,0,0:0:0:0:
109,192,11705,128,0,12047:0:0:0:0:
256,192,11876,1,0,0:0:0:0:
182,192,11876,128,0,12218:0:0:0:0:
329,192,12047,1,0,0:0:0:0:
402,192,12047,128,0,12389:0:0:0:0:
256,192,12218,1,0,0:0:0:0:
329,192,12218,128,0,12560:0:0:0:0:
109,192,12389,1,0,0:0:0:0:
182,192,12389,128,0,12731:0:0:0:0:
36,192,12560,1,0,0:0:0:0:
109,192,12560,128,0,12902:0:0:0:0:
402,192,12731,1,0,0:0:0:0:
329,192,12731,128,0,13073:0:0:0:0:
475,192,12902,1,0,0:0:0:0:
402,192,12902,128,0,13244:0:0:0:0:
182,192,13073,1,0,0:0:0:0:
256,192,13244,1,0,0:0:0:0:
182,192,13244,128,0,13586:0:0:0:0:
329,192,13415,1,0,0:0:0:0:
256,192,13415,128,0,13757:0:0:0:0:
402,192,13586,1,0,0:0:0:0:
329,192,13586,128,0,13757:0:0:0:0:
36,192,13757,1,0,0:0:0:0:
109,192,13928,1,0,0:0:0:0:
36,192,13928,128,0,14269:0:0:0:0:
182,192,14099,1,0,0:0:0:0:
109,192,14099,128,0,14440:0:0:0:0:
256,192,14269,1,0,0:0:0:0:
182,192,14269,128,0,14611:0:0:0:0:
36,192,14440,1,0,0:0:0:0:
109,192,14611,1,0,0:0:0:0:
36,192,14611,128,0,14953:0:0:0:0:
182,192,14782,1,0,0:0:0:0:
109,192,14782,128,0,15124:0:0:0:0:
256,192,14953,1,0,0:0:0:0:
182,192,14953,128,0,15124:0:0:0:0:
475,192,15124,1,0,0:0:0:0:
402,192,15295,1,0,0:0:0:0:
475,192,15295,128,0,15637:0:0:0:0:
329,192,15466,1,0,0:0:0:0:
402,192,15466,128,0,15808:0:0:0:0:
256,192,15637,1,0,0:0:0:0:
329,192,15637,128,0,15979:0:0:0:0:
475,192,15808,1,0,0:0:0:0:
402,192,15979,1,0,0:0:0:0:
475,192,15979,128,0,16321:0:0:0:0:
329,192,16150,1,0,0:0:0:0:
402,192,16150,128,0,16492:0:0:0:0:
256,192,16321,1,0,0:0:0:0:
329,192,16321,128,0,16492:0:0:0:0:
36,192,16492,1,0,0:0:0:0:
109,192,16663,1,0,0:0:0:0:
36,192,16663,128,0,17005:0:0:0:0:
109,192,16834,1,0,0:0:0:0:
182,192,17005,1,0,0:0:0:0:
109,192,17005,128,0,17346:0:0:0:0:
182,192,17175,1,0,0:0:0:0:
256,192,17346,1,0,0:0:0:0:
182,192,17346,128,0,17688:0:0:0:0:
475,192,17517,1,0,0:0:0:0:
475,192,17688,128,0,18030:0:0:0:0:
402,192,17688,1,0,0:0:0:0:
36,192,17859,1,0,0:0:0:0:
109,192,18030,1,0,0:0:0:0:
36,192,18030,128,0,18372:0:0:0:0:
402,192,18201,1,0,0:0:0:0:
329,192,18372,1,0,0:0:0:0:
402,192,18372,128,0,18714:0:0:0:0:
109,192,18543,1,0,0:0:0:0:
182,192,18714,1,0,0:0:0:0:
109,192,18714,128,0,19056:0:0:0:0:
329,192,18885,1,0,0:0:0:0:
256,192,19056,1,0,0:0:0:0:
329,192,19056,128,0,19227:0:0:0:0:
36,192,19227,1,0,0:0:0:0:
109,192,19398,1,0,0:0:0:0:
36,192,19398,128,0,19740:0:0:0:0:
182,192,19569,1,0,0:0:0:0:
109,192,19569,128,0,19911:0:0:0:0:
256,192,19740,1,0,0:0:0:0:
182,192,19740,128,0,20081:0:0:0:0:
36,192,19911,1,0,0:0:0:0:
109,192,20081,1,0,0:0:0:0:
36,192,20081,128,0,20423:0:0:0:0:
182,192,20252,1,0,0:0:0:0:
109,192,20252,128,0,20594:0:0:0:0:
256,192,20423,1,0,0:0:0:0:
182,192,20423,128,0,20594:0:0:0:0:
475,192,20594,1,0,0:0:0:0:
402,192,20765,1,0,0:0:0:0:
475,192,20765,128,0,21107:0:0:0:0:
329,192,20936,1,0,0:0:0:0:
402,192,20936,128,0,21278:0:0:0:0:
256,192,21107,1,0,0:0:0:0:
329,192,21107,128,0,21449:0:0:0:0:
475,192,21278,1,0,0:0:0:0:
402,192,21449,1,0,0:0:0:0:
475,192,21449,128,0,21791:0:0:0:0:
329,192,21620,1,0,0:0:0:0:
402,192,21620,128,0,21962:0:0:0:0:
256,192,21791,1,0,0:0:0:0:
329,192,21791,128,0,21962:0:0:0:0:
36,192,21962,1,0,0:0:0:0:
109,192,22133,1,0,0:0:0:0:
36,192,22133,128,0,22475:0:0:0:0:
109,192,22304,1,0,0:0:0:0:
182,192,22475,1,0,0:0:0:0:
109,192,22475,128,0,22817:0:0:0:0:
182,192,22646,1,0,0:0:0:0:
256,192,22817,1,0,0:0:0:0:
182,192,22817,128,0,23158:0:0:0:0:
256,192,22987,1,0,0:0:0:0:
329,192,23158,1,0,0:0:0:0:
256,192,23158,128,0,23500:0:0:0:0:
329,192,23329,1,0,0:0:0:0:
402,192,23500,1,0,0:0:0:0:
329,192,23500,128,0,23842:0:0:0:0:
402,192,23671,1,0,0:0:0:0:
475,192,23842,1,0,0:0:0:0:
402,192,23842,128,0,24013:0:0:0:0:
109,192,24013,1,0,0:0:0:0:
182,192,24013,1,0,0:0:0:0:
36,192,24013,128,0,24355:0:0:0:0:
182,192,24184,1,0,0:0:0:0:
256,192,24184,1,0,0:0:0:0:
109,192,24184,128,0,24526:0:0:0:0:
256,192,24355,1,0,0:0:0:0:
329,192,24355,1,0,0:0:0:0:
182,192,24355,128,0,24697:0:0:0:0:
329,192,24526,1,0,0:0:0:0:
402,192,24526,1,0,0:0:0:0:
256,192,24526,128,0,24697:0:0:0:0:
402,192,24697,1,0,0:0:0:0:
475,192,24697,1,0,0:0:0:0:
329,192,24697,1,0,0:0:0:0:
475,192,24868,1,0,0:0:0:0:
402,192,25039,1,0,0:0:0:0:
475,192,25039,128,0,25381:0:0:0:0:
329,192,25210,1,0,0:0:0:0:
402,192,25210,128,0,25552:0:0:0:0:
256,192,25381,1,0,0:0:0:0:
329,192,25381,128,0,25722:0:0:0:0:
182,192,25552,1,0,0:0:0:0:
256,192,25552,128,0,25893:0:0:0:0:
109,192,25722,1,0,0:0:0:0:
182,192,25722,128,0,26064:0:0:0:0:
36,192,25893,1,0,0:0:0:0:
109,192,25893,128,0,26235:0:0:0:0:
475,192,26064,1,0,0:0:0:0:
36,192,26064,128,0,26235:0:0:0:0:
402,192,26235,1,0,0:0:0:0:
475,192,26235,128,0,26577:0:0:0:0:
329,192,26406,1,0,0:0:0:0:
402,192,26406,128,0,26748:0:0:0:0:
256,192,26577,1,0,0:0:0:0:
329,192,26577,128,0,26919:0:0:0:0:
182,192,26748,1,0,0:0:0:0:
256,192,26748,128,0,27090:0:0:0:0:
109,192,26919,1,0,0:0:0:0:
182,192,26919,128,0,27261:0:0:0:0:
36,192,27090,1,0,0:0:0:0:
109,192,27090,128,0,27432:0:0:0:0:
36,192,27261,128,0,27432:0:0:0:0:
475,192,27432,1,0,0:0:0:0:
402,192,27603,1,0,0:0:0:0:
475,192,27603,128,0,27945:0:0:0:0:
402,192,27774,1,0,0:0:0:0:
329,192,27945,1,0,0:0:0:0:
402,192,27945,128,0,28287:0:0:0:0:
329,192,28116,1,0,0:0:0:0:
256,192,28287,1,0,0:0:0:0:
329,192,28287,128,0,28628:0:0:0:0:
182,192,28458,1,0,0:0:0:0:
256,192,28458,128,0,28799:0:0:0:0:
109,192,28628,1,0,0:0:0:0:
182,192,28628,128,0,28799:0:0:0:0:
402,192,28799,1,0,0:0:0:0:
475,192,28799,128,0,29141:0:0:0:0:
329,192,28970,1,0,0:0:0:0:
402,192,28970,128,0,29312:0:0:0:0:
109,192,29141,1,0,0:0:0:0:
36,192,29141,128,0,29483:0:0:0:0:
182,192,29312,1,0,0:0:0:0:
109,192,29312,128,0,29654:0:0:0:0:
402,192,29483,1,0,0:0:0:0:
329,192,29483,128,0,29825:0:0:0:0:
475,192,29654,1,0,0:0:0:0:
402,192,29654,128,0,29996:0:0:0:0:
109,192,29825,1,0,0:0:0:0:
182,192,29825,128,0,29996:0:0:0:0:
36,192,29996,1,0,0:0:0:0:
109,192,29996,128,0,30167:0:0:0:0:
256,192,30167,1,0,0:0:0:0:
182,192,30167,128,0,30509:0:0:0:0:
329,192,30338,1,0,0:0:0:0:
256,192,30338,128,0,30680:0:0:0:0:
402,192,30509,1,0,0:0:0:0:
329,192,30509,128,0,30851:0:0:0:0:
475,192,30680,1,0,0:0:0:0:
402,192,30680,128,0,30851:0:0:0:0:
182,192,30851,1,0,0:0:0:0:
109,192,30851,128,0,31193:0:0:0:0:
256,192,31022,1,0,0:0:0:0:
182,192,31022,128,0,31364:0:0:0:0:
329,192,31193,1,0,0:0:0:0:
256,192,31193,128,0,31534:0:0:0:0:
402,192,31364,1,0,0:0:0:0:
329,192,31364,128,0,31534:0:0:0:0:
109,192,31534,1,0,0:0:0:0:
36,192,31534,128,0,31876:0:0:0:0:
182,192,31705,1,0,0:0:0:0:
109,192,31705,128,0,32047:0:0:0:0:
256,192,31876,1,0,0:0:0:0:
182,192,31876,128,0,32218:0:0:0:0:
329,192,32047,1,0,0:0:0:0:
256,192,32047,128,0,32389:0:0:0:0:
402,192,32218,1,0,0:0:0:0:
329,192,32218,128,0,32560:0:0:0:0:
475,192,32389,1,0,0:0:0:0:
402,192,32389,128,0,32731:0:0:0:0:
475,192,32560,128,0,32902:0:0:0:0:
36,192,32731,1,0,0:0:0:0:
109,192,32902,1,0,0:0:0:0:
36,192,32902,128,0,33244:0:0:0:0:
182,192,33073,1,0,0:0:0:0:
109,192,33073,128,0,33415:0:0:0:0:
256,192,33244,1,0,0:0:0:0:
182,192,33244,128,0,33586:0:0:0:0:
329,192,33415,1,0,0:0:0:0:
256,192,33415,128,0,33757:0:0:0:0:
402,192,33586,1,0,0:0:0:0:
329,192,33586,128,0,33928:0:0:0:0:
475,192,33757,1,0,0:0:0:0:
402,192,33757,128,0,34099:0:0:0:0:
475,192,33928,128,0,34269:0:0:0:0:
36,192,34099,1,0,0:0:0:0:
109,192,34269,1,0,0:0:0:0:
36,192,34269,128,0,34611:0:0:0:0:
182,192,34440,1,0,0:0:0:0:
109,192,34440,128,0,34782:0:0:0:0:
256,192,34611,1,0,0:0:0:0:
182,192,34611,128,0,34953:0:0:0:0:
329,192,34782,1,0,0:0:0:0:
256,192,34782,128,0,35124:0:0:0:0:
402,192,34953,1,0,0:0:0:0:
329,192,34953,128,0,35295:0:0:0:0:
475,192,35124,1,0,0:0:0:0:
402,192,35124,128,0,35466:0:0:0:0:
475,192,35295,128,0,35637:0:0:0:0:
36,192,35466,1,0,0:0:0:0:
109,192,35637,1,0,0:0:0:0:
36,192,35637,128,0,35979:0:0:0:0:
109,192,35808,1,0,0:0:0:0:
182,192,35979,1,0,0:0:0:0:
109,192,35979,128,0,36321:0:0:0:0:
182,192,36150,1,0,0:0:0:0:
256,192,36321,1,0,0:0:0:0:
182,192,36321,128,0,36663:0:0:0:0:
256,192,36492,1,0,0:0:0:0:
329,192,36663,1,0,0:0:0:0:
256,192,36663,128,0,36834:0:0:0:0:
402,192,36834,1,0,0:0:0:0:
475,192,36834,1,0,0:0:0:0:
329,192,36834,128,0,37175:0:0:0:0:
36,192,37175,1,0,0:0:0:0:
475,192,37175,1,0,0:0:0:0:
402,192,37175,128,0,37517:0:0:0:0:
36,192,37517,1,0,0:0:0:0:
109,192,37517,1,0,0:0:0:0:
475,192,37517,128,0,37859:0:0:0:0:
182,192,37859,1,0,0:0:0:0:
109,192,37859,1,0,0:0:0:0:
36,192,37859,128,0,38201:0:0:0:0:
182,192,38030,1,0,0:0:0:0:
256,192,38030,1,0,0:0:0:0:
109,192,38030,128,0,38372:0:0:0:0:
182,192,38201,128,0,38372:0:0:0:0:
402,192,38372,1,0,0:0:0:0:
475,192,38372,128,0,38714:0:0:0:0:
329,192,38543,1,0,0:0:0:0:
402,192,38543,128,0,38885:0:0:0:0:
256,192,38714,1,0,0:0:0:0:
329,192,38714,128,0,39056:0:0:0:0:
182,192,38885,1,0,0:0:0:0:
256,192,38885,128,0,39227:0:0:0:0:
109,192,39056,1,0,0:0:0:0:
182,192,39056,128,0,39398:0:0:0:0:
36,192,39227,1,0,0:0:0:0:
109,192,39227,128,0,39569:0:0:0:0:
402,192,39398,1,0,0:0:0:0:
475,192,39398,128,0,39740:0:0:0:0:
329,192,39569,1,0,0:0:0:0:
402,192,39569,128,0,39740:0:0:0:0:
109,192,39740,1,0,0:0:0:0:
36,192,39740,128,0,40081:0:0:0:0:
182,192,39911,1,0,0:0:0:0:
109,192,39911,128,0,40252:0:0:0:0:
256,192,40081,1,0,0:0:0:0:
182,192,40081,128,0,40423:0:0:0:0:
329,192,40252,1,0,0:0:0:0:
256,192,40252,128,0,40594:0:0:0:0:
402,192,40423,1,0,0:0:0:0:
329,192,40423,128,0,40765:0:0:0:0:
475,192,40594,1,0,0:0:0:0:
402,192,40594,128,0,40936:0:0:0:0:
109,192,40765,1,0,0:0:0:0:
36,192,40765,128,0,41107:0:0:0:0:
182,192,40936,1,0,0:0:0:0:
109,192,40936,128,0,41107:0:0:0:0:
402,192,41107,1,0,0:0:0:0:
475,192,41107,128,0,41449:0:0:0:0:
329,192,41278,1,0,0:0:0:0:
402,192,41278,128,0,41620:0:0:0:0:
256,192,41449,1,0,0:0:0:0:
329,192,41449,128,0,41791:0:0:0:0:
182,192,41620,1,0,0:0:0:0:
256,192,41620,128,0,41962:0:0:0:0:
109,192,41791,1,0,0:0:0:0:
182,192,41791,128,0,42133:0:0:0:0:
36,192,41962,1,0,0:0:0:0:
109,192,41962,128,0,42304:0:0:0:0:
402,192,42133,1,0,0:0:0:0:
475,192,42133,128,0,42475:0:0:0:0:
329,192,42304,1,0,0:0:0:0:
402,192,42304,128,0,42646:0:0:0:0:
109,192,42475,1,0,0:0:0:0:
36,192,42475,128,0,42817:0:0:0:0:
182,192,42646,1,0,0:0:0:0:
109,192,42646,128,0,42987:0:0:0:0:
402,192,42817,1,0,0:0:0:0:
329,192,42817,128,0,43158:0:0:0:0:
475,192,42987,1,0,0:0:0:0:
402,192,42987,128,0,43329:0:0:0:0:
109,192,43158,1,0,0:0:0:0:
182,192,43158,128,0,43500:0:0:0:0:
36,192,43329,1,0,0:0:0:0:
109,192,43329,128,0,43671:0:0:0:0:
329,192,43500,1,0,0:0:0:0:
402,192,43500,128,0,43842:0:0:0:0:
256,192,43671,1,0,0:0:0:0:
329,192,43671,128,0,43842:0:0:0:0:
109,192,43842,1,0,0:0:0:0:
36,192,43842,128,0,44184:0:0:0:0:
182,192,44013,1,0,0:0:0:0:
109,192,44013,128,0,44355:0:0:0:0:
256,192,44184,1,0,0:0:0:0:
182,192,44184,128,0,44526:0:0:0:0:
329,192,44355,1,0,0:0:0:0:
256,192,44355,128,0,44697:0:0:0:0:
402,192,44526,1,0,0:0:0:0:
329,192,44526,128,0,44868:0:0:0:0:
475,192,44697,1,0,0:0:0:0:
402,192,44697,128,0,45039:0:0:0:0:
109,192,44868,1,0,0:0:0:0:
36,192,44868,128,0,45210:0:0:0:0:
182,192,45039,1,0,0:0:0:0:
109,192,45039,128,0,45210:0:0:0:0:
402,192,45210,1,0,0:0:0:0:
475,192,45210,128,0,45552:0:0:0:0:
329,192,45381,1,0,0:0:0:0:
402,192,45381,128,0,45722:0:0:0:0:
256,192,45552,1,0,0:0:0:0:
329,192,45552,128,0,45893:0:0:0:0:
182,192,45722,1,0,0:0:0:0:
256,192,45722,128,0,46064:0:0:0:0:
109,192,45893,1,0,0:0:0:0:
182,192,45893,128,0,46235:0:0:0:0:
36,192,46064,1,0,0:0:0:0:
109,192,46064,128,0,46406:0:0:0:0:
402,192,46235,1,0,0:0:0:0:
475,192,46235,128,0,46406:0:0:0:0:
329,192,46406,1,0,0:0:0:0:
402,192,46406,128,0,46577:0:0:0:0:
109,192,46577,1,0,0:0:0:0:
36,192,46577,128,0,49141:0:0:0:0:
475,192,46577,128,0,49141:0:0:0:0:
182,192,46748,1,0,0:0:0:0:
109,192,46748,128,0,47090:0:0:0:0:
256,192,46919,1,0,0:0:0:0:
182,192,46919,128,0,47261:0:0:0:0:
329,192,47090,1,0,0:0:0:0:
256,192,47090,128,0,47432:0:0:0:0:
402,192,47261,1,0,0:0:0:0:
329,192,47261,128,0,47603:0:0:0:0:
402,192,47432,128,0,47774:0:0:0:0:
109,192,47603,1,0,0:0:0:0:
182,192,47774,1,0,0:0:0:0:
109,192,47774,128,0,48116:0:0:0:0:
256,192,47945,1,0,0:0:0:0:
182,192,47945,128,0,48287:0:0:0:0:
329,192,48116,1,0,0:0:0:0:
256,192,48116,128,0,48458:0:0:0:0:
402,192,48287,1,0,0:0:0:0:
329,192,48287,128,0,48628:0:0:0:0:
402,192,48458,128,0,48799:0:0:0:0:
182,192,48628,1,0,0:0:0:0:
109,192,48628,128,0,48970:0:0:0:0:
256,192,48799,1,0,0:0:0:0:
182,192,48799,128,0,49141:0:0:0:0:
329,192,48970,1,0,0:0:0:0:
256,192,48970,128,0,49312:0:0:0:0:
402,192,49141,1,0,0:0:0:0:
329,192,49141,128,0,49312:0:0:0:0:
109,192,49312,1,0,0:0:0:0:
36,192,49312,128,0,49654:0:0:0:0:
182,192,49483,1,0,0:0:0:0:
109,192,49483,128,0,49825:0:0:0:0:
256,192,49654,1,0,0:0:0:0:
182,192,49654,128,0,49996:0:0:0:0:
329,192,49825,1,0,0:0:0:0:
256,192,49825,128,0,50167:0:0:0:0:
402,192,49996,1,0,0:0:0:0:
329,192,49996,128,0,50338:0:0:0:0:
475,192,50167,1,0,0:0:0:0:
402,192,50167,128,0,50509:0:0:0:0:
109,192,50338,1,0,0:0:0:0:
182,192,50338,128,0,50680:0:0:0:0:
36,192,50509,1,0,0:0:0:0:
109,192,50509,128,0,50851:0:0:0:0:
402,192,50680,1,0,0:0:0:0:
475,192,50680,128,0,51022:0:0:0:0:
329,192,50851,1,0,0:0:0:0:
402,192,50851,128,0,51193:0:0:0:0:
256,192,51022,1,0,0:0:0:0:
329,192,51022,128,0,51364:0:0:0:0:
182,192,51193,1,0,0:0:0:0:
256,192,51193,128,0,51534:0:0:0:0:
109,192,51364,1,0,0:0:0:0:
182,192,51364,128,0,51705:0:0:0:0:
36,192,51534,1,0,0:0:0:0:
109,192,51534,128,0,51876:0:0:0:0:
402,192,51705,1,0,0:0:0:0:
329,192,51705,128,0,52047:0:0:0:0:
475,192,51876,1,0,0:0:0:0:
402,192,51876,128,0,52218:0:0:0:0:
109,192,52047,1,0,0:0:0:0:
36,192,52047,128,0,52389:0:0:0:0:
182,192,52218,1,0,0:0:0:0:
109,192,52218,128,0,52560:0:0:0:0:
402,192,52389,1,0,0:0:0:0:
329,192,52389,128,0,52731:0:0:0:0:
475,192,52560,1,0,0:0:0:0:
402,192,52560,128,0,52902:0:0:0:0:
109,192,52731,1,0,0:0:0:0:
182,192,52731,128,0,53073:0:0:0:0:
36,192,52902,1,0,0:0:0:0:
109,192,52902,128,0,53244:0:0:0:0:
402,192,53073,1,0,0:0:0:0:
475,192,53073,128,0,53415:0:0:0:0:
329,192,53244,1,0,0:0:0:0:
402,192,53244,128,0,53586:0:0:0:0:
109,192,53415,1,0,0:0:0:0:
182,192,53415,128,0,53757:0:0:0:0:
36,192,53586,1,0,0:0:0:0:
109,192,53586,128,0,53928:0:0:0:0:
402,192,53757,1,0,0:0:0:0:
329,192,53757,128,0,54099:0:0:0:0:
475,192,53928,1,0,0:0:0:0:
402,192,53928,128,0,54269:0:0:0:0:
109,192,54099,1,0,0:0:0:0:
36,192,54099,128,0,54440:0:0:0:0:
182,192,54269,1,0,0:0:0:0:
109,192,54269,128,0,54611:0:0:0:0:
402,192,54440,1,0,0:0:0:0:
475,192,54440,128,0,54782:0:0:0:0:
329,192,54611,1,0,0:0:0:0:
402,192,54611,128,0,54782:0:0:0:0:
109,192,54782,1,0,0:0:0:0:
36,192,54782,128,0,55124:0:0:0:0:
182,192,54953,1,0,0:0:0:0:
109,192,54953,128,0,55295:0:0:0:0:
256,192,55124,1,0,0:0:0:0:
182,192,55124,128,0,55466:0:0:0:0:
329,192,55295,1,0,0:0:0:0:
256,192,55295,128,0,55637:0:0:0:0:
402,192,55466,1,0,0:0:0:0:
329,192,55466,128,0,55808:0:0:0:0:
475,192,55637,1,0,0:0:0:0:
402,192,55637,128,0,55979:0:0:0:0:
109,192,55808,1,0,0:0:0:0:
36,192,55808,128,0,56150:0:0:0:0:
182,192,55979,1,0,0:0:0:0:
109,192,55979,128,0,56150:0:0:0:0:
402,192,56150,1,0,0:0:0:0:
475,192,56150,128,0,56492:0:0:0:0:
329,192,56321,1,0,0:0:0:0:
402,192,56321,128,0,56663:0:0:0:0:
256,192,56492,1,0,0:0:0:0:
329,192,56492,128,0,56834:0:0:0:0:
182,192,56663,1,0,0:0:0:0:
256,192,56663,128,0,57005:0:0:0:0:
109,192,56834,1,0,0:0:0:0:
182,192,56834,128,0,57175:0:0:0:0:
36,192,57005,1,0,0:0:0:0:
109,192,57005,128,0,57346:0:0:0:0:
256,192,57175,1,0,0:0:0:0:
329,192,57175,128,0,57346:0:0:0:0:
182,192,57346,1,0,0:0:0:0:
256,192,57346,128,0,57517:0:0:0:0:
402,192,57517,1,0,0:0:0:0:
475,192,57517,128,0,60081:0:0:0:0:
36,192,57517,128,0,60081:0:0:0:0:
329,192,57688,1,0,0:0:0:0:
402,192,57688,128,0,58030:0:0:0:0:
256,192,57859,1,0,0:0:0:0:
329,192,57859,128,0,58201:0:0:0:0:
182,192,58030,1,0,0:0:0:0:
256,192,58030,128,0,58372:0:0:0:0:
109,192,58201,1,0,0:0:0:0:
182,192,58201,128,0,58543:0:0:0:0:
109,192,58372,128,0,58714:0:0:0:0:
402,192,58543,1,0,0:0:0:0:
329,192,58714,1,0,0:0:0:0:
402,192,58714,128,0,59056:0:0:0:0:
256,192,58885,1,0,0:0:0:0:
329,192,58885,128,0,59227:0:0:0:0:
182,192,59056,1,0,0:0:0:0:
256,192,59056,128,0,59398:0:0:0:0:
109,192,59227,1,0,0:0:0:0:
182,192,59227,128,0,59569:0:0:0:0:
109,192,59398,128,0,59740:0:0:0:0:
329,192,59569,1,0,0:0:0:0:
402,192,59569,128,0,59911:0:0:0:0:
256,192,59740,1,0,0:0:0:0:
329,192,59740,128,0,60081:0:0:0:0:
182,192,59911,1,0,0:0:0:0:
256,192,59911,128,0,60252:0:0:0:0:
109,192,60081,1,0,0:0:0:0:
182,192,60081,128,0,60252:0:0:0:0:
402,192,60252,1,0,0:0:0:0:
475,192,60252,128,0,60594:0:0:0:0:
329,192,60423,1,0,0:0:0:0:
402,192,60423,128,0,60765:0:0:0:0:
256,192,60594,1,0,0:0:0:0:
329,192,60594,128,0,60936:0:0:0:0:
182,192,60765,1,0,0:0:0:0:
256,192,60765,128,0,61107:0:0:0:0:
109,192,60936,1,0,0:0:0:0:
182,192,60936,128,0,61278:0:0:0:0:
36,192,61107,1,0,0:0:0:0:
109,192,61107,128,0,61449:0:0:0:0:
402,192,61278,1,0,0:0:0:0:
329,192,61278,128,0,61620:0:0:0:0:
475,192,61449,1,0,0:0:0:0:
402,192,61449,128,0,61620:0:0:0:0:
109,192,61620,1,0,0:0:0:0:
36,192,61620,128,0,61962:0:0:0:0:
182,192,61791,1,0,0:0:0:0:
109,192,61791,128,0,62133:0:0:0:0:
256,192,61962,1,0,0:0:0:0:
182,192,61962,128,0,62304:0:0:0:0:
329,192,62133,1,0,0:0:0:0:
256,192,62133,128,0,62475:0:0:0:0:
402,192,62304,1,0,0:0:0:0:
329,192,62304,128,0,62646:0:0:0:0:
475,192,62475,1,0,0:0:0:0:
402,192,62475,128,0,62817:0:0:0:0:
109,192,62646,1,0,0:0:0:0:
182,192,62646,128,0,62987:0:0:0:0:
36,192,62817,1,0,0:0:0:0:
109,192,62817,128,0,62987:0:0:0:0:
402,192,62987,1,0,0:0:0:0:
475,192,62987,128,0,63329:0:0:0:0:
329,192,63158,1,0,0:0:0:0:
402,192,63158,128,0,63500:0:0:0:0:
109,192,63329,1,0,0:0:0:0:
182,192,63329,128,0,63671:0:0:0:0:
36,192,63500,1,0,0:0:0:0:
109,192,63500,128,0,63842:0:0:0:0:
402,192,63671,1,0,0:0:0:0:
329,192,63671,128,0,64013:0:0:0:0:
475,192,63842,1,0,0:0:0:0:
402,192,63842,128,0,64184:0:0:0:0:
109,192,64013,1,0,0:0:0:0:
36,192,64013,128,0,64355:0:0:0:0:
182,192,64184,1,0,0:0:0:0:
109,192,64184,128,0,64526:0:0:0:0:
402,192,64355,1,0,0:0:0:0:
329,192,64355,128,0,64697:0:0:0:0:
475,192,64526,1,0,0:0:0:0:
402,192,64526,128,0,64868:0:0:0:0:
109,192,64697,1,0,0:0:0:0:
182,192,64697,128,0,65039:0:0:0:0:
36,192,64868,1,0,0:0:0:0:
109,192,64868,128,0,65210:0:0:0:0:
402,192,65039,1,0,0:0:0:0:
475,192,65039,128,0,65381:0:0:0:0:
329,192,65210,1,0,0:0:0:0:
402,192,65210,128,0,65552:0:0:0:0:
109,192,65381,1,0,0:0:0:0:
36,192,65381,128,0,65722:0:0:0:0:
182,192,65552,1,0,0:0:0:0:
109,192,65552,128,0,65722:0:0:0:0:
402,192,65722,1,0,0:0:0:0:
475,192,65722,128,0,66064:0:0:0:0:
329,192,65893,1,0,0:0:0:0:
402,192,65893,128,0,66235:0:0:0:0:
256,192,66064,1,0,0:0:0:0:
329,192,66064,128,0,66406:0:0:0:0:
182,192,66235,1,0,0:0:0:0:
256,192,66235,128,0,66577:0:0:0:0:
109,192,66406,1,0,0:0:0:0:
182,192,66406,128,0,66748:0:0:0:0:
36,192,66577,1,0,0:0:0:0:
109,192,66577,128,0,66919:0:0:0:0:
402,192,66748,1,0,0:0:0:0:
475,192,66748,128,0,67090:0:0:0:0:
329,192,66919,1,0,0:0:0:0:
402,192,66919,128,0,67090:0:0:0:0:
109,192,67090,1,0,0:0:0:0:
36,192,67090,128,0,67432:0:0:0:0:
182,192,67261,1,0,0:0:0:0:
109,192,67261,128,0,67603:0:0:0:0:
256,192,67432,1,0,0:0:0:0:
182,192,67432,128,0,67774:0:0:0:0:
329,192,67603,1,0,0:0:0:0:
256,192,67603,128,0,67945:0:0:0:0:
402,192,67774,1,0,0:0:0:0:
329,192,67774,128,0,68116:0:0:0:0:
475,192,67945,1,0,0:0:0:0:
402,192,67945,128,0,68287:0:0:0:0:
256,192,68116,1,0,0:0:0:0:
182,192,68116,128,0,68458:0:0:0:0:
329,192,68287,1,0,0:0:0:0:
256,192,68287,128,0,68628:0:0:0:0:
109,192,68458,1,0,0:0:0:0:
36,192,68458,128,0,68799:0:0:0:0:
182,192,68628,1,0,0:0:0:0:
109,192,68628,128,0,68970:0:0:0:0:
256,192,68799,1,0,0:0:0:0:
182,192,68799,128,0,69141:0:0:0:0:
329,192,68970,1,0,0:0:0:0:
256,192,68970,128,0,69312:0:0:0:0:
402,192,69141,1,0,0:0:0:0:
329,192,69141,128,0,69483:0:0:0:0:
475,192,69312,1,0,0:0:0:0:
402,192,69312,128,0,69654:0:0:0:0:
475,192,69483,128,0,69825:0:0:0:0:
36,192,69654,1,0,0:0:0:0:
109,192,69825,1,0,0:0:0:0:
36,192,69825,128,0,70167:0:0:0:0:
182,192,69996,1,0,0:0:0:0:
109,192,69996,128,0,70338:0:0:0:0:
256,192,70167,1,0,0:0:0:0:
182,192,70167,128,0,70509:0:0:0:0:
329,192,70338,1,0,0:0:0:0:
256,192,70338,128,0,70680:0:0:0:0:
402,192,70509,1,0,0:0:0:0:
329,192,70509,128,0,70851:0:0:0:0:
475,192,70680,1,0,0:0:0:0:
402,192,70680,128,0,71022:0:0:0:0:
475,192,70851,128,0,71193:0:0:0:0:
36,192,71022,1,0,0:0:0:0:
109,192,71193,1,0,0:0:0:0:
182,192,71193,1,0,0:0:0:0:
36,192,71193,128,0,71534:0:0:0:0:
182,192,71364,1,0,0:0:0:0:
256,192,71364,1,0,0:0:0:0:
109,192,71364,128,0,71705:0:0:0:0:
256,192,71534,1,0,0:0:0:0:
329,192,71534,1,0,0:0:0:0:
182,192,71534,128,0,71876:0:0:0:0:
329,192,71705,1,0,0:0:0:0:
402,192,71705,1,0,0:0:0:0:
256,192,71705,128,0,72047:0:0:0:0:
329,192,72047,1,0,0:0:0:0:
402,192,72047,1,0,0:0:0:0:
475,192,72047,1,0,0:0:0:0:
329,192,72389,1,0,0:0:0:0:
402,192,72389,1,0,0:0:0:0:
475,192,72389,1,0,0:0:0:0:
109,192,72560,1,0,0:0:0:0:
182,192,72560,1,0,0:0:0:0:
36,192,72560,128,0,72902:0:0:0:0:
182,192,72731,1,0,0:0:0:0:
256,192,72731,1,0,0:0:0:0:
109,192,72731,128,0,73073:0:0:0:0:
256,192,72902,1,0,0:0:0:0:
329,192,72902,1,0,0:0:0:0:
182,192,72902,128,0,73244:0:0:0:0:
329,192,73073,1,0,0:0:0:0:
402,192,73073,1,0,0:0:0:0:
256,192,73073,128,0,73415:0:0:0:0:
329,192,73415,1,0,0:0:0:0:
402,192,73415,1,0,0:0:0:0:
475,192,73415,1,0,0:0:0:0:
329,192,73757,1,0,0:0:0:0:
402,192,73757,1,0,0:0:0:0:
475,192,73757,1,0,0:0:0:0:
182,192,73928,1,0,0:0:0:0:
109,192,73928,1,0,0:0:0:0:
36,192,73928,128,0,74269:0:0:0:0:
256,192,74099,1,0,0:0:0:0:
182,192,74099,1,0,0:0:0:0:
109,192,74099,128,0,74440:0:0:0:0:
329,192,74269,1,0,0:0:0:0:
256,192,74269,1,0,0:0:0:0:
182,192,74269,128,0,74611:0:0:0:0:
402,192,74440,1,0,0:0:0:0:
329,192,74440,1,0,0:0:0:0:
256,192,74440,128,0,74782:0:0:0:0:
475,192,74782,1,0,0:0:0:0:
402,192,74782,1,0,0:0:0:0:
329,192,74782,1,0,0:0:0:0:
475,192,75124,1,0,0:0:0:0:
402,192,75124,1,0,0:0:0:0:
329,192,75124,1,0,0:0:0:0:
182,192,75466,1,0,0:0:0:0:
36,192,75466,1,0,0:0:0:0:
109,192,75466,1,0,0:0:0:0:
329,192,75637,1,0,0:0:0:0:
402,192,75637,1,0,0:0:0:0:
475,192,75637,1,0,0:0:0:0:
