osu file format v14

[General]
AudioFilename: audio.mp3
AudioLeadIn: 0
PreviewTime: 42663
Countdown: 0
SampleSet: Soft
StackLeniency: 0.2
Mode: 0
LetterboxInBreaks: 0
WidescreenStoryboard: 0

[Editor]
DistanceSpacing: 1.5
BeatDivisor: 4
GridSize: 16
TimelineZoom: 1

[Metadata]
Title:World Summit
TitleUnicode:World Summit
Artist:Modulation
ArtistUnicode:Modulation
Creator:X4D
Version:Unity
Source:
Tags:cut short version electro house original mix
BeatmapID:1899331
BeatmapSetID:910166

[Difficulty]
HPDrainRate:6
CircleSize:4
OverallDifficulty:9
ApproachRate:9.3
SliderMultiplier:1.4
SliderTickRate:1

[Events]
//Background and Video events
0,0,"mod.jpg",0,0
//Break Periods
2,20832,21953
2,28332,29453
2,35832,42109
//Storyboard Layer 0 (Background)
//Storyboard Layer 1 (Fail)
//Storyboard Layer 2 (Pass)
//Storyboard Layer 3 (Foreground)
//Storyboard Sound Samples

[TimingPoints]
7,468.75,4,2,1,75,1,0
42663,-50,4,2,1,75,0,0
43014,-50,4,2,1,5,0,0
43132,-25,4,2,1,75,0,1
43483,-25,4,2,1,5,0,0
43600,-28.5714285714286,4,2,1,75,0,0
43952,-28.5714285714286,4,2,1,5,0,0
44069,-33.3333333333333,4,2,1,75,0,0
44421,-33.3333333333333,4,2,1,5,0,0
44538,-100,4,2,1,75,0,0
44889,-100,4,2,1,5,0,0
45007,-33.3333333333333,4,2,1,75,0,0
45358,-33.3333333333333,4,2,1,5,0,0
45475,-28.5714285714286,4,2,1,75,0,0
45827,-28.5714285714286,4,2,1,5,0,0
45944,-33.3333333333333,4,2,1,75,0,0
46296,-33.3333333333333,4,2,1,5,0,0
46413,-100,4,2,1,75,0,0
46764,-100,4,2,1,5,0,0
46882,-33.3333333333333,4,2,1,75,0,0
47233,-33.3333333333333,4,2,1,5,0,0
47350,-200,4,2,1,75,0,0
47702,-200,4,2,1,5,0,0
47819,-33.3333333333333,4,2,1,75,0,0
48170,-33.3333333333333,4,2,1,5,0,0
48287,-50,4,2,1,75,0,0
48464,-50,4,2,1,5,0,0
48522,-50,4,2,1,75,0,0
48698,-50,4,2,1,5,0,0
48757,-33.3333333333333,4,2,1,75,0,0
49108,-33.3333333333333,4,2,1,5,0,0
49225,-33.3333333333333,4,2,1,75,0,0
49577,-33.3333333333333,4,2,1,5,0,0
49694,-66.6666666666667,4,2,1,75,0,0
50339,-66.6666666666667,4,2,1,5,0,0
50397,-250,4,2,1,75,0,0
50573,-250,4,2,1,5,0,0
50632,-25,4,2,1,75,0,1
50983,-25,4,2,1,5,0,0
51100,-28.5714285714286,4,2,1,75,0,0
51452,-28.5714285714286,4,2,1,5,0,0
51569,-33.3333333333333,4,2,1,75,0,0
51921,-33.3333333333333,4,2,1,5,0,0
52038,-100,4,2,1,75,0,0
52389,-100,4,2,1,5,0,0
52507,-33.3333333333333,4,2,1,75,0,0
52858,-33.3333333333333,4,2,1,5,0,0
52975,-28.5714285714286,4,2,1,75,0,0
53327,-28.5714285714286,4,2,1,5,0,0
53444,-33.3333333333333,4,2,1,75,0,0
53796,-33.3333333333333,4,2,1,5,0,0
53913,-100,4,2,1,75,0,0
54264,-100,4,2,1,5,0,0
54382,-33.3333333333333,4,2,1,75,0,0
54733,-33.3333333333333,4,2,1,5,0,0
54850,-200,4,2,1,75,0,0
55202,-200,4,2,1,5,0,0
55319,-33.3333333333333,4,2,1,75,0,0
55495,-33.3333333333333,4,2,1,5,0,0
55553,-33.3333333333333,4,2,1,75,0,0
55729,-33.3333333333333,4,2,1,5,0,0
55787,-50,4,2,1,75,0,0
55964,-50,4,2,1,5,0,0
56022,-250,4,2,1,75,0,0
56198,-50,4,2,1,5,0,0
56257,-33.3333333333333,4,2,1,75,0,0
57663,-100,4,2,1,40,0,0
58073,-250,4,2,1,5,0,0
58132,-25,4,2,1,75,0,1
58483,-25,4,2,1,5,0,0
58600,-28.5714285714286,4,2,1,75,0,0
58952,-28.5714285714286,4,2,1,5,0,0
59069,-33.3333333333333,4,2,1,75,0,0
59421,-33.3333333333333,4,2,1,5,0,0
59538,-100,4,2,1,75,0,0
59889,-100,4,2,1,5,0,0
60007,-33.3333333333333,4,2,1,75,0,0
60358,-33.3333333333333,4,2,1,5,0,0
60475,-28.5714285714286,4,2,1,75,0,0
60827,-28.5714285714286,4,2,1,5,0,0
60944,-33.3333333333333,4,2,1,75,0,0
61296,-33.3333333333333,4,2,1,5,0,0
61413,-100,4,2,1,75,0,0
61764,-100,4,2,1,5,0,0
61882,-33.3333333333333,4,2,1,75,0,0
62233,-33.3333333333333,4,2,1,5,0,0
62350,-200,4,2,1,75,0,0
62702,-200,4,2,1,5,0,0
62819,-33.3333333333333,4,2,1,75,0,0
63170,-33.3333333333333,4,2,1,5,0,0
63287,-50,4,2,1,75,0,0
63464,-50,4,2,1,5,0,0
63522,-50,4,2,1,75,0,0
63698,-50,4,2,1,5,0,0
63757,-33.3333333333333,4,2,1,75,0,0
64108,-33.3333333333333,4,2,1,5,0,0
64225,-33.3333333333333,4,2,1,75,0,0
64577,-33.3333333333333,4,2,1,5,0,0
64694,-66.6666666666667,4,2,1,75,0,0
65339,-66.6666666666667,4,2,1,5,0,0
65397,-250,4,2,1,75,0,0
65573,-250,4,2,1,5,0,0
65632,-25,4,2,1,75,0,1
65983,-25,4,2,1,5,0,0
66100,-28.5714285714286,4,2,1,75,0,0
66452,-28.5714285714286,4,2,1,5,0,0
66569,-33.3333333333333,4,2,1,75,0,0
66921,-33.3333333333333,4,2,1,5,0,0
67038,-100,4,2,1,75,0,0
67389,-100,4,2,1,5,0,0
67507,-33.3333333333333,4,2,1,75,0,0
67858,-33.3333333333333,4,2,1,5,0,0
67975,-28.5714285714286,4,2,1,75,0,0
68327,-28.5714285714286,4,2,1,5,0,0
68444,-33.3333333333333,4,2,1,75,0,0
68796,-33.3333333333333,4,2,1,5,0,0
68913,-100,4,2,1,75,0,0
69264,-100,4,2,1,5,0,0
69382,-133.333333333333,4,2,1,75,0,0
71960,-200,4,2,1,75,0,0
72135,-200,4,2,1,5,0,0
72194,-66.6666666666667,4,2,1,75,0,0
72663,-50,4,2,1,75,0,0
73014,-50,4,2,1,5,0,0
73132,-50,4,2,1,75,0,0
73307,-50,4,2,1,5,0,0
73366,-50,4,2,1,75,0,0
73542,-50,4,2,1,5,0,0
73601,-50,4,2,1,75,0,0
73776,-50,4,2,1,5,0,0
73835,-50,4,2,1,75,0,0
74010,-50,4,2,1,5,0,0
74069,-50,4,2,1,75,0,0
75182,-50,4,2,1,5,0,0
75241,-50,4,2,1,75,0,0
75417,-50,4,2,1,5,0,0
75476,-50,4,2,1,75,0,0
75651,-50,4,2,1,5,0,0
75710,-50,4,2,1,75,0,0
75885,-50,4,2,1,5,0,0
75944,-50,4,2,1,75,0,0
76120,-50,4,2,1,5,0,0
76178,-50,4,2,1,75,0,0
76354,-50,4,2,1,5,0,0
76413,-28.5714285714286,4,2,1,75,0,0
76764,-50,4,2,1,5,0,0
76882,-50,4,2,1,75,0,0
77057,-50,4,2,1,5,0,0
77116,-50,4,2,1,75,0,0
77292,-50,4,2,1,5,0,0
77351,-50,4,2,1,75,0,0
77526,-50,4,2,1,5,0,0
77585,-50,4,2,1,75,0,0
77760,-50,4,2,1,5,0,0
77819,-50,4,2,1,75,0,0
78932,-50,4,2,1,5,0,0
78991,-50,4,2,1,75,0,0
79167,-50,4,2,1,5,0,0
79226,-50,4,2,1,75,0,0
79401,-50,4,2,1,5,0,0
79460,-50,4,2,1,75,0,0
79635,-50,4,2,1,5,0,0
79694,-33.3333333333333,4,2,1,75,0,0
80046,-33.3333333333333,4,2,1,5,0,0
80163,-50,4,2,1,75,0,0
80339,-50,4,2,1,5,0,0
80397,-50,4,2,1,75,0,0
80573,-50,4,2,1,5,0,0
80632,-50,4,2,1,75,0,0
80807,-50,4,2,1,5,0,0
80866,-50,4,2,1,75,0,0
81042,-50,4,2,1,5,0,0
81101,-50,4,2,1,75,0,0
81276,-50,4,2,1,5,0,0
81335,-50,4,2,1,75,0,0
81510,-50,4,2,1,5,0,0
81569,-50,4,2,1,75,0,0
82682,-50,4,2,1,5,0,0
82741,-50,4,2,1,75,0,0
82917,-50,4,2,1,5,0,0
82976,-50,4,2,1,75,0,0
83151,-50,4,2,1,5,0,0
83210,-50,4,2,1,75,0,0
83385,-50,4,2,1,5,0,0
83444,-50,4,2,1,75,0,0
83620,-50,4,2,1,5,0,0
83678,-50,4,2,1,75,0,0
83854,-50,4,2,1,5,0,0
83913,-50,4,2,1,75,0,0
84264,-50,4,2,1,5,0,0
84382,-50,4,2,1,75,0,0
85319,-33.3333333333333,4,2,1,75,0,0
86257,-66.6666666666667,4,2,1,75,0,0
88132,-50,4,2,1,75,0,0
88307,-50,4,2,1,5,0,0
88366,-50,4,2,1,75,0,0
88542,-50,4,2,1,5,0,0
88601,-50,4,2,1,75,0,0
88776,-50,4,2,1,5,0,0
88835,-50,4,2,1,75,0,0
89010,-50,4,2,1,5,0,0
89069,-50,4,2,1,75,0,0
90182,-50,4,2,1,5,0,0
90241,-50,4,2,1,75,0,0
90417,-50,4,2,1,5,0,0
90476,-50,4,2,1,75,0,0
90651,-50,4,2,1,5,0,0
90710,-50,4,2,1,75,0,0
90885,-50,4,2,1,5,0,0
90944,-50,4,2,1,75,0,0
91120,-50,4,2,1,5,0,0
91178,-50,4,2,1,75,0,0
91354,-50,4,2,1,5,0,0
91413,-28.5714285714286,4,2,1,75,0,0
91764,-50,4,2,1,5,0,0
91882,-50,4,2,1,75,0,0
92057,-50,4,2,1,5,0,0
92116,-50,4,2,1,75,0,0
92292,-50,4,2,1,5,0,0
92351,-50,4,2,1,75,0,0
92526,-50,4,2,1,5,0,0
92585,-50,4,2,1,75,0,0
92760,-50,4,2,1,5,0,0
92819,-50,4,2,1,75,0,0
93932,-50,4,2,1,5,0,0
93991,-50,4,2,1,75,0,0
94167,-50,4,2,1,5,0,0
94226,-50,4,2,1,75,0,0
94401,-50,4,2,1,5,0,0
94460,-50,4,2,1,75,0,0
94635,-50,4,2,1,5,0,0
94694,-33.3333333333333,4,2,1,75,0,0
95046,-33.3333333333333,4,2,1,5,0,0
95163,-50,4,2,1,75,0,0
95339,-50,4,2,1,5,0,0
95397,-50,4,2,1,75,0,0
95573,-50,4,2,1,5,0,0
95632,-50,4,2,1,75,0,0
95807,-50,4,2,1,5,0,0
95866,-50,4,2,1,75,0,0
96042,-50,4,2,1,5,0,0
96101,-50,4,2,1,75,0,0
96276,-50,4,2,1,5,0,0
96335,-50,4,2,1,75,0,0
96510,-50,4,2,1,5,0,0
96569,-50,4,2,1,75,0,0
97682,-50,4,2,1,5,0,0
97741,-50,4,2,1,75,0,0
97917,-50,4,2,1,5,0,0
97976,-50,4,2,1,75,0,0
98151,-50,4,2,1,5,0,0
98210,-50,4,2,1,75,0,0
98385,-50,4,2,1,5,0,0
98444,-50,4,2,1,75,0,0
98620,-50,4,2,1,5,0,0
98678,-50,4,2,1,75,0,0
98854,-50,4,2,1,5,0,0
98913,-33.3333333333333,4,2,1,75,0,0
99264,-50,4,2,1,5,0,0
99382,-50,4,2,1,75,0,0
100319,-50,4,2,1,75,0,0
100788,-66.6666666666667,4,2,1,75,0,0
101257,-66.6666666666667,4,2,1,75,0,0

[Colours]
Combo1 : 26,197,253
Combo2 : 85,251,189
Combo3 : 255,74,74
Combo4 : 181,17,242
SliderBorder : 195,195,195

[HitObjects]
256,192,5866,12,0,13132,0:0:0:0:
256,192,13190,12,4,20632,1:2:0:0:
221,83,22507,6,0,B|175:65|175:65|187:132|187:132|195:140|195:140|213:226,1,210,4|0,1:2|0:0,0:0:0:0:
307,325,23444,2,0,B|323:245|323:245|331:237|331:237|343:170|343:170|297:188,1,210,4|0,1:2|0:0,0:0:0:0:
193,317,24382,5,4,1:2:0:0:
256,192,24440,12,4,28132,1:2:0:0:
134,128,30007,6,0,B|202:123|202:123|208:130|208:130|301:125|301:125|247:169,1,210,4|0,1:2|0:0,0:0:0:0:
196,232,30944,2,0,B|165:256|165:256|258:251|258:251|264:258|264:258|332:253,1,210,4|0,1:2|0:0,0:0:0:0:
434,187,31882,5,4,1:2:0:0:
256,192,31940,12,4,35632,0:2:0:0:
426,64,42663,6,0,B|454:45|454:45|453:154|453:154|418:134|377:133,1,210,10|0,0:0|0:0,0:0:0:0:
321,166,43132,6,0,B|285:134|285:134|275:223|275:223|283:238|283:238|263:376|263:376|212:311|108:324,1,420,4|0,1:2|0:0,0:0:0:0:
29,275,43600,6,0,B|52:224|52:224|150:209|150:209|172:222|172:222|259:209|259:209|264:263|323:302,1,367.500003504753,10|0,1:2|0:0,0:0:0:0:
153,322,44069,6,0,B|134:294|106:291|106:291|96:232|96:232|118:193|118:193|109:135|109:135|155:117|214:133,1,315.000012016297,0|0,1:2|0:0,0:0:0:0:
260,61,44538,6,0,P|316:73|384:67,1,105,10|0,1:2|0:0,0:0:0:0:
476,151,45007,6,0,P|391:108|396:259,1,315.000012016297,0|0,1:2|0:0,0:0:0:0:
469,346,45475,6,0,P|443:236|310:355,1,367.500003504753,10|0,1:2|0:0,0:0:0:0:
320,143,45944,6,0,B|109:107|241:236|8:205,1,315.000012016297,0|0,1:2|0:0,0:0:0:0:
82,124,46413,6,0,B|60:74|60:74|78:9,1,105,10|0,1:2|0:0,0:0:0:0:
166,70,46882,6,0,B|162:185|162:185|158:190|158:190|153:322|153:322|159:284|185:260,1,315.000012016297,0|0,1:2|0:0,0:0:0:0:
255,216,47350,6,0,P|286:212|315:213,1,52.5000020027161,10|0,1:2|0:0,0:0:0:0:
412,317,47819,6,0,B|431:334|437:372|437:372|432:240|432:240|428:235|428:235|424:120,1,315.000012016297,0|0,1:2|0:0,0:0:0:0:
362,70,48288,6,0,P|313:52|265:71,1,105.000004005432,10|0,1:2|0:0,0:0:0:0:
266,70,48522,2,0,P|313:88|362:71,1,105.000004005432,10|0,1:2|0:0,0:0:0:0:
265,70,48757,6,0,B|261:185|261:185|257:190|257:190|252:322|252:322|258:284|284:260,1,315.000012016297,0|0,1:2|0:0,0:0:0:0:
412,317,49225,6,0,B|431:334|437:372|437:372|432:240|432:240|428:235|428:235|424:120,1,315.000012016297,10|0,1:2|0:0,0:0:0:0:
362,70,49694,5,0,1:2:0:0:
484,42,49811,2,0,L|357:36,1,105.000004005432,0|0,0:0|0:0,0:0:0:0:
179,25,50163,6,0,L|92:20,1,78.7500030040742,10|0,1:2|0:0,0:0:0:0:
70,131,50397,6,0,L|48:132,1,21
166,217,50632,6,0,B|141:177|141:177|248:180|248:180|261:199|261:199|374:203|374:203|301:246|292:324,1,420,4|0,1:2|0:0,0:0:0:0:
434,257,51100,6,0,B|477:189|423:131|423:131|302:127|302:127|290:114|263:105|263:105|163:102,1,367.500003504753,10|0,1:2|0:0,0:0:0:0:
106,319,51569,6,0,B|153:286|153:286|124:196|124:196|135:171|135:171|87:101|138:36,1,315.000012016297,0|0,1:2|0:0,0:0:0:0:
226,29,52038,6,0,L|350:34,1,105,10|0,1:2|0:0,0:0:0:0:
476,89,52507,6,0,P|390:93|447:256,1,315.000012016297,0|0,1:2|0:0,0:0:0:0:
437,168,52975,6,0,P|366:92|261:270,1,367.500003504753,10|0,1:2|0:0,0:0:0:0:
351,308,53444,6,0,B|165:249|255:403|34:333,1,315.000012016297,0|0,1:2|0:0,0:0:0:0:
25,260,53913,6,0,B|42:208|42:208|30:156,1,105,10|0,1:2|0:0,0:0:0:0:
97,86,54382,6,0,B|83:47|83:47|147:23|213:46|213:46|212:56|212:56|280:93|345:64,1,315.000012016297,0|0,1:2|0:0,0:0:0:0:
424,100,54850,6,0,B|431:129|431:129|422:157,1,52.5,10|0,1:2|0:0,0:0:0:0:
262,239,55319,6,0,L|444:220,1,157.500006008148,0|0,1:2|0:0,0:0:0:0:
418,222,55553,6,0,L|262:239,1,157.500006008148,0|0,1:2|0:0,0:0:0:0:
161,295,55788,6,0,P|183:244|160:175,1,105,10|0,1:2|0:0,0:0:0:0:
112,148,56022,6,0,L|117:124,1,21,0|0,0:0|0:0,0:0:0:0:
165,48,56257,6,0,P|138:36|71:46,2,70.0000026702882,4|0|0,1:2|0:0|0:0,0:0:0:0:
240,123,56491,6,0,P|274:123|306:110,2,70.0000026702882,0|0|0,0:0|0:0|0:0,0:0:0:0:
296,22,56725,5,0,0:0:0:0:
388,58,56803,1,0,0:0:0:0:
393,157,56881,1,0,0:0:0:0:
332,249,56960,6,0,L|334:334,2,70.0000026702882,4|0|0,1:2|0:0|0:0,0:0:0:0:
237,192,57194,6,0,L|239:122,2,70.0000026702882,0|0|0,0:0|0:0|0:0,0:0:0:0:
180,295,57428,5,0,0:0:0:0:
88,259,57506,1,0,0:0:0:0:
83,160,57584,1,0,0:0:0:0:
49,45,57663,6,0,B|97:27|139:31|139:31|177:56,1,122.5,0|0,1:0|0:0,0:0:0:0:
238,122,58132,6,0,B|178:84|178:84|171:198|171:198|186:227|186:227|176:328|176:328|211:283|264:285,1,420,4|0,1:2|0:0,0:0:0:0:
412,351,58600,6,0,B|370:326|370:326|338:261|365:210|365:210|343:154|343:154|410:96|378:10,1,367.500003504753,10|0,1:2|0:0,0:0:0:0:
292,68,59069,6,0,B|191:58|191:58|172:71|172:71|72:65|72:65|128:78|155:131,1,315.000012016297,0|0,1:2|0:0,0:0:0:0:
51,165,59538,6,0,P|41:224|55:273,1,105,10|0,1:2|0:0,0:0:0:0:
219,287,60007,6,0,P|149:214|132:358,1,315.000012016297,0|0,1:2|0:0,0:0:0:0:
357,330,60475,6,0,P|369:211|227:305,1,367.500003504753,10|0,1:2|0:0,0:0:0:0:
459,342,60944,6,0,B|496:238|445:160|445:160|394:88|427:16,1,315.000012016297,0|0,1:2|0:0,0:0:0:0:
326,42,61413,6,0,B|275:59|275:59|218:48,1,105,10|0,1:2|0:0,0:0:0:0:
89,49,61882,6,0,B|127:7|127:7|110:59|133:104|133:104|122:120|122:120|164:194|124:261,1,315.000012016297,0|0,1:2|0:0,0:0:0:0:
42,317,62350,6,0,P|87:315|97:316,1,52.5,10|0,1:2|0:0,0:0:0:0:
216,322,62819,6,0,B|254:364|254:364|237:312|260:267|260:267|249:251|249:251|291:177|251:110,1,315.000012016297,0|0,1:2|0:0,0:0:0:0:
326,42,63288,6,0,L|430:48,1,105,10|0,1:2|0:0,0:0:0:0:
430,48,63522,2,0,L|326:42,1,105,10|0,1:2|0:0,0:0:0:0:
430,48,63757,6,0,B|468:6|468:6|451:58|474:103|474:103|463:119|463:119|505:193|465:260,1,315.000012016297,0|0,1:2|0:0,0:0:0:0:
393,330,64225,6,0,B|355:372|355:372|372:320|349:275|349:275|360:259|360:259|318:185|358:118,1,315.000012016297,10|0,1:2|0:0,0:0:0:0:
255,118,64694,5,0,1:2:0:0:
187,161,64811,2,0,P|137:164|80:162,1,105.000004005432,0|0,0:0|0:0,0:0:0:0:
16,76,65163,6,0,P|58:57|73:89,1,78.7500030040742,10|0,1:2|0:0,0:0:0:0:
166,31,65397,6,0,P|177:36|181:27,1,21,0|0,0:0|0:0,0:0:0:0:
255,118,65632,6,0,B|259:165|259:165|255:176|255:176|260:218|260:218|257:227|257:227|263:282|263:282|272:236|323:218|323:218|329:222|329:222|382:216|412:263|412:263|380:285|346:284,1,420,4|0,1:2|0:0,0:0:0:0:
257,384,66100,6,0,B|237:347|190:338|190:338|184:278|184:278|188:269|188:269|182:216|182:216|187:209|187:209|183:155|183:155|186:146|186:146|183:96|183:96|139:149,1,367.500003504753,10|0,1:2|0:0,0:0:0:0:
31,266,66569,6,0,B|70:233|70:233|66:179|66:179|59:171|59:171|53:112|53:112|59:103|59:103|54:34|54:34|86:85,1,315.000012016297,0|0,1:2|0:0,0:0:0:0:
142,25,67038,6,0,P|182:17|252:35,1,105,10|0,1:2|0:0,0:0:0:0:
390,64,67507,6,0,P|283:49|322:199,1,315.000012016297,0|0,1:2|0:0,0:0:0:0:
420,318,67975,6,0,P|350:206|240:360,1,367.500003504753,10|0,1:2|0:0,0:0:0:0:
321,300,68444,6,0,B|128:271|230:373|13:349,1,315.000012016297,0|0,1:2|0:0,0:0:0:0:
12,260,68913,6,0,B|64:238|64:238|114:260,1,105,10|0,1:2|0:0,0:0:0:0:
176,208,69382,6,0,L|167:177,1,26.2500010013581,4|0,1:2|0:0,0:0:0:0:
256,167,69616,6,0,L|255:135,1,26.2500010013581,0|0,0:0|0:0,0:0:0:0:
336,208,69851,6,0,L|342:182,1,26.2500010013581,0|0,3:2|0:0,0:0:0:0:
171,92,70085,6,0,L|158:45,1,26.2500010013581,4|0,1:2|0:0,0:0:0:0:
257,56,70319,6,0,L|256:8,1,26.2500010013581,0|0,0:0|0:0,0:0:0:0:
343,92,70553,6,0,L|355:45,1,26.2500010013581,0|0,3:2|0:0,0:0:0:0:
176,208,70788,6,0,L|167:177,1,26.2500010013581,4|0,1:2|0:0,0:0:0:0:
336,208,71022,6,0,L|342:182,1,26.2500010013581,0|0,0:0|0:0,0:0:0:0:
171,292,71257,6,0,L|158:338,1,26.2500010013581,4|0,1:2|0:0,0:0:0:0:
257,328,71491,6,0,L|256:375,1,26.2500010013581,0|0,0:0|0:0,0:0:0:0:
343,292,71725,6,0,L|355:338,1,26.2500010013581,0|0,3:2|0:0,0:0:0:0:
171,292,71960,6,0,L|158:338,1,26.2500010013581,0|0,3:2|0:0,0:0:0:0:
257,328,72194,1,0,0:0:0:0:
257,328,72311,6,0,L|256:208,1,105.000004005432
248,57,72663,6,0,B|236:97|192:120|192:120|257:84|327:123,1,210.000008010865,10|0,0:0|0:0,0:0:0:0:
435,208,73132,6,0,L|426:81,1,105,4|0,1:2|0:0,0:0:0:0:
427,103,73366,2,0,L|435:208,1,105,0|0,0:0|0:0,0:0:0:0:
349,287,73600,6,0,L|356:182,1,105,10|0,1:2|0:0,0:0:0:0:
356,182,73835,2,0,L|348:286,1,105,0|0,0:0|0:0,0:0:0:0:
280,346,74069,5,0,1:2:0:0:
263,257,74186,1,0,0:0:0:0:
178,228,74303,1,0,3:0:0:0:
110,288,74421,1,0,0:0:0:0:
27,259,74538,5,10,1:2:0:0:
9,170,74656,1,0,0:0:0:0:
76,110,74773,1,0,3:0:0:0:
162,140,74890,1,0,0:0:0:0:
231,80,75007,6,0,P|283:77|335:79,1,105,0|0,1:2|0:0,0:0:0:0:
335,79,75241,2,0,P|283:77|231:81,1,105,0|0,0:0|0:0,0:0:0:0:
291,170,75475,6,0,P|343:166|395:168,1,105,10|0,1:2|0:0,0:0:0:0:
395,169,75709,2,0,P|342:166|290:170,1,105,0|0,0:0|0:0,0:0:0:0:
350,260,75944,6,0,P|402:256|454:258,1,105,0|0,1:2|0:0,0:0:0:0:
454,259,76178,2,0,P|401:256|349:260,1,105,0|0,0:0|0:0,0:0:0:0:
290,330,76413,6,0,B|287:263|209:232|150:265|150:265|145:323|97:346|44:356|6:311,1,367.500003504753,10|0,1:2|0:0,0:0:0:0:
68,258,76882,6,0,L|71:140,1,105,0|0,1:2|0:0,0:0:0:0:
52,124,77116,2,0,L|170:127,1,105,0|0,0:0|0:0,0:0:0:0:
259,169,77350,6,0,L|256:51,1,105,10|0,1:2|0:0,0:0:0:0:
275,35,77584,2,0,L|157:38,1,105,0|0,0:0|0:0,0:0:0:0:
81,20,77819,5,0,1:2:0:0:
170,37,77936,1,0,0:0:0:0:
199,122,78053,1,0,3:0:0:0:
139,190,78171,1,0,0:0:0:0:
168,273,78288,5,10,1:2:0:0:
257,291,78406,1,0,0:0:0:0:
317,224,78523,1,0,3:0:0:0:
287,138,78640,1,0,0:0:0:0:
347,71,78757,6,0,P|392:66|461:77,1,105,0|0,1:2|0:0,0:0:0:0:
487,72,78991,2,0,P|482:117|493:186,1,105,0|0,0:0|0:0,0:0:0:0:
439,254,79225,6,0,P|394:259|325:248,1,105,10|0,1:2|0:0,0:0:0:0:
299,253,79459,2,0,P|304:208|293:139,1,105,0|0,0:0|0:0,0:0:0:0:
220,85,79694,6,0,B|163:52|163:52|72:93|91:232|162:298,1,315.000012016297,0|0,1:2|0:0,0:0:0:0:
231,335,80163,6,0,L|126:343,1,105,10|0,1:2|0:0,0:0:0:0:
126,343,80397,6,0,L|231:335,1,105,0|0,0:0|0:0,0:0:0:0:
299,253,80632,6,0,P|345:244|408:261,1,105,4|0,1:2|0:0,0:0:0:0:
404,277,80866,2,0,P|358:286|295:269,1,105,0|0,0:0|0:0,0:0:0:0:
230,187,81100,6,0,P|184:178|121:195,1,105,10|0,1:2|0:0,0:0:0:0:
125,211,81334,2,0,P|171:220|234:203,1,105,0|0,0:0|0:0,0:0:0:0:
198,103,81569,5,0,1:2:0:0:
287,118,81686,1,0,0:0:0:0:
319,202,81803,1,0,3:0:0:0:
262,271,81921,1,0,0:0:0:0:
294,355,82037,5,10,1:2:0:0:
383,370,82154,1,0,0:0:0:0:
440,301,82272,1,0,3:0:0:0:
408,217,82389,1,0,0:0:0:0:
465,148,82507,6,0,L|458:37,1,105,0|0,1:2|0:0,0:0:0:0:
441,41,82741,2,0,L|447:145,1,105,0|0,0:0|0:0,0:0:0:0:
364,120,82975,6,0,L|357:9,1,105,10|0,1:2|0:0,0:0:0:0:
340,13,83209,2,0,L|346:117,1,105,0|0,0:0|0:0,0:0:0:0:
266,170,83444,6,0,L|259:59,1,105,0|0,1:2|0:0,0:0:0:0:
242,63,83678,2,0,L|248:167,1,105,0|0,0:0|0:0,0:0:0:0:
187,237,83913,5,10,1:2:0:0:
164,165,84030,2,0,P|119:201|130:290,1,140,0|0,0:0|0:0,0:0:0:0:
248,343,84382,6,0,L|312:340,2,46.6666666666667,0|0|0,1:2|0:0|0:0,0:0:0:0:
332,224,84616,6,0,L|310:265,2,46.6666666666667,0|0|0,0:0|0:0|0:0,0:0:0:0:
378,306,84850,6,0,L|424:303,2,46.6666666666667,10|0|0,1:2|0:0|0:0,0:0:0:0:
477,180,85085,6,0,L|455:221,2,46.6666666666667,0|0|0,0:0|0:0|0:0,0:0:0:0:
423,77,85319,6,0,P|377:69|323:73,2,70.0000026702882,0|0|0,1:2|0:0|0:0,0:0:0:0:
294,16,85553,6,0,P|255:42|220:83,2,70.0000026702882,0|0|0,0:0|0:0|0:0,0:0:0:0:
159,64,85788,6,0,P|150:109|154:164,2,70.0000026702882,10|0|0,1:2|0:0|0:0,0:0:0:0:
97,193,86022,6,0,P|123:231|164:266,2,70.0000026702882,0|0|0,0:0|0:0|0:0,0:0:0:0:
144,328,86257,6,0,P|256:313|365:336,1,210.000008010865,4|0,1:2|0:0,0:0:0:0:
447,343,86960,6,0,B|391:318|391:318|354:243|387:155,1,210.000008010865,4|0,1:2|0:0,0:0:0:0:
427,105,87663,5,0,1:2:0:0:
427,105,88132,6,0,L|322:98,1,105,4|0,1:2|0:0,0:0:0:0:
322,98,88366,2,0,L|427:105,1,105,0|0,0:0|0:0,0:0:0:0:
378,9,88600,6,0,L|273:15,1,105,10|0,1:2|0:0,0:0:0:0:
273,15,88834,2,0,L|377:8,1,105,0|0,0:0|0:0,0:0:0:0:
461,28,89069,5,0,1:2:0:0:
511,96,89186,1,0,0:0:0:0:
477,173,89304,1,0,3:0:0:0:
393,182,89421,1,0,0:0:0:0:
344,117,89538,5,10,1:2:0:0:
426,106,89655,1,0,0:0:0:0:
477,173,89773,1,0,3:0:0:0:
443,251,89890,1,0,0:0:0:0:
361,262,90007,6,0,P|308:255|256:254,1,105,0|0,1:2|0:0,0:0:0:0:
256,254,90241,2,0,P|308:255|361:262,1,105,0|0,0:0|0:0,0:0:0:0:
287,339,90475,6,0,P|234:332|182:331,1,105,10|0,1:2|0:0,0:0:0:0:
182,331,90709,2,0,P|234:331|286:338,1,105,0|0,0:0|0:0,0:0:0:0:
169,255,90944,6,0,P|116:248|64:247,1,105,0|0,1:2|0:0,0:0:0:0:
64,247,91178,2,0,P|116:247|168:254,1,105,0|0,0:0|0:0,0:0:0:0:
206,121,91413,6,0,B|179:86|137:106|135:165|194:168|221:136|221:136|274:73|354:99|354:99|306:120|303:166,1,367.500003504753,10|0,1:2|0:0,0:0:0:0:
403,189,91882,6,0,P|404:247|410:300,1,105,0|0,1:2|0:0,0:0:0:0:
434,327,92116,2,0,P|376:328|323:334,1,105,0|0,0:0|0:0,0:0:0:0:
209,360,92350,6,0,P|208:302|202:249,1,105,10|0,1:2|0:0,0:0:0:0:
178,222,92584,2,0,P|236:221|289:215,1,105,0|0,0:0|0:0,0:0:0:0:
353,257,92819,5,0,1:2:0:0:
403,189,92936,1,0,0:0:0:0:
369,112,93054,1,0,3:0:0:0:
285,103,93171,1,0,0:0:0:0:
236,168,93288,5,10,1:2:0:0:
318,179,93405,1,0,0:0:0:0:
369,112,93523,1,0,3:0:0:0:
335,34,93640,1,0,0:0:0:0:
253,23,93757,6,0,L|148:30,1,105,0|0,1:2|0:0,0:0:0:0:
112,23,93991,2,0,L|119:127,1,105,0|0,0:0|0:0,0:0:0:0:
102,272,94225,6,0,L|206:264,1,105,10|0,1:2|0:0,0:0:0:0:
243,272,94459,2,0,L|235:167,1,105,0|0,0:0|0:0,0:0:0:0:
310,126,94694,6,0,B|379:92|379:92|334:209|436:209|385:339,1,315.000012016297,0|0,1:2|0:0,0:0:0:0:
308,351,95163,6,0,L|203:356,1,105,10|0,1:2|0:0,0:0:0:0:
203,356,95397,6,0,L|308:351,1,105
368,295,95632,6,0,P|360:238|369:191,1,105,4|0,1:2|0:0,0:0:0:0:
386,194,95866,2,0,P|391:245|380:296,1,105,0|0,0:0|0:0,0:0:0:0:
497,286,96100,6,0,P|483:234|485:182,1,105,10|0,1:2|0:0,0:0:0:0:
501,179,96334,2,0,P|512:229|507:281,1,105,0|0,0:0|0:0,0:0:0:0:
461,363,96569,5,0,1:2:0:0:
497,286,96686,1,0,0:0:0:0:
449,217,96804,1,0,3:0:0:0:
364,224,96921,1,0,0:0:0:0:
329,297,97038,5,10,1:2:0:0:
411,293,97155,1,0,0:0:0:0:
449,217,97273,1,0,3:0:0:0:
400,147,97390,1,0,0:0:0:0:
317,155,97507,6,0,L|195:163,1,105,0|0,1:2|0:0,0:0:0:0:
204,176,97741,2,0,L|308:169,1,105,0|0,0:0|0:0,0:0:0:0:
256,71,97975,6,0,L|134:79,1,105,10|0,1:2|0:0,0:0:0:0:
143,92,98209,2,0,L|247:85,1,105,0|0,0:0|0:0,0:0:0:0:
332,44,98444,6,0,L|436:37,1,105,0|0,1:2|0:0,0:0:0:0:
445,23,98679,2,0,L|340:29,1,105,0|0,0:0|0:0,0:0:0:0:
379,161,98913,6,0,B|431:116|431:116|415:213|415:213|428:239|428:239|423:325|423:325|392:293|366:295,1,315.000012016297,10|0,1:2|0:0,0:0:0:0:
310,294,99382,6,0,P|230:271|153:357,1,210.000008010865,4|0,1:2|0:0,0:0:0:0:
75,323,99850,2,0,L|65:102,1,210,10|0,1:2|0:0,0:0:0:0:
143,42,100319,6,0,P|201:122|299:104,1,210.000008010865,4|0,1:2|0:0,0:0:0:0:
388,70,100788,2,0,B|384:136|384:136|390:153|390:153|386:235,1,157.5,10|0,1:2|0:0,0:0:0:0:
310,294,101257,5,4,1:2:0:0:
256,192,101315,12,4,103132,0:0:0:0:
