osu file format v14

[General]
AudioFilename: audio.mp3
AudioLeadIn: 0
PreviewTime: 21706
Countdown: 0
SampleSet: Normal
StackLeniency: 0.7
Mode: 1
LetterboxInBreaks: 0
WidescreenStoryboard: 1

[Editor]
DistanceSpacing: 0.5
BeatDivisor: 8
GridSize: 16
TimelineZoom: 1.7

[Metadata]
Title:Harumachi the Madness
TitleUnicode:Harumachi the Madness
Artist:ModlesS_Flash
ArtistUnicode:ModlesS_Flash
Creator:iRedi
Version:Schizophrenia
Source:OneRoom
Tags:blackbn blackbq irone_osu irone osu japanese female vocalist vocals anime electronic remix mashup tech 花坂結衣 hanasaka yui M・A・O mao M.A.O kantoku カントク feat. feat ft. featuring 春待ちクローバー Harumachi Clover ワンルーム One Room Excision & Pegboard Nerds Bring The Madness Mayor Apeshit and ichimichi modless flash modlessflash 市道 真央
BeatmapID:4319251
BeatmapSetID:2064950

[Difficulty]
HPDrainRate:6.5
CircleSize:2
OverallDifficulty:6.5
ApproachRate:10
SliderMultiplier:1.4
SliderTickRate:1

[Events]
//Background and Video events
0,0,"harumachi.jpg",0,40
//Break Periods
//Storyboard Layer 0 (Background)
//Storyboard Layer 1 (Fail)
//Storyboard Layer 2 (Pass)
//Storyboard Layer 3 (Foreground)
//Storyboard Layer 4 (Overlay)
//Storyboard Sound Samples

[TimingPoints]
290,333.333333333333,4,1,0,70,1,0
290,-83.3333333333333,4,1,0,70,0,0
621,-100,4,1,0,70,0,0
5621,-83.3333333333333,4,1,0,70,0,0
5788,-100,4,1,0,70,0,0
8288,-83.3333333333333,4,1,0,70,0,0
8455,-100.008569714629,4,1,0,70,0,0
8786,-98.59749915512,4,1,0,70,0,0
8953,-97.2256935766058,4,1,0,70,0,0
9119,-95.8994165502506,4,1,0,70,0,0
9203,-95.2419815555374,4,1,0,70,0,0
9286,-94.6011673151751,4,1,0,70,0,0
9453,-93.3375989762457,4,1,0,70,0,0
9619,-77.7604976671851,4,1,0,70,0,0
9786,-90.9161732626987,4,1,0,70,0,0
9953,-89.7485195724064,4,1,0,70,0,0
10120,-75.2445447705041,4,1,0,70,0,0
10286,-87.5074985002999,4,1,0,70,0,0
10370,-86.9597615499255,4,1,0,70,0,0
10453,-86.4252388358143,4,1,0,70,0,0
10536,-85.8972471662005,4,1,0,70,0,0
10619,-85.3756675689517,4,1,0,70,0,0
10703,-84.8542136261179,4,1,0,70,0,0
10786,-84.3451864700781,4,1,0,70,0,0
10870,-83.8362068965517,4,1,0,70,0,0
10953,-71.4285714285714,4,1,0,70,0,0
11121,-100,4,1,0,70,0,0
15786,-100,4,1,0,70,0,0
15870,-98.3671060397403,4,1,0,70,0,0
15953,-96.7866821525358,4,1,0,70,0,0
16036,-95.2562392836731,4,1,0,70,0,0
16120,-93.7558597412338,4,1,0,70,0,0
16246,-90.9256228405165,4,1,0,75,0,0
16287,-76.9230769230769,4,1,0,75,0,0
16371,-90.9090909090909,4,1,0,75,0,0
16788,-76.9230769230769,4,1,0,75,0,0
16871,-90.9090909090909,4,1,0,75,0,0
17621,-76.9230769230769,4,1,0,75,0,0
17705,-90.9090909090909,4,1,0,75,0,0
18121,-76.9230769230769,4,1,0,75,0,0
18205,-90.9090909090909,4,1,0,75,0,0
18953,-76.9230769230769,4,1,0,75,0,0
19120,-88.8962987662554,4,1,0,75,0,0
19203,-87.922960226898,4,1,0,75,0,0
19286,-86.970705291316,4,1,0,75,0,0
19453,-85.1158929825682,4,1,0,75,0,0
19620,-83.3385432947796,4,1,0,75,0,0
19703,-82.4825196460615,4,1,0,75,0,0
19786,-81.6439027377963,4,1,0,75,0,0
19870,-80.8123673840558,4,1,0,75,0,0
19953,-80.0072024488326,4,1,0,75,0,0
20120,-78.4348337746396,4,1,0,75,0,0
20286,-76.931955906966,4,1,0,75,0,0
20370,-76.1931980565876,4,1,0,75,0,0
20453,-75.4770398052205,4,1,0,75,0,0
20536,-74.7742188814719,4,1,0,75,0,0
20620,-74.0761322589608,4,1,0,75,0,0
20704,-73.3909596432307,4,1,0,75,0,0
20787,-72.7262807572699,4,1,0,75,0,0
20870,-72.073533387402,4,1,0,75,0,0
20953,-71.4323991211618,4,1,0,75,0,0
21037,-70.795050188539,4,1,0,75,0,0
21120,-70.1763622005791,4,1,0,75,0,0
21203,-69.5683941339178,4,1,0,75,0,0
21286,-68.9708697676825,4,1,0,75,0,0
21370,-68.3765067966145,4,1,0,75,0,0
21453,-67.7991963786176,4,1,0,75,0,0
21536,-67.2315529328693,4,1,0,75,0,0
21620,-66.6666666666667,4,1,0,75,0,0
22120,-111.111111111111,4,1,0,75,0,0
22286,-104.282364556337,4,1,0,75,0,0
22453,-98.2101348210135,4,1,0,75,0,0
22620,-92.8061504667765,4,1,0,75,0,0
22786,-87.9933354160158,4,1,0,75,0,0
22956,333.333333333333,4,1,0,85,1,8
22968,333.333333333333,4,1,0,85,1,1
22968,-50,4,1,0,85,0,1
23298,-58.8235294117647,4,1,0,85,0,1
23465,-60.0880467523106,4,1,0,85,0,1
23506,-60.406853356799,4,1,0,85,0,1
23631,-61.4000473522216,4,1,0,85,0,1
23673,-61.7411316562178,4,1,0,85,0,1
23798,-62.7790628866534,4,1,0,85,0,1
23853,-63.2468904967076,4,1,0,85,0,1
23909,-63.7304426180269,4,1,0,85,0,1
23965,-64.221445670418,4,1,0,85,0,1
24131,-65.7224115112776,4,1,0,85,0,1
24187,-66.2447137626657,4,1,0,85,0,1
24242,-66.7658332856571,4,1,0,85,0,1
24298,-67.3049195455332,4,1,0,85,0,1
24465,-68.9655172413793,4,1,0,85,0,1
24631,-70.6994214400388,4,1,0,85,0,1
24687,-71.3041884336908,4,1,0,85,0,1
24742,-71.9083122804855,4,1,0,85,0,1
24798,-72.5340294611225,4,1,0,85,0,1
24964,-62.5,4,1,0,85,0,1
25020,-63.8135269392434,4,1,0,85,0,1
25076,-65.2089027723545,4,1,0,85,0,1
25131,-66.6400638467678,4,1,0,85,0,1
25298,-58.8235294117647,4,1,0,85,0,1
25353,-61.187177805542,4,1,0,85,0,1
25409,-63.7972911746571,4,1,0,85,0,1
25464,-66.5870280494865,4,1,0,85,0,1
25632,-50,4,1,0,85,0,1
25964,-58.8235294117647,4,1,0,85,0,1
26131,-60.0808632278334,4,1,0,85,0,1
26173,-60.4075502964708,4,1,0,85,0,1
26298,-61.4012001263291,4,1,0,85,0,1
26340,-61.7424442915366,4,1,0,85,0,1
26464,-62.7724264112361,4,1,0,85,0,1
26506,-63.1291265288451,4,1,0,85,0,1
26631,-64.215133081941,4,1,0,85,0,1
26673,-64.5884665430082,4,1,0,85,0,1
26798,-65.7257155735858,4,1,0,85,0,1
26840,-66.1168735475826,4,1,0,85,0,1
26964,-67.2993711417527,4,1,0,85,0,1
27131,-68.9604209157282,4,1,0,85,0,1
27173,-69.3911543380625,4,1,0,85,0,1
27298,-70.7055400654625,4,1,0,85,0,1
27464,-72.5300006217745,4,1,0,85,0,1
27506,-73.0066341219176,4,1,0,85,0,1
27631,-74.4629919249306,4,1,0,85,0,1
27673,-74.965457408181,4,1,0,85,0,1
27798,-76.5018363064008,4,1,0,85,0,1
27964,-58.8235294117647,4,1,0,85,0,1
28019,-61.1497619919443,4,1,0,85,0,1
28075,-63.7647957235586,4,1,0,85,0,1
28130,-66.5603826225588,4,1,0,85,0,1
28298,-50,4,1,0,85,0,1
28631,-58.8235294117647,4,1,0,85,0,1
28714,-59.4379761025197,4,1,0,85,0,1
28798,-60.0808632278334,4,1,0,85,0,1
28964,-61.3931212336517,4,1,0,85,0,1
29006,-61.7342753565664,4,1,0,85,0,1
29131,-62.7724264112361,4,1,0,85,0,1
29173,-63.1291265288451,4,1,0,85,0,1
29298,-64.215133081941,4,1,0,85,0,1
29340,-64.5884665430082,4,1,0,85,0,1
29464,-65.7164586913045,4,1,0,85,0,1
29506,-66.1075061630444,4,1,0,85,0,1
29633,-62.4764772299586,4,1,0,85,0,1
29689,-63.8216070742022,4,1,0,85,0,1
29744,-65.2003142183818,4,1,0,85,0,1
29800,-66.6666666666667,4,1,0,85,0,1
29964,-70.6948274294718,4,1,0,85,0,1
30133,-60.6060606060606,4,1,0,85,0,1
30189,-62.4882364012799,4,1,0,85,0,1
30244,-64.4910644910645,4,1,0,85,0,1
30300,-66.6666666666667,4,1,0,85,0,1
30464,-76.4892954329366,4,1,0,85,0,1
30631,-58.8235294117647,4,1,0,85,0,1
30687,-61.2094395280236,4,1,0,85,0,1
30742,-63.7970791698693,4,1,0,85,0,1
30798,-66.6666666666667,4,1,0,85,0,1
30965,-50,4,1,0,85,0,1
31299,-66.6666666666667,4,1,0,85,0,1
31383,-50,4,1,0,85,0,1
31798,-83.3333333333333,4,1,0,85,0,1
31881,-82.1962847279303,4,1,0,85,0,1
31964,-81.0898475510866,4,1,0,85,0,1
32131,-78.9515237644087,4,1,0,85,0,1
32214,-77.930174563591,4,1,0,85,0,1
32298,-62.5,4,1,0,85,0,1
32464,-75.007500750075,4,1,0,85,0,1
32631,-73.1743011854237,4,1,0,85,0,1
32798,-58.8235294117647,4,1,0,85,0,1
32964,-69.7739324588334,4,1,0,85,0,1
33048,-68.9655172413793,4,1,0,85,0,1
33131,-68.1849174962498,4,1,0,85,0,1
33301,-40,4,1,0,85,0,0
33634,-50,4,1,0,85,0,1
33964,-58.8235294117647,4,1,0,85,0,1
34020,-59.2342456710506,4,1,0,85,0,1
34076,-59.6583644453537,4,1,0,85,0,1
34131,-60.0808632278334,4,1,0,85,0,1
34297,-61.3931212336517,4,1,0,85,0,1
34339,-61.7342753565664,4,1,0,85,0,1
34464,-62.7724264112361,4,1,0,85,0,1
34547,-63.4812658158962,4,1,0,85,0,1
34631,-64.215133081941,4,1,0,85,0,1
34797,-65.7164586913045,4,1,0,85,0,1
34839,-66.1075061630444,4,1,0,85,0,1
34964,-67.2993711417527,4,1,0,85,0,1
35020,-67.8473797475717,4,1,0,85,0,1
35076,-68.4043863249868,4,1,0,85,0,1
35131,-68.9604209157282,4,1,0,85,0,1
35298,-70.7055400654625,4,1,0,85,0,1
35464,-72.5300006217745,4,1,0,85,0,1
35506,-73.0066341219176,4,1,0,85,0,1
35633,-62.5,4,1,0,85,0,1
35689,-63.8135269392434,4,1,0,85,0,1
35745,-65.2089027723545,4,1,0,85,0,1
35800,-66.6400638467678,4,1,0,85,0,1
35967,-58.8235294117647,4,1,0,85,0,1
36022,-61.187177805542,4,1,0,85,0,1
36078,-63.7972911746571,4,1,0,85,0,1
36133,-66.5870280494865,4,1,0,85,0,1
36298,-50,4,1,0,85,0,1
36631,-58.8235294117647,4,1,0,85,0,1
36687,-59.2342456710506,4,1,0,85,0,1
36742,-59.650737644141,4,1,0,85,0,1
36798,-60.0808632278334,4,1,0,85,0,1
36964,-61.3931212336517,4,1,0,85,0,1
37006,-61.7342753565664,4,1,0,85,0,1
37130,-62.7639826746657,4,1,0,85,0,1
37172,-63.1205865642163,4,1,0,85,0,1
37297,-64.206296785557,4,1,0,85,0,1
37339,-64.5795272103194,4,1,0,85,0,1
37464,-65.7164586913045,4,1,0,85,0,1
37506,-66.1075061630444,4,1,0,85,0,1
37630,-67.2896657148626,4,1,0,85,0,1
37797,-68.9502305237026,4,1,0,85,0,1
37839,-69.3808362576578,4,1,0,85,0,1
37964,-70.6948274294718,4,1,0,85,0,1
38130,-72.5187280469988,4,1,0,85,0,1
38172,-72.9952129157411,4,1,0,85,0,1
38297,-74.4511105437835,4,1,0,85,0,1
38339,-74.9534151513204,4,1,0,85,0,1
38464,-76.4892954329366,4,1,0,85,0,1
38633,-58.8235294117647,4,1,0,85,0,1
38687,-61.2094395280236,4,1,0,85,0,1
38742,-63.7970791698693,4,1,0,85,0,1
38798,-66.6666666666667,4,1,0,85,0,1
38963,-50,4,1,0,85,0,1
39297,-58.8235294117647,4,1,0,85,0,1
39353,-59.2340684719438,4,1,0,85,0,1
39409,-59.6580016869872,4,1,0,85,0,1
39464,-60.080313014827,4,1,0,85,0,1
39630,-61.3919722236835,4,1,0,85,0,1
39672,-61.7329665679221,4,1,0,85,0,1
39797,-62.7706209827072,4,1,0,85,0,1
39881,-63.4877458314066,4,1,0,85,0,1
39964,-64.2126114229118,4,1,0,85,0,1
40130,-65.713159524748,4,1,0,85,0,1
40172,-66.1039990936898,4,1,0,85,0,1
40297,-67.2952166767581,4,1,0,85,0,1
40353,-67.8429206755225,4,1,0,85,0,1
40409,-68.3996131641415,4,1,0,85,0,1
40464,-68.9553297092886,4,1,0,85,0,1
40630,-70.6887152462293,4,1,0,85,0,1
40798,-72.5340294611225,4,1,0,85,0,1
40880,-73.4701586502141,4,1,0,85,0,1
40964,-74.4545106545872,4,1,0,85,0,1
41048,-75.4655975168132,4,1,0,85,0,1
41130,-76.4794547480176,4,1,0,85,0,1
41297,-58.8235294117647,4,1,0,85,0,1
41353,-61.1945767680469,4,1,0,85,0,1
41409,-63.8135269392434,4,1,0,85,0,1
41464,-66.6134822497008,4,1,0,85,0,1
41630,-50,4,1,0,85,0,1
41966,-58.850193,4,1,0,85,0,1
42133,-60.373558,4,1,0,85,0,1
42216,-61.160404,4,1,0,85,0,1
42300,-61.977882,4,1,0,85,0,1
42383,-62.80738,4,1,0,85,0,1
42466,-63.65939,4,1,0,85,0,1
42522,-64.24743,4,1,0,85,0,1
42578,-64.84641,4,1,0,85,0,1
42633,-65.44569,4,1,0,85,0,1
42800,-67.33512,4,1,0,85,0,1
42883,-68.31535,4,1,0,85,0,1
42966,-69.324554,4,1,0,85,0,1
43133,-71.44823,4,1,0,85,0,1
43216,-72.55286,4,1,0,85,0,1
43383,-74.88225,4,1,0,85,0,1
43466,-76.09651,4,1,0,85,0,1
43633,-78.66303,4,1,0,85,0,1
43716,-80.004105,4,1,0,85,0,1
43800,-81.40872,4,1,0,85,0,1
43883,-82.8459,4,1,0,85,0,1
43966,-84.33474,4,1,0,85,0,1
44050,-85.897,4,1,0,85,0,1
44133,-87.49859,4,1,0,85,0,1
44216,-89.16104,4,1,0,85,0,1
44301,-90.90909,4,1,0,85,0,0
46634,-76.9230769230769,4,1,0,85,0,0
46965,-43.4782608695652,4,1,0,85,0,0
47007,-30.3030303030303,4,1,0,75,0,0
47044,-33.3333333333333,4,1,0,75,0,0
47298,-100,4,1,0,74,0,0
47631,-100,4,1,0,74,0,0
47964,-100,4,1,0,73,0,0
48300,-101.92494,4,1,0,72,0,0
48631,-100,4,1,0,71,0,0
48964,-100,4,1,0,71,0,0
49298,-100,4,1,0,70,0,0
49634,-104.06095,4,1,0,69,0,0
49964,-100,4,1,0,68,0,0
50298,-100,4,1,0,68,0,0
50631,-100,4,1,0,67,0,0
50967,-106.286705,4,1,0,66,0,0
51298,-100,4,1,0,65,0,0
51631,-100,4,1,0,65,0,0
51964,-100,4,1,0,64,0,0
52300,-108.60976,4,1,0,63,0,0
52631,-100,4,1,0,62,0,0
52964,-100,4,1,0,62,0,0
53298,-100,4,1,0,61,0,0
53634,-111.038475,4,1,0,60,0,0
53964,-100,4,1,0,59,0,0
54298,-100,4,1,0,59,0,0
54631,-100,4,1,0,58,0,0
54967,-113.57635,4,1,0,57,0,0
55298,-100,4,1,0,56,0,0
55631,-100,4,1,0,56,0,0
55964,-100,4,1,0,55,0,0
56300,-116.232956,4,1,0,54,0,0
56631,-100,4,1,0,53,0,0
56964,-100,4,1,0,53,0,0
57298,-100,4,1,0,52,0,0
57634,-119.01895,4,1,0,51,0,0
57964,-100,4,1,0,50,0,0
58298,-100,4,1,0,50,0,0
58631,-100,4,1,0,49,0,0
58967,-121.93954,4,1,0,48,0,0
59298,-100,4,1,0,47,0,0
59631,-100,4,1,0,47,0,0
59964,-100,4,1,0,46,0,0
60300,-125.00708,4,1,0,45,0,0
60347,-100,4,1,0,45,0,0

[HitObjects]
512,0,290,5,4,0:0:0:0:
256,192,623,1,0,0:0:0:0:
256,192,789,1,0,0:0:0:0:
256,192,956,1,8,0:0:0:0:
256,192,1123,1,0,0:0:0:0:
256,192,1206,1,0,0:0:0:0:
256,192,1289,1,8,0:0:0:0:
256,192,1456,1,0,0:0:0:0:
256,192,1623,1,8,0:0:0:0:
256,192,1789,1,0,0:0:0:0:
256,192,1873,1,0,0:0:0:0:
256,192,1956,1,8,0:0:0:0:
256,192,2039,1,0,0:0:0:0:
256,192,2123,1,8,0:0:0:0:
256,192,2289,1,0,0:0:0:0:
256,192,2456,1,8,0:0:0:0:
256,192,2539,1,8,0:0:0:0:
256,192,2623,1,0,0:0:0:0:
256,192,2789,1,0,0:0:0:0:
256,192,2956,1,8,0:0:0:0:
256,192,3289,1,0,0:0:0:0:
256,192,3456,1,8,0:0:0:0:
256,192,3623,1,0,0:0:0:0:
256,192,3789,1,8,0:0:0:0:
256,192,3873,1,0,0:0:0:0:
256,192,3956,1,8,0:0:0:0:
256,192,4123,1,0,0:0:0:0:
256,192,4289,1,8,0:0:0:0:
256,192,4456,1,0,0:0:0:0:
256,192,4539,1,0,0:0:0:0:
256,192,4623,1,8,0:0:0:0:
256,192,4706,1,8,0:0:0:0:
256,192,4789,1,0,0:0:0:0:
256,192,4956,1,8,0:0:0:0:
256,192,5123,1,0,0:0:0:0:
256,192,5206,1,8,0:0:0:0:
256,192,5289,1,0,0:0:0:0:
256,192,5456,1,0,0:0:0:0:
512,0,5623,1,12,0:0:0:0:
256,192,5956,1,0,0:0:0:0:
256,192,6122,1,0,0:0:0:0:
256,192,6289,1,8,0:0:0:0:
256,192,6456,1,8,0:0:0:0:
256,192,6539,1,8,0:0:0:0:
256,192,6622,1,0,0:0:0:0:
256,192,6789,1,8,0:0:0:0:
256,192,6956,1,8,0:0:0:0:
256,192,7122,1,0,0:0:0:0:
256,192,7206,1,0,0:0:0:0:
256,192,7289,1,8,0:0:0:0:
256,192,7373,1,0,0:0:0:0:
256,192,7456,1,8,0:0:0:0:
256,192,7622,1,0,0:0:0:0:
256,192,7789,1,8,0:0:0:0:
256,192,7872,1,8,0:0:0:0:
256,192,7956,1,0,0:0:0:0:
256,192,8122,1,0,0:0:0:0:
512,0,8289,1,12,0:0:0:0:
256,192,8622,1,0,0:0:0:0:
256,192,8789,1,8,0:0:0:0:
256,192,8956,1,8,0:0:0:0:
256,192,9122,1,0,0:0:0:0:
256,192,9206,1,0,0:0:0:0:
256,192,9289,1,8,0:0:0:0:
256,192,9456,1,0,0:0:0:0:
512,0,9622,1,12,0:0:0:0:
256,192,9789,1,0,0:0:0:0:
256,192,9956,1,0,0:0:0:0:
512,0,10123,1,12,0:0:0:0:
256,192,10289,1,0,0:0:0:0:
256,192,10373,1,0,0:0:0:0:
256,192,10456,1,0,0:0:0:0:
256,192,10539,1,0,0:0:0:0:
256,192,10622,1,8,0:0:0:0:
256,192,10706,1,8,0:0:0:0:
256,192,10789,1,0,0:0:0:0:
256,192,10873,1,0,0:0:0:0:
512,0,10956,1,12,0:0:0:0:
256,192,11289,1,8,0:0:0:0:
256,192,11456,1,0,0:0:0:0:
256,192,11623,1,8,0:0:0:0:
256,192,11789,1,0,0:0:0:0:
256,192,11873,1,0,0:0:0:0:
256,192,11956,1,8,0:0:0:0:
256,192,12123,1,0,0:0:0:0:
256,192,12289,1,8,0:0:0:0:
256,192,12623,1,0,0:0:0:0:
256,192,12789,1,8,0:0:0:0:
256,192,12956,1,0,0:0:0:0:
256,192,13123,1,8,0:0:0:0:
256,192,13206,1,8,0:0:0:0:
256,192,13289,1,0,0:0:0:0:
256,192,13456,1,0,0:0:0:0:
256,192,13623,1,8,0:0:0:0:
256,192,13956,1,8,0:0:0:0:
256,192,14123,1,0,0:0:0:0:
256,192,14289,1,0,0:0:0:0:
256,192,14456,1,8,0:0:0:0:
256,192,14539,1,0,0:0:0:0:
256,192,14623,1,8,0:0:0:0:
256,192,14789,1,0,0:0:0:0:
256,192,14956,1,8,0:0:0:0:
256,192,15123,1,0,0:0:0:0:
256,192,15206,1,0,0:0:0:0:
256,192,15289,1,8,0:0:0:0:
256,192,15456,1,0,0:0:0:0:
256,192,15789,1,0,0:0:0:0:
256,192,15873,1,0,0:0:0:0:
256,192,15956,1,8,0:0:0:0:
256,192,16039,1,8,0:0:0:0:
256,192,16123,1,0,0:0:0:0:
512,0,16289,1,12,0:0:0:0:
256,192,16456,1,0,0:0:0:0:
256,192,16539,1,0,0:0:0:0:
256,192,16623,1,0,0:0:0:0:
512,0,16789,1,12,0:0:0:0:
256,192,16956,1,0,0:0:0:0:
256,192,17123,1,8,0:0:0:0:
256,192,17206,1,8,0:0:0:0:
256,192,17289,1,0,0:0:0:0:
256,192,17456,1,8,0:0:0:0:
512,0,17623,1,4,0:0:0:0:
256,192,17789,1,8,0:0:0:0:
256,192,17873,1,8,0:0:0:0:
256,192,17956,1,8,0:0:0:0:
512,0,18123,1,4,0:0:0:0:
256,192,18289,1,8,0:0:0:0:
256,192,18456,1,0,0:0:0:0:
256,192,18539,1,0,0:0:0:0:
256,192,18623,1,8,0:0:0:0:
256,192,18706,1,0,0:0:0:0:
256,192,18789,1,0,0:0:0:0:
512,0,18956,1,12,0:0:0:0:
256,192,19123,1,0,0:0:0:0:
256,192,19206,1,0,0:0:0:0:
256,192,19289,1,8,0:0:0:0:
256,192,19456,1,0,0:0:0:0:
256,192,19623,1,8,0:0:0:0:
256,192,19706,1,8,0:0:0:0:
256,192,19789,1,0,0:0:0:0:
256,192,19873,1,0,0:0:0:0:
256,192,19956,1,8,0:0:0:0:
256,192,20123,1,0,0:0:0:0:
256,192,20289,1,8,0:0:0:0:
256,192,20373,1,8,0:0:0:0:
256,192,20456,1,8,0:0:0:0:
256,192,20539,1,8,0:0:0:0:
256,192,20623,1,0,0:0:0:0:
256,192,20707,1,0,0:0:0:0:
256,192,20790,1,0,0:0:0:0:
256,192,20873,1,0,0:0:0:0:
256,192,20956,1,8,0:0:0:0:
256,192,21040,1,8,0:0:0:0:
256,192,21123,1,0,0:0:0:0:
256,192,21206,1,0,0:0:0:0:
256,192,21289,1,8,0:0:0:0:
256,192,21373,1,0,0:0:0:0:
256,192,21456,1,8,0:0:0:0:
256,192,21539,1,8,0:0:0:0:
256,192,21623,1,0,0:0:0:0:
256,192,22123,1,0,0:0:0:0:
256,192,22289,1,8,0:0:0:0:
256,192,22456,1,8,0:0:0:0:
256,192,22623,1,8,0:0:0:0:
256,192,22789,1,8,0:0:0:0:
512,0,22968,5,4,0:0:0:0:
256,192,23301,1,0,0:0:0:0:
256,192,23468,1,8,0:0:0:0:
256,192,23509,1,8,0:0:0:0:
256,192,23634,1,8,0:0:0:0:
256,192,23676,1,8,0:0:0:0:
256,192,23801,1,0,0:0:0:0:
256,192,23856,1,0,0:0:0:0:
256,192,23912,1,8,0:0:0:0:
256,192,23968,1,8,0:0:0:0:
256,192,24134,1,0,0:0:0:0:
256,192,24190,1,8,0:0:0:0:
256,192,24245,1,8,0:0:0:0:
256,192,24301,1,0,0:0:0:0:
256,192,24468,1,8,0:0:0:0:
256,192,24634,1,0,0:0:0:0:
256,192,24690,1,0,0:0:0:0:
256,192,24745,1,8,0:0:0:0:
256,192,24801,1,8,0:0:0:0:
256,192,24967,1,0,0:0:0:0:
256,192,25023,1,8,0:0:0:0:
256,192,25079,1,8,0:0:0:0:
256,192,25134,1,0,0:0:0:0:
256,192,25301,1,8,0:0:0:0:
256,192,25356,1,8,0:0:0:0:
256,192,25412,1,0,0:0:0:0:
256,192,25467,1,0,0:0:0:0:
512,0,25634,1,12,0:0:0:0:
256,192,25967,1,8,0:0:0:0:
256,192,26134,1,0,0:0:0:0:
256,192,26176,1,0,0:0:0:0:
256,192,26301,1,8,0:0:0:0:
256,192,26343,1,8,0:0:0:0:
256,192,26467,1,0,0:0:0:0:
256,192,26509,1,0,0:0:0:0:
256,192,26634,1,8,0:0:0:0:
256,192,26676,1,8,0:0:0:0:
256,192,26801,1,8,0:0:0:0:
256,192,26843,1,8,0:0:0:0:
256,192,26967,1,0,0:0:0:0:
256,192,27134,1,8,0:0:0:0:
256,192,27176,1,8,0:0:0:0:
256,192,27301,1,0,0:0:0:0:
256,192,27467,1,8,0:0:0:0:
256,192,27509,1,8,0:0:0:0:
256,192,27634,1,0,0:0:0:0:
256,192,27676,1,0,0:0:0:0:
256,192,27801,1,8,0:0:0:0:
256,192,27967,1,0,0:0:0:0:
256,192,28022,1,0,0:0:0:0:
256,192,28078,1,0,0:0:0:0:
256,192,28133,1,8,0:0:0:0:
512,0,28300,1,4,0:0:0:0:
256,192,28634,1,0,0:0:0:0:
256,192,28717,1,8,0:0:0:0:
256,192,28801,1,0,0:0:0:0:
256,192,28967,1,8,0:0:0:0:
256,192,29009,1,8,0:0:0:0:
256,192,29134,1,8,0:0:0:0:
256,192,29176,1,8,0:0:0:0:
256,192,29301,1,0,0:0:0:0:
256,192,29343,1,0,0:0:0:0:
256,192,29467,1,8,0:0:0:0:
256,192,29509,1,8,0:0:0:0:
256,192,29634,1,0,0:0:0:0:
256,192,29690,1,0,0:0:0:0:
256,192,29745,1,0,0:0:0:0:
256,192,29801,1,8,0:0:0:0:
256,192,29967,1,0,0:0:0:0:
256,192,30134,1,8,0:0:0:0:
256,192,30190,1,8,0:0:0:0:
256,192,30245,1,8,0:0:0:0:
256,192,30301,1,0,0:0:0:0:
256,192,30467,1,8,0:0:0:0:
256,192,30634,1,8,0:0:0:0:
256,192,30690,1,0,0:0:0:0:
256,192,30745,1,0,0:0:0:0:
256,192,30801,1,8,0:0:0:0:
512,0,30967,1,4,0:0:0:0:
256,192,31301,1,0,0:0:0:0:
512,0,31467,1,12,0:0:0:0:
256,192,31801,1,0,0:0:0:0:
256,192,31884,1,8,0:0:0:0:
256,192,31967,1,8,0:0:0:0:
256,192,32134,1,0,0:0:0:0:
256,192,32217,1,0,0:0:0:0:
512,0,32301,1,12,0:0:0:0:
256,192,32467,1,0,0:0:0:0:
256,192,32634,1,0,0:0:0:0:
512,0,32801,1,12,0:0:0:0:
256,192,32967,1,0,0:0:0:0:
256,192,33051,1,8,0:0:0:0:
256,192,33134,1,0,0:0:0:0:
512,0,33301,1,12,0:0:0:0:
512,0,33634,1,4,0:0:0:0:
256,192,33967,1,8,0:0:0:0:
256,192,34023,1,8,0:0:0:0:
256,192,34079,1,0,0:0:0:0:
256,192,34134,1,0,0:0:0:0:
256,192,34300,1,8,0:0:0:0:
256,192,34342,1,8,0:0:0:0:
256,192,34467,1,0,0:0:0:0:
256,192,34550,1,0,0:0:0:0:
256,192,34634,1,0,0:0:0:0:
256,192,34800,1,8,0:0:0:0:
256,192,34842,1,8,0:0:0:0:
256,192,34967,1,0,0:0:0:0:
256,192,35023,1,0,0:0:0:0:
256,192,35079,1,0,0:0:0:0:
256,192,35134,1,8,0:0:0:0:
256,192,35301,1,8,0:0:0:0:
256,192,35467,1,0,0:0:0:0:
256,192,35509,1,0,0:0:0:0:
256,192,35633,1,8,0:0:0:0:
256,192,35690,1,8,0:0:0:0:
256,192,35745,1,0,0:0:0:0:
256,192,35800,1,0,0:0:0:0:
256,192,35967,1,8,0:0:0:0:
256,192,36023,1,8,0:0:0:0:
256,192,36079,1,8,0:0:0:0:
256,192,36134,1,0,0:0:0:0:
512,0,36301,1,12,0:0:0:0:
256,192,36634,1,8,0:0:0:0:
256,192,36690,1,8,0:0:0:0:
256,192,36745,1,0,0:0:0:0:
256,192,36801,1,0,0:0:0:0:
256,192,36967,1,8,0:0:0:0:
256,192,37009,1,8,0:0:0:0:
256,192,37133,1,0,0:0:0:0:
256,192,37175,1,0,0:0:0:0:
256,192,37300,1,8,0:0:0:0:
256,192,37342,1,8,0:0:0:0:
256,192,37467,1,8,0:0:0:0:
256,192,37509,1,8,0:0:0:0:
256,192,37633,1,0,0:0:0:0:
256,192,37800,1,8,0:0:0:0:
256,192,37842,1,8,0:0:0:0:
256,192,37967,1,0,0:0:0:0:
256,192,38133,1,8,0:0:0:0:
256,192,38175,1,8,0:0:0:0:
256,192,38300,1,0,0:0:0:0:
256,192,38342,1,0,0:0:0:0:
256,192,38467,1,8,0:0:0:0:
256,192,38633,1,0,0:0:0:0:
256,192,38690,1,0,0:0:0:0:
256,192,38745,1,0,0:0:0:0:
256,192,38801,1,8,0:0:0:0:
512,0,38966,1,4,0:0:0:0:
256,192,39300,1,8,0:0:0:0:
256,192,39356,1,8,0:0:0:0:
256,192,39412,1,0,0:0:0:0:
256,192,39467,1,0,0:0:0:0:
256,192,39633,1,8,0:0:0:0:
256,192,39675,1,8,0:0:0:0:
256,192,39800,1,0,0:0:0:0:
256,192,39884,1,0,0:0:0:0:
256,192,39967,1,0,0:0:0:0:
256,192,40133,1,8,0:0:0:0:
256,192,40175,1,8,0:0:0:0:
256,192,40300,1,0,0:0:0:0:
256,192,40356,1,8,0:0:0:0:
256,192,40412,1,8,0:0:0:0:
256,192,40467,1,0,0:0:0:0:
256,192,40633,1,0,0:0:0:0:
256,192,40801,1,8,0:0:0:0:
256,192,40883,1,0,0:0:0:0:
256,192,40967,1,8,0:0:0:0:
256,192,41051,1,8,0:0:0:0:
256,192,41133,1,0,0:0:0:0:
256,192,41300,1,8,0:0:0:0:
256,192,41356,1,8,0:0:0:0:
256,192,41412,1,8,0:0:0:0:
256,192,41467,1,0,0:0:0:0:
512,0,41633,1,12,0:0:0:0:
256,192,41967,1,0,0:0:0:0:
256,192,42134,1,8,0:0:0:0:
256,192,42217,1,8,0:0:0:0:
256,192,42301,1,0,0:0:0:0:
256,192,42384,1,0,0:0:0:0:
256,192,42467,1,8,0:0:0:0:
256,192,42523,1,8,0:0:0:0:
256,192,42579,1,8,0:0:0:0:
256,192,42634,1,0,0:0:0:0:
256,192,42801,1,0,0:0:0:0:
256,192,42884,1,0,0:0:0:0:
256,192,42967,1,8,0:0:0:0:
256,192,43134,1,0,0:0:0:0:
256,192,43217,1,0,0:0:0:0:
256,192,43384,1,8,0:0:0:0:
256,192,43467,1,0,0:0:0:0:
256,192,43634,1,8,0:0:0:0:
256,192,43717,1,0,0:0:0:0:
256,192,43801,1,0,0:0:0:0:
256,192,43884,1,8,0:0:0:0:
256,192,43967,1,0,0:0:0:0:
256,192,44051,1,0,0:0:0:0:
256,192,44134,1,8,0:0:0:0:
256,192,44217,1,0,0:0:0:0:
512,0,44301,1,12,0:0:0:0:
256,192,44634,1,0,0:0:0:0:
256,192,44801,1,8,0:0:0:0:
256,192,44884,1,8,0:0:0:0:
256,192,44967,1,0,0:0:0:0:
256,192,45134,1,8,0:0:0:0:
256,192,45301,1,0,0:0:0:0:
256,192,45467,1,8,0:0:0:0:
256,192,45551,1,0,0:0:0:0:
256,192,45634,1,8,0:0:0:0:
256,192,45801,1,0,0:0:0:0:
256,192,45967,1,8,0:0:0:0:
256,192,46051,1,8,0:0:0:0:
256,192,46134,1,0,0:0:0:0:
256,192,46217,1,8,0:0:0:0:
256,192,46301,1,0,0:0:0:0:
256,192,46634,1,8,0:0:0:0:
512,0,46967,1,4,0:0:0:0:
256,192,47051,12,0,60356,0:0:0:0:
