osu file format v14

[General]
AudioFilename: audio.mp3
AudioLeadIn: 0
PreviewTime: 21706
Countdown: 0
SampleSet: Normal
StackLeniency: 0.7
Mode: 1
LetterboxInBreaks: 0
WidescreenStoryboard: 1

[Editor]
DistanceSpacing: 0.5
BeatDivisor: 8
GridSize: 16
TimelineZoom: 1.5

[Metadata]
Title:Harumachi the Madness
TitleUnicode:Harumachi the Madness
Artist:ModlesS_Flash
ArtistUnicode:ModlesS_Flash
Creator:iRedi
Version:Muzukashii
Source:OneRoom
Tags:blackbn blackbq irone_osu irone osu japanese female vocalist vocals anime electronic remix mashup tech 花坂結衣 hanasaka yui M・A・O mao M.A.O kantoku カントク feat. feat ft. featuring 春待ちクローバー Harumachi Clover ワンルーム One Room Excision & Pegboard Nerds Bring The Madness Mayor Apeshit and ichimichi modless flash modlessflash 市道 真央
BeatmapID:4319249
BeatmapSetID:2064950

[Difficulty]
HPDrainRate:7
CircleSize:2
OverallDifficulty:5
ApproachRate:10
SliderMultiplier:1.4
SliderTickRate:1

[Events]
//Background and Video events
0,0,"harumachi.jpg",0,40
//Break Periods
//Storyboard Layer 0 (Background)
//Storyboard Layer 1 (Fail)
//Storyboard Layer 2 (Pass)
//Storyboard Layer 3 (Foreground)
//Storyboard Layer 4 (Overlay)
//Storyboard Sound Samples

[TimingPoints]
290,333.333333333333,4,1,0,70,1,0
290,-100,4,1,0,70,0,0
16246,-100,4,1,0,75,0,0
22956,333.333333333333,4,1,0,85,1,8
22968,333.333333333333,4,1,0,85,1,1
22968,-100,4,1,0,85,0,1
33301,-100,4,1,0,85,0,0
33634,-100,4,1,0,85,0,1
44301,-100,4,1,0,85,0,0
47007,-100,4,1,0,75,0,0
47298,-100,4,1,0,74,0,0
47964,-100,4,1,0,73,0,0
48300,-101.92494,4,1,0,72,0,0
48631,-100,4,1,0,71,0,0
49298,-100,4,1,0,70,0,0
49634,-104.06095,4,1,0,69,0,0
49964,-100,4,1,0,68,0,0
50631,-100,4,1,0,67,0,0
50967,-106.286705,4,1,0,66,0,0
51298,-100,4,1,0,65,0,0
51964,-100,4,1,0,64,0,0
52300,-108.60976,4,1,0,63,0,0
52631,-100,4,1,0,62,0,0
53298,-100,4,1,0,61,0,0
53634,-111.038475,4,1,0,60,0,0
53964,-100,4,1,0,59,0,0
54631,-100,4,1,0,58,0,0
54967,-113.57635,4,1,0,57,0,0
55298,-100,4,1,0,56,0,0
55964,-100,4,1,0,55,0,0
56300,-116.232956,4,1,0,54,0,0
56631,-100,4,1,0,53,0,0
57298,-100,4,1,0,52,0,0
57634,-119.01895,4,1,0,51,0,0
57964,-100,4,1,0,50,0,0
58631,-100,4,1,0,49,0,0
58967,-121.93954,4,1,0,48,0,0
59298,-100,4,1,0,47,0,0
59964,-100,4,1,0,46,0,0
60300,-125.00708,4,1,0,45,0,0
60347,-100,4,1,0,45,0,0

[HitObjects]
512,0,290,5,4,0:0:0:0:
256,192,623,1,0,0:0:0:0:
256,192,956,1,8,0:0:0:0:
256,192,1289,1,8,0:0:0:0:
256,192,1456,1,0,0:0:0:0:
256,192,1789,1,0,0:0:0:0:
256,192,1956,1,0,0:0:0:0:
256,192,2123,1,8,0:0:0:0:
256,192,2456,1,8,0:0:0:0:
256,192,2623,1,0,0:0:0:0:
256,192,2789,1,0,0:0:0:0:
256,192,2956,1,8,0:0:0:0:
256,192,3289,1,0,0:0:0:0:
256,192,3623,1,0,0:0:0:0:
256,192,3789,1,0,0:0:0:0:
256,192,3956,1,8,0:0:0:0:
256,192,4123,1,0,0:0:0:0:
256,192,4289,1,8,0:0:0:0:
256,192,4623,1,8,0:0:0:0:
256,192,4789,1,8,0:0:0:0:
256,192,4956,1,0,0:0:0:0:
256,192,5123,1,8,0:0:0:0:
256,192,5206,1,8,0:0:0:0:
256,192,5289,1,8,0:0:0:0:
256,192,5456,1,0,0:0:0:0:
512,0,5623,1,12,0:0:0:0:
256,192,5956,1,0,0:0:0:0:
256,192,6289,1,8,0:0:0:0:
256,192,6622,1,8,0:0:0:0:
256,192,6789,1,8,0:0:0:0:
256,192,7122,1,0,0:0:0:0:
256,192,7289,1,8,0:0:0:0:
256,192,7456,1,0,0:0:0:0:
256,192,7789,1,8,0:0:0:0:
256,192,7956,1,0,0:0:0:0:
256,192,8122,1,0,0:0:0:0:
512,0,8289,1,12,0:0:0:0:
256,192,8789,1,8,0:0:0:0:
256,192,8956,1,0,0:0:0:0:
256,192,9289,1,0,0:0:0:0:
256,192,9456,1,0,0:0:0:0:
512,0,9622,1,12,0:0:0:0:
256,192,9956,1,0,0:0:0:0:
512,0,10123,1,12,0:0:0:0:
256,192,10289,1,0,0:0:0:0:
256,192,10373,1,0,0:0:0:0:
256,192,10456,1,0,0:0:0:0:
256,192,10622,1,8,0:0:0:0:
256,192,10789,1,0,0:0:0:0:
512,0,10956,1,12,0:0:0:0:
256,192,11289,1,0,0:0:0:0:
256,192,11456,1,0,0:0:0:0:
256,192,11789,1,0,0:0:0:0:
256,192,11956,1,8,0:0:0:0:
256,192,12123,1,0,0:0:0:0:
256,192,12289,1,8,0:0:0:0:
256,192,12623,1,0,0:0:0:0:
256,192,12956,1,0,0:0:0:0:
256,192,13289,1,8,0:0:0:0:
256,192,13456,1,0,0:0:0:0:
256,192,13623,1,8,0:0:0:0:
256,192,13956,1,0,0:0:0:0:
256,192,14123,1,0,0:0:0:0:
256,192,14456,1,8,0:0:0:0:
256,192,14623,1,8,0:0:0:0:
256,192,14789,1,0,0:0:0:0:
256,192,14956,1,0,0:0:0:0:
256,192,15123,1,8,0:0:0:0:
256,192,15289,1,0,0:0:0:0:
256,192,15456,1,8,0:0:0:0:
256,192,15789,1,8,0:0:0:0:
256,192,15956,1,0,0:0:0:0:
256,192,16039,1,0,0:0:0:0:
256,192,16123,1,0,0:0:0:0:
512,0,16289,1,12,0:0:0:0:
256,192,16623,1,0,0:0:0:0:
512,0,16789,1,12,0:0:0:0:
256,192,17123,1,8,0:0:0:0:
256,192,17289,1,0,0:0:0:0:
256,192,17456,1,8,0:0:0:0:
512,0,17623,1,4,0:0:0:0:
256,192,17956,1,8,0:0:0:0:
512,0,18123,1,4,0:0:0:0:
256,192,18623,1,8,0:0:0:0:
256,192,18789,1,0,0:0:0:0:
512,0,18956,1,12,0:0:0:0:
256,192,19289,1,0,0:0:0:0:
256,192,19456,1,0,0:0:0:0:
256,192,19623,1,8,0:0:0:0:
256,192,19706,1,8,0:0:0:0:
256,192,19789,1,8,0:0:0:0:
256,192,19956,1,8,0:0:0:0:
256,192,20289,1,0,0:0:0:0:
256,192,20373,1,0,0:0:0:0:
256,192,20456,1,0,0:0:0:0:
256,192,20623,1,8,0:0:0:0:
256,192,20790,1,0,0:0:0:0:
256,192,20956,1,8,0:0:0:0:
256,192,21040,1,8,0:0:0:0:
256,192,21123,1,8,0:0:0:0:
256,192,21289,1,0,0:0:0:0:
256,192,21456,1,8,0:0:0:0:
256,192,21623,1,0,0:0:0:0:
256,192,22123,1,0,0:0:0:0:
256,192,22289,1,8,0:0:0:0:
256,192,22456,1,8,0:0:0:0:
256,192,22623,1,8,0:0:0:0:
256,192,22789,1,8,0:0:0:0:
512,0,22968,5,4,0:0:0:0:
256,192,23301,1,8,0:0:0:0:
256,192,23468,1,8,0:0:0:0:
256,192,23634,1,0,0:0:0:0:
256,192,23801,1,8,0:0:0:0:
256,192,23884,1,8,0:0:0:0:
256,192,23968,1,8,0:0:0:0:
256,192,24134,1,0,0:0:0:0:
256,192,24468,1,0,0:0:0:0:
256,192,24634,1,8,0:0:0:0:
256,192,24718,1,8,0:0:0:0:
256,192,24801,1,8,0:0:0:0:
256,192,24967,1,8,0:0:0:0:
256,192,25301,1,0,0:0:0:0:
512,0,25634,1,12,0:0:0:0:
256,192,25967,1,0,0:0:0:0:
256,192,26134,1,0,0:0:0:0:
256,192,26301,1,8,0:0:0:0:
256,192,26467,1,0,0:0:0:0:
256,192,26551,1,0,0:0:0:0:
256,192,26634,1,0,0:0:0:0:
256,192,26801,1,0,0:0:0:0:
256,192,26967,1,8,0:0:0:0:
256,192,27134,1,8,0:0:0:0:
256,192,27467,1,8,0:0:0:0:
256,192,27634,1,0,0:0:0:0:
256,192,27967,1,8,0:0:0:0:
512,0,28300,1,4,0:0:0:0:
256,192,28634,1,8,0:0:0:0:
256,192,28801,1,0,0:0:0:0:
256,192,28967,1,8,0:0:0:0:
256,192,29134,1,0,0:0:0:0:
256,192,29217,1,0,0:0:0:0:
256,192,29301,1,0,0:0:0:0:
256,192,29467,1,8,0:0:0:0:
256,192,29634,1,0,0:0:0:0:
256,192,29967,1,0,0:0:0:0:
256,192,30134,1,8,0:0:0:0:
256,192,30217,1,8,0:0:0:0:
256,192,30301,1,8,0:0:0:0:
256,192,30467,1,0,0:0:0:0:
256,192,30634,1,8,0:0:0:0:
512,0,30967,1,4,0:0:0:0:
256,192,31301,1,0,0:0:0:0:
512,0,31467,1,12,0:0:0:0:
256,192,31801,1,0,0:0:0:0:
256,192,31967,1,8,0:0:0:0:
256,192,32134,1,0,0:0:0:0:
512,0,32301,1,12,0:0:0:0:
256,192,32634,1,0,0:0:0:0:
512,0,32801,1,12,0:0:0:0:
256,192,33134,1,0,0:0:0:0:
512,0,33301,1,12,0:0:0:0:
512,0,33634,1,4,0:0:0:0:
256,192,33967,1,0,0:0:0:0:
256,192,34300,1,0,0:0:0:0:
256,192,34467,1,8,0:0:0:0:
256,192,34550,1,8,0:0:0:0:
256,192,34634,1,8,0:0:0:0:
256,192,34800,1,8,0:0:0:0:
256,192,34967,1,0,0:0:0:0:
256,192,35300,1,0,0:0:0:0:
256,192,35467,1,0,0:0:0:0:
256,192,35633,1,8,0:0:0:0:
256,192,35717,1,8,0:0:0:0:
256,192,35800,1,8,0:0:0:0:
256,192,35967,1,0,0:0:0:0:
512,0,36301,1,12,0:0:0:0:
256,192,36634,1,0,0:0:0:0:
256,192,36968,1,0,0:0:0:0:
256,192,37134,1,8,0:0:0:0:
256,192,37218,1,8,0:0:0:0:
256,192,37301,1,8,0:0:0:0:
256,192,37468,1,0,0:0:0:0:
256,192,37634,1,0,0:0:0:0:
256,192,37801,1,8,0:0:0:0:
256,192,38134,1,8,0:0:0:0:
256,192,38301,1,8,0:0:0:0:
256,192,38467,1,0,0:0:0:0:
256,192,38551,1,0,0:0:0:0:
256,192,38634,1,0,0:0:0:0:
512,0,38966,1,4,0:0:0:0:
256,192,39301,1,8,0:0:0:0:
256,192,39634,1,0,0:0:0:0:
256,192,39801,1,8,0:0:0:0:
256,192,39884,1,8,0:0:0:0:
256,192,39968,1,8,0:0:0:0:
256,192,40134,1,0,0:0:0:0:
256,192,40301,1,8,0:0:0:0:
256,192,40634,1,8,0:0:0:0:
256,192,40801,1,0,0:0:0:0:
256,192,40884,1,0,0:0:0:0:
256,192,40968,1,0,0:0:0:0:
256,192,41134,1,0,0:0:0:0:
256,192,41301,1,8,0:0:0:0:
512,0,41633,1,12,0:0:0:0:
256,192,42134,1,0,0:0:0:0:
256,192,42301,1,0,0:0:0:0:
256,192,42467,1,8,0:0:0:0:
256,192,42551,1,8,0:0:0:0:
256,192,42634,1,8,0:0:0:0:
256,192,42967,1,0,0:0:0:0:
256,192,43134,1,8,0:0:0:0:
256,192,43217,1,8,0:0:0:0:
256,192,43301,1,8,0:0:0:0:
256,192,43467,1,0,0:0:0:0:
256,192,43634,1,8,0:0:0:0:
256,192,43717,1,8,0:0:0:0:
256,192,43801,1,8,0:0:0:0:
256,192,43967,1,0,0:0:0:0:
256,192,44134,1,0,0:0:0:0:
512,0,44301,1,12,0:0:0:0:
256,192,44634,1,0,0:0:0:0:
256,192,44801,1,8,0:0:0:0:
256,192,44967,1,8,0:0:0:0:
256,192,45134,1,0,0:0:0:0:
256,192,45467,1,8,0:0:0:0:
256,192,45634,1,0,0:0:0:0:
256,192,45801,1,0,0:0:0:0:
256,192,45967,1,8,0:0:0:0:
256,192,46051,1,8,0:0:0:0:
256,192,46134,1,8,0:0:0:0:
256,192,46301,1,0,0:0:0:0:
256,192,46634,1,8,0:0:0:0:
512,0,46967,1,4,0:0:0:0:
256,192,47134,12,0,60356,0:0:0:0:
