osu file format v14

[General]
AudioFilename: audio.mp3
AudioLeadIn: 0
PreviewTime: 21623
Countdown: 0
SampleSet: Soft
StackLeniency: 0.7
Mode: 0
LetterboxInBreaks: 0
WidescreenStoryboard: 1

[Editor]
DistanceSpacing: 0.5
BeatDivisor: 4
GridSize: 16
TimelineZoom: 1

[Metadata]
Title:Harumachi the Madness
TitleUnicode:Harumachi the Madness
Artist:ModlesS_Flash
ArtistUnicode:ModlesS_Flash
Creator:AdeAAa
Version:Tragic Love Extra
Source:OneRoom
Tags:finnish bn aakki riffy FreezingAnimenz Sanayui Cybernecia [ HuoYui ] Sightread [Yoshino] japanese vocalist vocals anime electronic remix mashup tech 花坂結衣 hanasaka yui M・A・O mao M.A.O kantoku カントク feat. feat 春待ちクローバー Harumachi Clover ワンルーム One Room Excision & Pegboard Nerds Bring The Madness Mayor Apeshit ichimichi modless flash 市道 真央
BeatmapID:4218569
BeatmapSetID:2024933

[Difficulty]
HPDrainRate:5.2
CircleSize:4.2
OverallDifficulty:8.6
ApproachRate:9.4
SliderMultiplier:2.04
SliderTickRate:1

[Events]
//Background and Video events
0,0,"harumachi.jpg",0,0
//Break Periods
//Storyboard Layer 0 (Background)
//Storyboard Layer 1 (Fail)
//Storyboard Layer 2 (Pass)
//Storyboard Layer 3 (Foreground)
//Storyboard Layer 4 (Overlay)
//Storyboard Sound Samples

[TimingPoints]
290,333.333333333333,4,2,1,60,1,0
290,-125,4,2,1,60,0,0
789,-142.857142857143,4,2,1,60,0,0
1289,-117.647058823529,4,2,1,60,0,0
1538,-117.647058823529,4,2,1,5,0,0
1623,-117.647058823529,4,2,1,60,0,0
2123,-142.857142857143,4,2,1,60,0,0
2623,-117.647058823529,4,2,1,60,0,0
3456,-142.857142857143,4,2,1,60,0,0
3956,-117.647058823529,4,2,1,60,0,0
4206,-117.647058823529,4,2,1,5,0,0
4289,-117.647058823529,4,2,1,60,0,0
4789,-142.857142857143,4,2,1,60,0,0
5623,-125,4,2,1,60,0,0
6123,-142.857142857143,4,2,1,60,0,0
6623,-117.647058823529,4,2,1,60,0,0
6873,-117.647058823529,4,2,1,5,0,0
6956,-117.647058823529,4,2,1,60,0,0
7456,-142.857142857143,4,2,1,60,0,0
7956,-117.647058823529,4,2,1,60,0,0
8289,-111.111111111111,4,2,1,60,0,0
8789,-142.857142857143,4,2,1,60,0,0
10289,-142.857142857143,4,2,1,35,0,0
10456,-142.857142857143,4,2,1,45,0,0
10623,-142.857142857143,4,2,1,55,0,0
10789,-142.857142857143,4,2,1,65,0,0
10956,-111.111111111111,4,2,1,65,0,0
11206,-111.111111111111,4,2,1,5,0,0
11289,-111.111111111111,4,2,1,65,0,0
14872,-111.111111111111,4,2,1,5,0,0
14956,-111.111111111111,4,2,1,65,0,0
20289,-111.111111111111,4,2,1,55,0,0
20623,-111.111111111111,4,2,1,60,0,0
20956,-111.111111111111,4,2,1,65,0,0
21289,-111.111111111111,4,2,1,70,0,0
21623,-111.111111111111,4,2,1,75,0,0
22289,-111.111111111111,4,2,1,40,0,0
22968,333.333333333333,4,2,2,75,1,1
22968,-60.6060606060606,4,2,2,75,0,1
23301,-95.2380952380952,4,2,2,75,0,1
24301,-60.6060606060606,4,2,2,75,0,1
24634,-95.2380952380952,4,2,2,75,0,1
24967,-76.9230769230769,4,2,2,75,0,1
25301,-57.1428571428571,4,2,2,75,0,1
25551,-57.1428571428571,4,2,2,5,0,1
25634,-60.6060606060606,4,2,2,75,0,1
25884,-60.6060606060606,4,2,2,5,0,1
25967,-95.2380952380952,4,2,2,75,0,1
26634,-76.9230769230769,4,2,2,75,0,1
26967,-95.2380952380952,4,2,2,75,0,1
27634,-76.9230769230769,4,2,2,75,0,1
27967,-57.1428571428571,4,2,2,75,0,1
28217,-57.1428571428571,4,2,2,5,0,1
28301,-60.6060606060606,4,2,2,75,0,1
28551,-60.6060606060606,4,2,2,5,0,1
28634,-95.2380952380952,4,2,2,75,0,1
28967,-76.9230769230769,4,2,2,75,0,1
29301,-95.2380952380952,4,2,2,75,0,1
29634,-57.1428571428571,4,2,2,75,0,1
29884,-57.1428571428571,4,2,2,5,0,1
29967,-95.2380952380952,4,2,2,75,0,1
30134,-57.1428571428571,4,2,2,75,0,1
30467,-95.2380952380952,4,2,2,75,0,1
30967,-54.054054054054,4,2,2,80,0,1
31217,-54.054054054054,4,2,2,5,0,1
31301,-60.6060606060606,4,2,2,80,0,1
31467,-51.2820512820513,4,2,2,80,0,1
31717,-51.2820512820513,4,2,2,5,0,1
31801,-51.2820512820513,4,2,2,80,0,1
31967,-60.6060606060606,4,2,2,80,0,1
33301,-95.2380952380952,4,2,2,80,0,0
33467,-117.647058823529,4,2,2,80,0,0
33634,-60.6060606060606,4,2,2,75,0,1
33884,-60.6060606060606,4,2,2,5,0,1
33967,-60.6060606060606,4,2,2,75,0,1
34217,-60.6060606060606,4,2,2,5,0,1
34301,-95.2380952380952,4,2,2,75,0,1
34967,-60.6060606060606,4,2,2,75,0,1
35217,-60.6060606060606,4,2,2,5,0,1
35301,-95.2380952380952,4,2,2,75,0,1
35634,-76.9230769230769,4,2,2,75,0,1
35967,-57.1428571428571,4,2,2,75,0,1
36217,-57.1428571428571,4,2,2,5,0,1
36301,-60.6060606060606,4,2,2,75,0,1
36551,-60.6060606060606,4,2,2,5,0,1
36634,-95.2380952380952,4,2,2,75,0,1
37634,-76.9230769230769,4,2,2,75,0,1
37967,-95.2380952380952,4,2,2,75,0,1
38301,-76.9230769230769,4,2,2,75,0,1
38634,-57.1428571428571,4,2,2,75,0,1
38884,-57.1428571428571,4,2,2,5,0,1
38967,-60.6060606060606,4,2,2,75,0,1
39217,-60.6060606060606,4,2,2,5,0,1
39301,-95.2380952380952,4,2,2,75,0,1
40301,-60.6060606060606,4,2,2,75,0,1
40551,-60.6060606060606,4,2,2,5,0,1
40634,-95.2380952380952,4,2,2,75,0,1
40967,-76.9230769230769,4,2,2,75,0,1
41301,-57.1428571428571,4,2,2,75,0,1
41551,-57.1428571428571,4,2,2,5,0,1
41634,-54.054054054054,4,2,2,80,0,1
42467,-95.2380952380952,4,2,2,80,0,1
42634,-60.6060606060606,4,2,2,80,0,1
43217,-60.6060606060606,4,2,2,5,0,1
43301,-60.6060606060606,4,2,2,80,0,1
43634,-117.647058823529,4,2,2,80,0,1
44301,-74.0740740740741,4,2,2,75,0,0
44634,-133.333333333333,4,2,2,75,0,0
44967,-60.6060606060606,4,2,2,75,0,0
45301,-74.0740740740741,4,2,2,75,0,0
45634,-57.1428571428571,4,2,2,75,0,0
46301,-200,4,2,2,75,0,0
46634,-200,4,2,2,50,0,0
46967,-200,4,2,2,60,0,0

[Colours]
Combo1 : 192,255,166
Combo2 : 249,189,237
Combo3 : 198,242,244
Combo4 : 255,183,185

[HitObjects]
331,310,290,6,0,B|286:336|259:292|259:282|268:287|240:239|194:265,1,163.2,4|2,3:2|3:2,2:0:0:0:
56,329,789,2,0,B|55:337|55:337|62:343|62:343|64:333|64:333|58:328,1,35.7,0|0,2:0|2:0,2:0:0:0:
0,382,956,2,0,P|27:379|52:333,1,71.3999999999999,2|0,3:2|2:0,2:0:0:0:
149,173,1289,6,0,P|144:141|45:140,1,130.05,10|0,2:0|2:0,2:0:0:0:
55,132,1623,1,0,3:2:0:0:
183,30,1789,5,2,2:0:0:0:
185,21,1873,1,0,2:0:0:0:
187,12,1956,1,2,3:2:0:0:
320,80,2123,2,0,P|325:48|424:47,1,142.8,2|2,2:0|2:0,2:0:0:0:
512,212,2623,6,0,L|419:190,1,86.7000000000003,10|2,3:2|2:0,2:0:0:0:
427,192,2873,1,0,2:0:0:0:
427,192,2956,1,0,3:0:0:0:
375,379,3123,5,0,2:0:0:0:
356,308,3289,1,0,3:0:0:0:
281,308,3456,2,0,P|276:315|290:338,1,35.7,0|0,2:0|2:0,2:0:0:0:
101,343,3623,2,0,P|73:328|60:284,1,71.3999999999999,0|2,3:0|2:0,2:0:0:0:
195,151,3956,6,0,B|206:143|214:133|214:133|180:238,1,130.05,10|0,2:0|2:0,2:0:0:0:
172,241,4289,1,2,3:2:0:0:
26,164,4456,5,2,2:0:0:0:
13,167,4539,1,0,2:0:0:0:
0,170,4623,1,2,3:2:0:0:
75,102,4789,2,0,L|86:66,1,35.7,2|0,2:0|2:0,2:0:0:0:
111,178,4956,1,2,3:2:0:0:
251,34,5123,5,2,2:0:0:0:
254,21,5206,1,0,2:0:0:0:
258,9,5289,1,2,3:2:0:0:
295,153,5456,2,0,L|306:188,1,35.7,2|0,2:0|2:0,2:0:0:0:
485,40,5623,6,0,B|375:73|375:73|354:47|319:51,1,163.2,4|2,3:2|3:2,2:0:0:0:
422,231,6123,2,0,B|421:239|421:239|428:245|428:245|430:235|430:235|424:230,1,35.7,0|0,2:0|2:0,2:0:0:0:
450,152,6289,2,0,L|429:228,1,71.3999999999999,2|0,3:2|2:0,2:0:0:0:
512,384,6623,6,0,B|486:344|433:342|433:342|412:364|386:362,1,130.05,10|0,2:0|2:0,2:0:0:0:
393,370,6956,1,0,3:2:0:0:
270,263,7123,5,2,2:0:0:0:
274,251,7206,1,0,2:0:0:0:
278,238,7289,1,2,3:2:0:0:
201,313,7456,2,0,P|196:343|95:358,1,142.8,2|2,2:0|2:0,2:0:0:0:
0,254,7956,2,0,L|13:165,1,86.7000000000003,10|2,2:0|2:0,2:0:0:0:
89,117,8206,5,0,2:0:0:0:
94,129,8289,2,0,B|106:115|130:108|130:108|148:73|148:73|149:7|76:-4,1,183.6,6|0,3:2|3:2,2:0:0:0:
22,26,8789,2,0,P|20:30|36:51,1,35.7,2|0,2:0|2:0,2:0:0:0:
152,185,8956,6,0,P|181:207|171:253,1,71.3999999999999,2|0,3:2|2:0,2:0:0:0:
181,239,9206,1,0,2:0:0:0:
181,239,9289,1,10,2:0:0:0:
59,370,9456,2,0,L|98:358,1,35.7,0|0,2:0|2:0,2:0:0:0:
321,295,9623,5,6,3:2:0:0:
466,356,9789,1,0,3:2:0:0:
311,290,9956,1,8,2:0:0:0:
467,150,10123,5,6,3:2:0:0:
378,0,10289,1,10,2:0:0:0:
393,16,10373,1,8,2:0:0:0:
396,45,10456,1,8,3:2:0:0:
373,73,10539,1,8,2:0:0:0:
333,70,10623,1,8,2:0:0:0:
312,33,10706,1,8,2:0:0:0:
267,19,10789,1,8,2:0:0:0:
221,39,10873,1,8,2:0:0:0:
205,89,10956,6,0,P|226:136|255:219,1,137.7,6|0,3:2|2:0,2:0:0:0:
271,232,11289,1,10,2:0:0:0:
371,369,11456,2,0,P|362:349|406:291,1,91.8000000000001,2|0,3:2|2:0,2:0:0:0:
466,310,11789,1,2,3:2:0:0:
175,245,11956,2,0,P|177:266|244:295,1,91.8000000000001,8|2,2:0|2:0,2:0:0:0:
466,183,12289,2,0,P|416:168|286:135,1,183.6,0|10,3:2|2:0,2:0:0:0:
152,0,12789,5,0,3:2:0:0:
134,73,12956,1,2,2:0:0:0:
57,80,13123,1,0,3:2:0:0:
175,245,13289,5,10,2:0:0:0:
231,61,13456,1,2,2:0:0:0:
10,302,13623,6,0,B|60:271|90:321|90:333|79:327|112:381|163:352,2,183.6,2|8|0,3:2|2:0|2:0,2:0:0:0:
154,177,14456,5,2,3:2:0:0:
71,3,14623,1,10,2:0:0:0:
0,159,14789,2,0,P|16:154|36:129,1,45.9,2|0,2:0|2:0,2:0:0:0:
211,45,14956,6,0,P|247:38|367:127,1,183.6,2|10,3:2|2:0,2:0:0:0:
297,249,15456,2,0,P|261:256|141:167,1,183.6,2|0,3:2|3:2,2:0:0:0:
257,150,15956,1,8,2:0:0:0:
257,150,16039,1,8,2:0:0:0:
257,150,16123,1,0,3:2:0:0:
185,279,16289,5,6,3:2:0:0:
211,353,16456,1,0,3:2:0:0:
133,338,16623,1,10,2:0:0:0:
315,280,16789,2,0,L|496:323,1,183.6,6|2,3:2|3:2,2:0:0:0:
257,150,17289,1,10,2:0:0:0:
257,150,17623,5,4,3:2:0:0:
329,0,17789,1,2,3:2:0:0:
218,39,17956,1,10,2:0:0:0:
494,129,18123,2,0,L|313:86,1,183.6,2|2,3:2|3:2,2:0:0:0:
124,136,18623,5,10,2:0:0:0:
298,360,18789,1,8,2:0:0:0:
215,220,18956,5,6,3:2:0:0:
188,323,19123,1,0,3:2:0:0:
291,350,19289,1,2,3:2:0:0:
318,247,19456,1,0,3:2:0:0:
290,148,19623,5,2,3:2:0:0:
377,297,19789,1,0,3:2:0:0:
228,384,19956,1,2,3:2:0:0:
142,236,20123,1,0,3:2:0:0:
44,272,20289,5,8,2:0:0:0:
53,273,20373,1,8,2:0:0:0:
59,281,20456,1,8,2:0:0:0:
59,291,20539,1,8,2:0:0:0:
81,303,20623,5,8,2:0:0:0:
86,315,20706,1,8,2:0:0:0:
79,330,20789,1,8,2:0:0:0:
66,338,20873,1,8,2:0:0:0:
0,373,20956,5,8,2:0:0:0:
35,333,21039,1,8,2:0:0:0:
77,299,21123,1,8,2:0:0:0:
129,271,21206,1,8,2:0:0:0:
184,252,21289,1,8,2:0:0:0:
248,242,21373,1,8,2:0:0:0:
312,245,21456,1,8,2:0:0:0:
379,262,21539,1,8,2:0:0:0:
445,297,21623,1,0,3:0:0:0:
445,297,22289,5,2,2:0:0:0:
440,307,22456,1,2,2:0:0:0:
336,365,22623,1,2,2:0:0:0:
341,375,22789,1,2,2:0:0:0:
512,384,22968,6,0,B|313:338|313:338|300:311|269:303,1,252.450002407551,6|0,3:2|2:0,2:0:0:0:
262,284,23301,2,0,P|239:285|207:311,1,53.55,10|0,2:0|2:0,2:0:0:0:
113,362,23468,2,0,P|112:335|124:312,1,53.55,2|0,2:0|2:0,2:0:0:0:
324,244,23634,2,0,P|311:224|273:209,1,53.55,2|0,2:0|2:0,2:0:0:0:
38,190,23801,5,2,3:2:0:0:
38,190,23884,2,0,P|47:215|56:246,1,53.55,2|10,2:0|2:0,2:0:0:0:
132,214,24051,1,0,2:0:0:0:
132,214,24134,2,0,P|121:186|112:156,1,53.55,2|0,2:0|2:0,2:0:0:0:
236,65,24301,6,0,B|283:37|311:83|311:94|301:89|331:139|379:112,1,168.3,2|2,3:2|2:0,2:0:0:0:
499,152,24551,1,0,2:0:0:0:
499,152,24634,2,0,P|487:127|464:115,1,53.55,10|0,2:0|2:0,2:0:0:0:
367,35,24801,2,0,P|378:11|401:0,1,53.55,2|0,2:0|2:0,2:0:0:0:
349,271,24967,6,0,B|332:277|322:296|322:296|351:199,1,132.6,2|0,2:1|3:2,2:0:0:0:
466,282,25217,1,0,2:0:0:0:
459,298,25301,2,0,B|232:359|232:359|213:347|191:339,1,267.75,10|0,2:0|2:0,2:0:0:0:
73,267,25634,6,0,B|48:251|30:221|66:157|130:165|168:232|140:287|56:307,1,252.45,6|0,3:2|2:0,2:0:0:0:
65,325,25967,2,0,P|34:325|9:296,1,53.55,10|0,2:0|2:0,2:0:0:0:
191,295,26134,2,0,P|206:321|193:357,1,53.55,2|0,2:0|2:0,2:0:0:0:
70,182,26301,6,0,P|74:159|80:126,1,53.55,2|0,2:0|2:0,2:0:0:0:
97,52,26467,2,0,P|101:25|106:-1,1,53.55,2|0,3:2|2:0,2:0:0:0:
257,126,26634,6,0,P|300:137|332:58,1,132.6,10|2,2:0|2:0,2:0:0:0:
431,0,26884,1,0,2:0:0:0:
431,0,26967,2,0,P|410:21|445:65,1,53.55,2|0,3:2|2:0,2:0:0:0:
453,213,27134,2,0,P|445:184|389:192,1,53.55,2|0,2:0|2:0,2:0:0:0:
257,126,27301,6,0,L|203:140,1,53.55,10|0,2:0|2:0,2:0:0:0:
161,204,27467,2,0,L|107:218,1,53.55,2|0,2:0|2:0,2:0:0:0:
5,72,27634,6,0,B|2:43|2:43|29:18|29:18|34:55|34:55|13:75,1,132.6,2|0,2:1|3:2,2:0:0:0:
28,203,27884,1,0,2:0:0:0:
22,219,27967,2,0,B|-21:233|-21:233|31:195|31:195|96:228|96:228|190:203,1,267.75,10|0,2:0|2:0,2:0:0:0:
271,287,28301,6,0,B|315:239|303:171|303:171|309:180|309:180|331:234|402:251,1,252.45,6|0,3:2|2:0,2:0:0:0:
423,244,28634,2,0,P|440:225|437:191,1,53.55,10|0,2:0|2:0,2:0:0:0:
512,145,28801,2,0,P|504:120|473:106,1,53.55,2|0,2:0|2:0,2:0:0:0:
320,342,28967,6,0,B|354:350|369:383|369:383|370:377|370:377|362:347|385:322,1,132.6,2|2,2:0|3:2,2:0:0:0:
324,235,29217,1,0,2:0:0:0:
324,235,29301,2,0,L|303:175,1,53.55,8|0,2:0|2:0,2:0:0:0:
272,45,29467,2,0,L|251:105,1,53.55,2|0,2:0|2:0,2:0:0:0:
68,172,29634,6,0,L|340:95,1,267.75,4|0,3:2|2:0,2:0:0:0:
401,108,29967,2,0,P|397:135|379:154,1,53.55,10|0,2:0|2:0,2:0:0:0:
187,384,30134,6,0,B|148:347|180:296|192:309|230:260|188:214,1,178.5,2|2,2:0|2:0,2:0:0:0:
106,280,30384,1,0,2:0:0:0:
106,280,30467,2,0,P|120:303|150:317,1,53.55,2|0,3:2|2:0,2:0:0:0:
187,116,30634,2,0,P|160:116|132:135,1,53.55,10|0,2:0|2:0,2:0:0:0:
288,268,30801,2,0,P|300:244|298:211,1,53.55,2|0,2:0|2:0,2:0:0:0:
388,52,30967,6,0,B|370:17|388:-45|511:-57|560:35|503:135|420:90,1,283.05,4|0,3:2|2:0,2:0:0:0:
431,195,31301,2,0,P|398:188|376:132,1,84.15,8|0,2:0|2:0,2:0:0:0:
154,0,31467,6,0,P|173:77|220:326,1,298.35,2|0,3:2|2:0,2:0:0:0:
264,377,31801,2,0,B|289:374|292:338|292:338|282:359|260:370,1,99.45,2|0,2:0|2:0,2:0:0:0:
125,233,31967,2,0,B|127:211|157:209|157:209|140:217|130:236,1,84.15,8|0,2:0|2:0,2:0:0:0:
117,375,32134,1,2,2:0:0:0:
357,222,32301,5,12,2:0:0:0:
92,125,32467,1,2,3:2:0:0:
344,226,32634,1,2,3:2:0:0:
154,0,32801,5,14,2:0:0:0:
36,209,32967,1,2,2:0:0:0:
226,148,33134,1,0,3:2:0:0:
0,0,33301,6,0,P|12:34|19:63,1,53.55,10|0,2:0|2:0,2:0:0:0:
83,95,33467,2,0,P|74:115|69:135,1,43.3500000000002,2|0,2:0|2:0,2:0:0:0:
0,342,33634,6,0,B|30:282|105:295|120:323|94:338|146:386|216:375|228:307,1,252.45,6|0,3:2|2:0,2:0:0:0:
347,194,33967,2,0,B|303:242|315:310|315:310|287:247|216:230,1,252.45,10|0,2:0|2:0,2:0:0:0:
195,221,34301,6,0,P|166:232|154:262,1,53.55,2|0,2:0|2:0,2:0:0:0:
306,384,34467,2,0,P|310:353|290:327,1,53.55,2|0,3:2|2:0,2:0:0:0:
193,137,34634,6,0,P|198:117|205:83,1,53.55,10|0,2:0|2:0,2:0:0:0:
276,104,34801,2,0,P|269:130|264:156,1,53.55,2|0,2:0|2:0,2:0:0:0:
18,92,34967,6,0,P|87:76|291:13,1,252.45,2|0,3:2|2:0,2:0:0:0:
332,50,35301,2,0,P|346:61|349:105,1,53.55,10|0,2:0|2:0,2:0:0:0:
461,44,35467,2,0,P|475:33|478:-11,1,53.55,2|0,2:0|2:0,2:0:0:0:
367,212,35634,6,0,B|389:236|383:272|383:272|398:239|435:230,1,132.6,2|0,2:1|3:2,2:0:0:0:
486,361,35884,1,0,2:0:0:0:
495,375,35967,2,0,P|440:342|229:309,1,267.75,10|0,2:0|2:0,2:0:0:0:
78,321,36301,6,0,B|85:353|61:378|61:378|137:384|180:275|101:227,1,252.45,6|0,3:2|2:0,2:0:0:0:
120,215,36634,2,0,P|94:197|58:202,1,53.55,10|0,2:0|2:0,2:0:0:0:
0,86,36801,2,0,P|-2:117|19:146,1,53.55,2|0,2:0|2:0,2:0:0:0:
157,309,36967,6,0,P|185:295|199:261,1,53.55,2|0,2:0|2:0,2:0:0:0:
300,285,37134,2,0,P|302:253|280:224,1,53.55,2|0,3:2|2:0,2:0:0:0:
267,39,37301,6,0,L|255:114,1,53.55,10|0,2:0|2:0,2:0:0:0:
187,145,37467,2,0,L|199:220,1,53.55,2|0,2:0|2:0,2:0:0:0:
302,363,37634,6,0,B|347:384|384:344|380:309|380:309|372:278,1,132.6,2|0,3:2|2:0,2:0:0:0:
434,207,37884,1,0,2:0:0:0:
434,207,37967,2,0,L|449:259,1,53.55,10|0,2:0|2:0,2:0:0:0:
498,349,38134,2,0,L|513:297,1,53.55,2|0,2:0|2:0,2:0:0:0:
306,138,38301,6,0,B|302:126|282:116|282:116|384:141,1,132.6,2|0,2:1|3:2,2:0:0:0:
480,133,38551,1,0,2:0:0:0:
490,118,38634,2,0,B|508:85|475:15|408:41|408:41|381:71|381:71|415:111|384:147,1,267.75,10|0,2:0|2:0,2:0:0:0:
385,309,38967,6,0,L|127:246,1,252.45,6|0,3:2|2:0,2:0:0:0:
116,235,39301,2,0,P|97:254|94:291,1,53.55,10|0,2:0|2:0,2:0:0:0:
0,156,39467,2,0,P|19:175|56:178,1,53.55,2|0,2:0|2:0,2:0:0:0:
5,291,39634,6,0,P|14:316|22:342,1,53.55,2|0,2:0|2:0,2:0:0:0:
120,157,39801,2,0,P|127:131|136:106,1,53.55,2|0,3:2|2:0,2:0:0:0:
279,252,39967,6,0,P|272:226|263:201,1,53.55,10|0,2:0|2:0,2:0:0:0:
332,174,40134,2,0,P|339:200|348:225,1,53.55,2|0,2:0|2:0,2:0:0:0:
444,384,40301,6,0,P|454:334|515:135,1,252.45,4|0,3:2|2:0,2:0:0:0:
506,115,40634,2,0,P|501:96|470:69,1,53.55,10|0,2:0|2:0,2:0:0:0:
443,0,40801,2,0,P|424:-5|385:8,1,53.55,2|0,2:0|2:0,2:0:0:0:
206,148,40967,6,0,P|234:158|254:75,1,132.6,2|2,2:0|3:2,2:0:0:0:
149,3,41217,1,0,2:0:0:0:
138,17,41301,2,0,B|94:94|166:137|183:137|176:122|254:169|211:244,1,267.75,10|0,2:0|2:0,2:0:0:0:
65,329,41634,6,0,B|45:363|-3:376|-3:376|298:299,1,377.4,4|8,3:2|2:0,2:0:0:0:
348,345,42051,1,0,2:0:0:0:
365,352,42134,2,0,B|384:334|384:334|395:318|396:286|368:268,1,94.3500000000001,2|0,2:0|2:0,2:0:0:0:
289,229,42301,1,0,2:0:0:0:
113,93,42467,2,0,P|116:121|142:143,1,53.55,2|0,3:2|2:0,2:0:0:0:
482,67,42634,6,0,B|411:78|350:94|350:94|345:113|325:127,1,168.3,8|2,2:0|2:0,2:0:0:0:
206,257,42884,1,2,2:0:0:0:
210,247,42967,2,0,P|244:110|267:-25,1,252.45,6|0,3:2|2:0,2:0:0:0:
211,47,43301,5,2,2:0:0:0:
211,47,43467,1,2,2:0:0:0:
331,121,43634,2,0,P|352:114|370:92,1,43.3500000000002,0|0,2:0|2:0,2:0:0:0:
443,117,43801,2,0,P|447:95|437:68,1,43.3500000000002,2|0,3:2|2:0,2:0:0:0:
345,239,43967,1,2,2:0:0:0:
345,239,44134,1,0,2:0:0:0:
512,384,44301,6,0,B|448:372|389:349|389:349|358:356,1,137.7,6|0,3:2|2:0,2:0:0:0:
306,303,44551,1,0,2:0:0:0:
312,312,44634,2,0,L|302:356,1,38.2500000000001,4|0,3:2|2:0,2:0:0:0:
193,384,44801,2,0,L|183:340,1,38.2500000000001,2|0,2:0|2:0,2:0:0:0:
334,167,44967,6,0,B|360:168|368:191|368:191|354:177|329:177,1,84.15,10|0,2:0|2:0,2:0:0:0:
236,290,45134,1,0,3:2:0:0:
115,138,45301,6,0,P|98:110|178:54,1,137.7,2|2,2:0|2:0,2:0:0:0:
236,24,45551,1,2,2:0:0:0:
247,37,45634,2,0,P|212:57|5:-2,1,267.75,6|2,3:2|2:0,2:0:0:0:
8,2,45967,1,2,3:2:0:0:
91,226,46134,1,0,3:2:0:0:
299,98,46301,6,0,P|348:91|390:119,1,102,10|2,2:0|2:0,2:0:0:0:
389,118,46967,5,4,2:0:0:0:
256,192,47051,12,0,60356,2:0:0:0:
