osu file format v14

[General]
AudioFilename: audio.mp3
AudioLeadIn: 0
PreviewTime:21623
Countdown: 0
SampleSet: Soft
StackLeniency: 0.7
Mode: 0
LetterboxInBreaks: 0
WidescreenStoryboard: 1

[Editor]
DistanceSpacing: 0.5
BeatDivisor: 6
GridSize: 16
TimelineZoom: 1

[Metadata]
Title:Harumachi the Madness
TitleUnicode:Harumachi the Madness
Artist:ModlesS_Flash
ArtistUnicode:ModlesS_Flash
Creator:AdeAAa
Version:Hard
Source:OneRoom
Tags:finnish bn aakki riffy FreezingAnimenz Sanayui Cybernecia [ HuoYui ] Sightread [Yoshino] japanese vocalist vocals anime electronic remix mashup tech 花坂結衣 hanasaka yui M・A・O mao M.A.O kantoku カントク feat. feat 春待ちクローバー Harumachi Clover ワンルーム One Room Excision & Pegboard Nerds Bring The Madness Mayor Apeshit ichimichi modless flash 市道 真央
BeatmapID:4218917
BeatmapSetID:2024933

[Difficulty]
HPDrainRate:3.8
CircleSize:3.9
OverallDifficulty:6.5
ApproachRate:7.5
SliderMultiplier:1.34
SliderTickRate:1

[Events]
//Background and Video events
0,0,"harumachi.jpg",0,0
//Break Periods
//Storyboard Layer 0 (Background)
//Storyboard Layer 1 (Fail)
//Storyboard Layer 2 (Pass)
//Storyboard Layer 3 (Foreground)
//Storyboard Layer 4 (Overlay)
//Storyboard Sound Samples

[TimingPoints]
290,333.333333333333,4,2,1,60,1,0
290,-117.647058823529,4,2,1,60,0,0
10289,-117.647058823529,4,2,1,35,0,0
10455,-117.647058823529,4,2,1,45,0,0
10623,-117.647058823529,4,2,1,55,0,0
10789,-117.647058823529,4,2,1,65,0,0
16289,-111.111111111111,4,2,1,65,0,0
20289,-111.111111111111,4,2,1,55,0,0
20623,-111.111111111111,4,2,1,60,0,0
20956,-111.111111111111,4,2,1,65,0,0
21289,-111.111111111111,4,2,1,70,0,0
21623,-111.111111111111,4,2,1,75,0,0
22968,333.333333333333,4,2,2,75,1,1
22968,-95.2380952380952,4,2,2,75,0,1
25884,-95.2380952380952,4,2,2,5,0,1
25967,-95.2380952380952,4,2,2,75,0,1
30967,-95.2380952380952,4,2,2,80,0,1
32217,-95.2380952380952,4,2,2,5,0,1
32301,-95.2380952380952,4,2,2,80,0,1
33301,-95.2380952380952,4,2,2,80,0,0
33551,-95.2380952380952,4,2,2,5,0,0
33634,-95.2380952380952,4,2,2,75,0,1
33884,-95.2380952380952,4,2,2,5,0,1
33967,-95.2380952380952,4,2,2,75,0,1
38884,-95.2380952380952,4,2,2,5,0,1
38967,-95.2380952380952,4,2,2,75,0,1
41634,-95.2380952380952,4,2,2,80,0,1
44301,-100,4,2,2,75,0,0
46634,-100,4,2,2,50,0,0
46967,-100,4,2,2,60,0,0

[Colours]
Combo1 : 192,255,166
Combo2 : 249,189,237
Combo3 : 198,242,244
Combo4 : 255,183,185

[HitObjects]
193,229,290,6,0,P|212:248|211:287,1,56.9500000000002,4|0,3:2|2:0,2:0:0:0:
149,323,623,2,0,P|100:304|28:280,2,113.9,2|2|10,3:2|3:2|2:0,2:0:0:0:
216,381,1456,2,0,P|233:362|319:341,1,113.9,2|2,2:0|2:0,2:0:0:0:
388,372,1956,1,2,3:2:0:0:
437,309,2123,2,0,L|409:190,1,113.9,2|2,2:0|2:0,2:0:0:0:
358,142,2623,1,10,3:2:0:0:
358,142,2789,1,2,2:0:0:0:
395,50,2956,6,0,P|427:43|513:18,2,113.9,0|0|0,3:0|3:0|3:0,2:0:0:0:
316,64,3789,1,2,2:0:0:0:
262,5,3956,2,0,P|253:23|222:45,1,56.9500000000002,10|2,2:0|2:0,2:0:0:0:
216,135,4289,6,0,P|182:127|116:181,1,113.9,2|2,3:2|3:2,2:0:0:0:
188,209,4789,1,2,2:0:0:0:
125,258,4956,2,0,P|155:285|196:282,1,56.9500000000002,2|2,3:2|2:0,2:0:0:0:
226,344,5289,1,2,3:2:0:0:
226,344,5456,1,2,2:0:0:0:
287,276,5623,6,0,L|345:260,1,56.9500000000002,4|0,3:2|2:0,2:0:0:0:
395,201,5956,2,0,P|422:247|410:307,2,113.9,2|2|10,3:2|3:2|2:0,2:0:0:0:
317,180,6789,2,0,P|289:131|299:76,1,113.9,2|2,2:0|2:0,2:0:0:0:
352,16,7289,1,2,3:2:0:0:
273,2,7456,2,0,P|218:15|154:25,1,113.9,2|2,2:0|2:0,2:0:0:0:
116,90,7956,1,10,2:0:0:0:
116,90,8123,1,2,2:0:0:0:
49,28,8289,6,0,P|26:44|34:127,1,113.9,6|0,3:2|3:2,2:0:0:0:
95,165,8789,1,2,2:0:0:0:
111,243,8956,2,0,P|54:252|0:265,1,113.9,2|10,3:2|2:0,2:0:0:0:
145,374,9623,5,6,3:2:0:0:
214,335,9789,2,0,P|269:321|325:312,1,113.9,0|6,3:2|3:2,2:0:0:0:
392,357,10289,2,0,P|388:370|384:391,2,28.4750000000001,10|8|8,2:0|2:0|3:2,2:0:0:0:
463,319,10623,1,8,2:0:0:0:
467,305,10706,1,8,2:0:0:0:
472,292,10789,1,8,2:0:0:0:
404,230,10956,6,0,P|399:192|380:103,1,113.9,6|10,3:2|2:0,2:0:0:0:
436,58,11456,2,0,P|432:28|357:1,1,113.9,2|2,3:2|3:2,2:0:0:0:
282,1,11956,1,8,2:0:0:0:
254,75,12123,1,2,2:0:0:0:
177,25,12289,6,0,L|57:2,2,113.9,0|10|2,3:2|2:0|2:0,2:0:0:0:
179,105,13123,1,0,3:2:0:0:
111,146,13289,2,0,P|96:167|92:203,1,56.9500000000002,10|2,2:0|2:0,2:0:0:0:
135,264,13623,2,0,B|198:252|176:239|247:228,1,113.9,2|8,3:2|2:0,2:0:0:0:
290,165,14123,2,0,B|353:177|331:190|402:201,1,113.9,2|2,3:2|3:2,2:0:0:0:
473,176,14623,1,10,2:0:0:0:
473,176,14789,1,2,2:0:0:0:
502,262,14956,6,0,L|478:376,1,113.9,2|10,3:2|2:0,2:0:0:0:
405,341,15456,2,0,L|391:282,1,56.9500000000002,2|0,3:2|2:0,2:0:0:0:
324,329,15789,1,0,3:2:0:0:
271,268,15956,1,8,2:0:0:0:
274,254,16039,1,8,2:0:0:0:
277,239,16123,1,0,3:2:0:0:
192,285,16289,6,0,P|159:280|84:320,1,120.6,6|10,3:2|2:0,2:0:0:0:
14,272,16789,2,0,P|34:245|37:160,1,120.6,6|2,3:2|3:2,2:0:0:0:
1,85,17289,1,10,2:0:0:0:
193,65,17623,6,0,P|221:59|245:33,1,60.3000000000001,4|2,3:2|3:2,2:0:0:0:
320,4,17956,1,10,2:0:0:0:
372,70,18123,2,0,P|424:79|476:127,1,120.6,2|2,3:2|3:2,2:0:0:0:
510,198,18623,1,10,2:0:0:0:
510,198,18789,1,8,2:0:0:0:
434,258,18956,6,0,P|426:288|419:328,1,60.3000000000001,6|0,3:2|3:2,2:0:0:0:
338,298,19289,2,0,P|346:268|353:228,1,60.3000000000001,2|0,3:2|3:2,2:0:0:0:
312,169,19623,1,2,3:2:0:0:
312,169,19789,1,0,3:2:0:0:
234,204,19956,2,0,L|166:221,1,60.3000000000001,2|0,3:2|3:2,2:0:0:0:
87,257,20289,5,8,2:0:0:0:
84,242,20373,1,8,2:0:0:0:
81,227,20456,1,8,2:0:0:0:
14,174,20623,2,0,L|25:111,1,60.3000000000001,8|8,2:0|2:0,2:0:0:0:
31,81,20873,1,8,2:0:0:0:
35,66,20956,6,0,P|24:55|10:51,2,30.15,8|8|8,2:0|2:0|2:0,2:0:0:0:
101,118,21289,1,8,2:0:0:0:
116,117,21373,1,8,2:0:0:0:
129,111,21456,1,8,2:0:0:0:
187,49,21623,1,0,3:0:0:0:
485,306,22968,6,0,B|495:335|495:335|423:362,1,105.524996779633,6|0,3:2|2:0,2:0:0:0:
383,337,23301,2,0,L|399:262,2,70.3499978530885,10|2|2,2:0|2:0|2:0,2:0:0:0:
289,369,23801,1,2,3:2:0:0:
254,299,23968,1,10,2:0:0:0:
177,314,24134,1,2,2:0:0:0:
212,384,24301,6,0,B|238:257|238:257|233:232,1,140.7,2|10,3:2|2:0,2:0:0:0:
169,172,24801,1,2,2:0:0:0:
135,102,24967,2,0,B|156:73|156:73|199:79,1,70.35,2|0,2:1|3:2,2:0:0:0:
253,2,25301,2,0,B|288:5|288:5|304:45,1,70.35,10|0,2:0|2:0,2:0:0:0:
400,49,25634,6,0,L|373:157,1,105.525,6|0,3:2|2:0,2:0:0:0:
338,185,25967,1,10,2:0:0:0:
378,251,26134,1,2,2:0:0:0:
339,317,26301,1,2,2:0:0:0:
261,312,26467,1,2,3:2:0:0:
229,241,26634,2,0,B|168:227|168:227|156:215,1,70.35,10|2,2:0|2:0,2:0:0:0:
101,143,26967,6,0,L|63:287,1,140.7,2|10,3:2|2:0,2:0:0:0:
6,358,27467,1,2,2:0:0:0:
6,358,27634,2,0,B|40:356|40:356|69:382,1,70.35,2|0,2:1|3:2,2:0:0:0:
158,343,27967,2,0,B|192:345|192:345|221:319,1,70.35,10|0,2:0|2:0,2:0:0:0:
321,345,28301,6,0,B|329:291|299:246|299:246|311:231|313:207,1,140.7,6|10,3:2|2:0,2:0:0:0:
374,166,28801,1,2,2:0:0:0:
328,78,28967,1,2,2:0:0:0:
382,22,29134,2,0,L|457:4,2,70.35,2|8|2,3:2|2:0|2:0,2:0:0:0:
281,0,29634,6,0,L|143:32,1,140.7,4|10,3:2|2:0,2:0:0:0:
72,4,30134,1,2,2:0:0:0:
10,50,30301,1,2,2:0:0:0:
22,126,30467,1,2,3:2:0:0:
94,153,30634,2,0,L|108:226,1,70.35,10|2,2:0|2:0,2:0:0:0:
72,314,30967,6,0,B|138:337|138:337|188:286,1,140.7,4|8,3:2|2:0,2:0:0:0:
284,306,31467,2,0,B|317:317|317:317|337:353,1,70.35,2|0,3:2|2:0,2:0:0:0:
408,372,31801,1,2,2:0:0:0:
487,313,31967,2,0,B|486:294|486:294|509:187,1,105.525,8|0,2:0|2:0,2:0:0:0:
476,168,32301,6,0,L|465:94,1,70.35,12|2,2:0|3:2,2:0:0:0:
496,26,32634,1,2,3:2:0:0:
397,26,32801,2,0,B|371:50|371:50|328:39,1,70.35,14|2,2:0|2:0,2:0:0:0:
273,4,33134,1,0,3:2:0:0:
179,38,33301,2,0,B|170:56|160:67|160:67|181:99|187:140,1,105.525,10|0,2:0|2:0,2:0:0:0:
216,176,33634,6,0,L|87:148,1,105.525,6|0,3:2|2:0,2:0:0:0:
71,126,33967,2,0,B|41:147|41:147|31:186,1,70.35,10|0,2:0|2:0,2:0:0:0:
97,254,34301,1,2,2:0:0:0:
173,271,34467,1,2,3:2:0:0:
248,288,34634,2,0,L|332:269,1,70.35,10|2,2:0|2:0,2:0:0:0:
405,314,34967,6,0,B|436:251|436:251|379:190,1,140.7,2|10,3:2|2:0,2:0:0:0:
313,135,35467,2,0,B|288:109|288:109|304:77,2,70.35,2|2|0,2:0|2:1|3:2,2:0:0:0:
410,119,35967,2,0,B|425:87|425:87|401:61,1,70.35,10|0,2:0|2:0,2:0:0:0:
313,0,36301,6,0,L|240:19,1,70.35,6|2,3:2|2:0,2:0:0:0:
196,79,36634,1,10,2:0:0:0:
196,79,36801,1,2,2:0:0:0:
115,22,36967,2,0,B|105:36|105:36|89:102,1,70.35,2|2,2:0|3:2,2:0:0:0:
120,159,37301,1,10,2:0:0:0:
98,233,37467,1,2,2:0:0:0:
22,296,37634,6,0,B|51:319|51:319|160:343,1,140.7,2|10,3:2|2:0,2:0:0:0:
247,380,38134,1,2,2:0:0:0:
247,380,38301,2,0,B|260:371|260:371|272:309,1,70.35,2|0,2:1|3:2,2:0:0:0:
365,288,38634,2,0,L|338:165,1,105.525,10|0,2:0|2:0,2:0:0:0:
335,136,38967,6,0,B|359:109|359:109|400:113,2,70.35,6|2|10,3:2|2:0|2:0,2:0:0:0:
265,169,39467,1,2,2:0:0:0:
196,97,39634,2,0,L|208:18,1,70.35,2|2,2:0|3:2,2:0:0:0:
110,49,39967,1,10,2:0:0:0:
19,10,40134,2,0,L|40:152,1,140.7,2|2,2:0|2:0,2:0:0:0:
117,210,40634,5,10,2:0:0:0:
117,210,40801,1,2,2:0:0:0:
62,264,40967,2,0,B|38:290|38:290|46:333,1,70.35,2|2,2:0|3:2,2:0:0:0:
126,379,41301,1,10,2:0:0:0:
200,357,41467,1,2,2:0:0:0:
276,294,41634,6,0,B|338:308|338:308|345:316|345:316|423:333,1,140.7,4|8,3:2|2:0,2:0:0:0:
512,384,42134,2,0,L|498:307,1,70.35,2|0,2:0|2:0,2:0:0:0:
512,232,42467,1,2,3:2:0:0:
428,178,42634,2,0,L|350:192,1,70.35,8|2,2:0|2:0,2:0:0:0:
328,215,42884,5,2,2:0:0:0:
310,218,42967,1,6,3:2:0:0:
238,189,43134,1,2,2:0:0:0:
263,116,43301,2,0,L|250:46,2,70.35,2|2|0,2:0|2:0|2:0,2:0:0:0:
363,98,43801,1,2,3:2:0:0:
363,98,43967,2,0,L|350:28,1,70.35,2|0,2:0|2:0,2:0:0:0:
446,58,44301,6,0,B|450:78|450:78|431:177|431:177|412:195,1,134,6|4,3:2|3:2,2:0:0:0:
473,247,44801,1,2,2:0:0:0:
384,278,44967,2,0,B|367:306|367:306|386:348,1,67,10|0,2:0|3:2,2:0:0:0:
309,374,45301,2,0,B|293:345|293:345|247:340,1,67,2|2,2:0|2:0,2:0:0:0:
221,327,45551,5,2,2:0:0:0:
204,330,45634,2,0,L|123:321,1,67,6|2,3:2|2:0,2:0:0:0:
37,336,45967,1,2,3:2:0:0:
62,259,46134,1,0,3:2:0:0:
87,182,46301,2,0,L|64:47,1,134,10|2,2:0|2:0,2:0:0:0:
236,155,46967,1,4,2:0:0:0:
256,192,47051,12,0,60356,2:0:0:0:
