osu file format v14

[General]
AudioFilename: audio.mp3
AudioLeadIn: 0
PreviewTime: 44117
Countdown: 0
SampleSet: Soft
StackLeniency: 0.7
Mode: 0
LetterboxInBreaks: 0
WidescreenStoryboard: 0

[Editor]
Bookmarks: 8476,16705,24933,33162,41390,44133,52362,60512,60590,60683,68819,77048,79797,88026,96248,101733,107226
DistanceSpacing: 0.5
BeatDivisor: 4
GridSize: 16
TimelineZoom: 1.5

[Metadata]
Title:Broken Cash Machine
TitleUnicode:Broken Cash Machine
Artist:Modern Baseball
ArtistUnicode:Modern Baseball
Creator:Calculator
Version:I Make Everything Collapse Even When It's Glued Together
Source:
Tags:you're gonna miss it all midwest emo indie rock punk run for cover
BeatmapID:1817400
BeatmapSetID:869616

[Difficulty]
HPDrainRate:6
CircleSize:3.8
OverallDifficulty:9
ApproachRate:9.1
SliderMultiplier:1.9
SliderTickRate:1

[Events]
//Background and Video events
0,0,"whydoeseverythingcollapse.jpg",0,0
//Break Periods
2,36073,43027
//Storyboard Layer 0 (Background)
//Storyboard Layer 1 (Fail)
//Storyboard Layer 2 (Pass)
//Storyboard Layer 3 (Foreground)
//Storyboard Sound Samples

[TimingPoints]
233,342.857142857143,4,2,13,60,1,0
8461,-125,4,2,13,60,0,0
24918,-111.111111111111,4,2,13,60,0,0
29033,-106.382978723404,4,2,13,60,0,0
30404,-102.040816326531,4,2,13,60,0,0
31775,-100,4,2,13,60,0,0
33147,-90.9090909090909,4,2,13,60,0,0
34518,338.983050847458,4,2,13,60,1,0
35897,342.857142857143,4,2,13,60,1,0
43782,-166.666666666667,4,2,13,60,0,0
44117,342.857142857143,4,2,13,60,1,1
44117,-100,4,2,13,60,0,1
44468,-100,4,2,13,60,0,1
48231,342.857142857143,4,2,13,60,1,1
49590,342.857142857143,4,2,13,60,1,1
52332,-100,4,2,13,60,0,0
65961,-100,4,2,13,5,0,0
66047,-100,4,2,13,60,0,0
71447,-100,4,2,13,5,0,0
71532,340.909090909091,4,2,13,60,1,0
72895,342.857142857143,4,2,13,60,1,0
74180,-100,4,2,13,5,0,0
74266,355.029585798817,4,2,13,60,1,0
75686,344.827586206897,4,2,13,60,1,0
77065,338.983050847458,4,2,13,60,1,0
79776,346.820809248555,4,2,13,60,1,1
82530,344.827586206897,4,2,13,60,1,1
83909,342.857142857143,4,2,13,60,1,1
84594,337.078651685393,4,2,13,60,1,1
85288,337.078651685393,4,2,13,60,1,1
86643,338.983050847458,4,2,13,60,1,1
87999,338.983050847458,4,2,13,60,1,1
89354,344.827586206897,4,2,13,60,1,1
90733,355.029585798817,4,2,13,60,1,1
92141,346.820809248555,4,2,13,60,1,1
93534,342.857142857143,4,2,13,60,1,0
94905,335.195530726257,4,2,13,60,1,0
96245,-100,4,2,13,60,0,1
97586,344.827586206897,4,2,13,60,1,1
98965,338.983050847458,4,2,13,60,1,1
100320,359.281437125748,4,2,13,60,1,1
101038,348.837209302326,4,2,13,60,1,1
101735,344.827586206897,4,2,13,60,1,0
101735,-116.279069767442,4,2,13,60,0,0
104485,338.983050847458,4,2,13,60,1,0

[Colours]
Combo1 : 115,185,185
Combo2 : 128,128,255
Combo3 : 157,255,255

[HitObjects]
278,61,8461,6,0,L|285:165,1,76,0|0,1:0|0:0,0:0:0:0:
323,295,8804,2,0,L|316:191,1,76,8|0,0:0|0:0,0:0:0:0:
316,118,9147,1,0,1:0:0:0:
236,149,9318,1,0,0:0:0:0:
397,227,9490,2,0,P|440:242|486:229,1,76,8|0,0:0|0:0,0:0:0:0:
318,37,9833,6,0,L|214:44,1,76,0|0,1:0|0:0,0:0:0:0:
84,82,10175,2,0,L|188:75,1,76,8|0,0:0|0:0,0:0:0:0:
326,138,10518,2,0,L|222:145,1,76,0|0,1:0|0:0,0:0:0:0:
92,183,10861,2,0,L|196:176,1,76,8|0,0:0|0:0,0:0:0:0:
14,129,11204,6,0,P|-1:172|12:218,1,76,0|0,1:0|0:0,0:0:0:0:
228,265,11547,2,0,L|124:272,1,76,8|0,0:0|0:0,0:0:0:0:
54,280,11890,1,0,1:0:0:0:
120,351,12061,1,0,0:0:0:0:
200,192,12233,2,0,P|215:149|202:103,1,76,8|0,0:0|0:0,0:0:0:0:
152,270,12576,6,0,L|228:265,1,76,0|0,1:0|0:0,0:0:0:0:
368,192,12919,2,0,L|264:199,1,76,8|0,0:0|0:0,0:0:0:0:
399,262,13261,1,0,1:0:0:0:
445,201,13433,1,0,0:0:0:0:
221,151,13604,2,0,P|206:194|219:240,1,76,8|0,0:0|0:0,0:0:0:0:
330,72,13947,6,0,L|226:79,1,76,0|0,1:0|0:0,0:0:0:0:
391,118,14290,2,0,L|495:111,1,76,8|0,0:0|0:0,0:0:0:0:
320,147,14633,2,0,L|327:251,1,76,0|0,1:0|0:0,0:0:0:0:
389,356,14976,2,0,L|382:252,1,76,8|0,0:0|0:0,0:0:0:0:
269,181,15319,2,0,L|330:265,1,76,0|0,1:0|0:0,0:0:0:0:
439,321,15661,2,0,L|378:237,1,76,8|0,0:0|0:0,0:0:0:0:
245,236,16004,2,0,L|341:275,1,76,0|0,1:0|0:0,0:0:0:0:
463,266,16347,2,0,L|367:227,1,76,8|0,0:0|0:0,0:0:0:0:
291,126,16690,6,0,L|385:169,1,76,0|0,1:0|0:0,0:0:0:0:
223,173,17033,2,0,P|208:130|221:84,1,76,8|0,0:0|0:0,0:0:0:0:
373,121,17376,1,0,1:0:0:0:
291,126,17547,1,0,0:0:0:0:
440,75,17719,2,0,P|455:118|442:164,1,76,8|0,0:0|0:0,0:0:0:0:
333,204,18061,2,0,L|229:211,1,76,0|0,1:0|0:0,0:0:0:0:
96,168,18404,2,0,L|200:161,1,76,8|0,0:0|0:0,0:0:0:0:
276,158,18747,1,0,1:0:0:0:
228,225,18918,1,0,0:0:0:0:
227,74,19090,2,0,P|270:59|316:72,1,76,8|0,0:0|0:0,0:0:0:0:
370,116,19433,6,0,L|375:191,1,76,0|0,1:0|0:0,0:0:0:0:
334,353,19775,2,0,L|328:277,1,76,8|0,0:0|0:0,0:0:0:0:
328,187,20118,1,0,1:0:0:0:
395,235,20290,1,0,0:0:0:0:
261,235,20461,2,0,L|185:240,1,76,8|0,0:0|0:0,0:0:0:0:
295,107,20804,6,0,L|370:101,1,76,0|0,1:0|0:0,0:0:0:0:
467,224,21147,2,0,P|424:239|378:226,1,76,8|0,0:0|0:0,0:0:0:0:
328,187,21490,1,0,1:0:0:0:
418,141,21661,1,0,0:0:0:0:
430,319,21833,2,0,L|354:324,1,76,8|0,0:0|0:0,0:0:0:0:
195,304,22175,6,0,L|263:270,1,76,0|0,1:0|0:0,0:0:0:0:
105,230,22518,2,0,L|180:221,1,76,8|0,0:0|0:0,0:0:0:0:
46,129,22861,2,0,L|119:147,1,76,0|0,1:0|0:0,0:0:0:0:
24,337,23204,2,0,P|9:294|22:248,1,76,8|0,0:0|0:0,0:0:0:0:
148,133,23547,2,0,L|129:206,1,76,0|0,1:0|0:0,0:0:0:0:
101,66,23890,2,0,P|144:51|190:64,1,76,8|0,0:0|0:0,0:0:0:0:
255,105,24233,1,0,1:0:0:0:
206,169,24404,1,0,0:0:0:0:
269,267,24575,1,8,0:0:0:0:
223,335,24747,1,0,1:0:0:0:
223,335,24833,1,0,1:0:0:0:
223,335,24918,6,0,P|266:350|315:336,1,85.4999973907472,4|0,1:0|0:0,0:0:0:0:
140,196,25261,2,0,L|139:285,1,85.4999973907472,8|0,0:0|0:0,0:0:0:0:
299,148,25604,1,0,1:0:0:0:
203,121,25775,1,0,0:0:0:0:
318,313,25947,2,0,P|333:270|319:221,1,85.4999973907472,8|0,0:0|0:0,0:0:0:0:
152,264,26290,2,0,L|241:265,1,85.4999973907472,0|0,1:0|0:0,0:0:0:0:
447,244,26633,2,0,L|358:243,1,85.4999973907472,8|0,0:0|0:0,0:0:0:0:
466,323,26975,1,0,1:0:0:0:
512,190,27147,1,0,0:0:0:0:
276,242,27318,2,0,L|365:243,1,85.4999973907472,8|0,0:0|0:0,0:0:0:0:
199,158,27661,6,0,L|110:157,1,85.4999973907472,0|0,1:0|0:0,0:0:0:0:
235,318,28004,2,0,P|278:333|327:319,1,85.4999973907472,8|0,0:0|0:0,0:0:0:0:
198,238,28347,1,0,1:0:0:0:
150,342,28518,1,0,0:0:0:0:
361,242,28690,2,0,L|272:241,1,85.4999973907472,8|0,0:0|0:0,0:0:0:0:
63,309,29033,6,0,P|106:324|156:309,1,89.2999986373902,0|0,1:0|0:0,0:0:0:0:
58,133,29375,2,0,L|58:224,1,89.2999986373902,8|0,0:0|0:0,0:0:0:0:
166,122,29718,2,0,L|167:17,1,89.2999986373902,0|0,1:0|0:0,0:0:0:0:
171,212,30061,2,0,P|214:227|264:212,1,89.2999986373902,8|0,0:0|0:0,0:0:0:0:
440,156,30404,6,0,L|325:139,1,93.0999991476441,8|0,0:0|0:0,0:0:0:0:
143,110,30747,2,0,L|258:127,1,93.0999991476441,8|0,0:0|0:0,0:0:0:0:
428,193,31090,6,0,L|322:147,1,93.0999991476441,8|0,0:0|0:0,0:0:0:0:
154,72,31433,2,0,L|260:118,1,93.0999991476441,8|0,0:0|0:0,0:0:0:0:
408,227,31775,6,0,L|312:149,1,95,8|0,0:0|0:0,0:0:0:0:
174,38,32118,2,0,L|270:116,1,95,8|0,0:0|0:0,0:0:0:0:
380,254,32461,6,0,L|307:154,1,95,8|0,0:0|0:0,0:0:0:0:
202,11,32804,2,0,L|275:111,1,95,8|0,0:0|0:0,0:0:0:0:
380,254,33147,6,0,L|365:124,1,104.500003189087,8|0,0:0|0:0,0:0:0:0:
440,331,33490,2,0,P|393:349|320:332,1,104.500003189087,8|0,0:0|0:0,0:0:0:0:
264,162,33833,2,0,L|394:147,1,104.500003189087,8|0,0:0|0:0,0:0:0:0:
197,250,34175,2,0,L|67:265,1,104.500003189087,8|0,0:0|0:0,0:0:0:0:
185,138,34518,5,8,0:0:0:0:
359,242,34687,1,8,0:0:0:0:
158,271,34856,1,8,0:0:0:0:
309,129,35026,1,8,0:0:0:0:
269,327,35195,1,8,0:0:0:0:
170,121,35365,1,8,0:0:0:0:
379,246,35534,1,8,0:0:0:0:
138,280,35704,1,8,0:0:0:0:
319,110,35873,1,0,1:0:0:0:
359,178,43611,5,0,1:0:0:0:
257,241,43783,2,0,P|205:251|149:240,1,85.4999973907472,12|0,0:0|0:0,0:0:0:0:
159,242,44117,5,2,1:0:0:0:
284,128,44288,1,2,1:0:0:0:
356,320,44459,2,0,L|464:322,1,95,10|2,0:0|0:0,0:0:0:0:
323,226,44803,1,2,1:0:0:0:
237,337,44974,1,0,1:0:0:0:
436,214,45146,2,0,P|442:149|423:109,1,95,10|0,0:0|0:0,0:0:0:0:
237,209,45488,5,2,1:0:0:0:
356,320,45660,1,2,1:0:0:0:
319,129,45831,1,10,0:0:0:0:
293,269,46003,1,2,0:0:0:0:
436,214,46174,2,0,L|437:110,1,95,2|0,1:0|1:0,0:0:0:0:
201,273,46517,2,0,P|266:279|306:260,1,95,10|0,0:0|0:0,0:0:0:0:
175,104,46860,5,2,1:0:0:0:
99,234,47031,1,2,1:0:0:0:
245,199,47202,1,8,0:0:0:0:
95,66,47374,1,2,0:0:0:0:
17,207,47546,2,0,L|14:316,1,95,2|0,1:0|1:0,0:0:0:0:
149,159,47888,1,10,0:0:0:0:
149,159,48231,6,0,P|134:103|146:53,2,95,2|2|10,1:0|1:0|0:0,0:0:0:0:
247,292,48745,1,2,0:0:0:0:
351,136,48916,2,0,L|256:137,1,95,2|0,1:0|1:0,0:0:0:0:
406,273,49259,2,0,L|501:274,1,95,10|0,0:0|0:0,0:0:0:0:
313,217,49590,5,2,1:0:0:0:
449,346,49761,1,2,1:0:0:0:
334,200,49932,1,8,0:0:0:0:
300,357,50104,1,2,0:0:0:0:
442,192,50275,1,2,1:0:0:0:
232,131,50447,1,0,1:0:0:0:
422,219,50618,1,10,0:0:0:0:
318,37,50790,1,0,0:0:0:0:
251,237,50961,5,2,1:0:0:0:
452,123,51132,1,2,1:0:0:0:
256,208,51304,1,8,0:0:0:0:
406,317,51475,1,2,0:0:0:0:
342,79,51647,1,2,1:0:0:0:
261,304,51818,1,2,1:0:0:0:
468,186,51990,1,10,0:0:0:0:
223,163,52161,1,10,0:0:0:0:
223,163,52247,1,8,0:0:0:0:
223,163,52332,6,0,P|299:186|285:308,1,190,2|8,1:0|0:0,0:0:0:0:
124,219,52847,2,0,L|126:98,1,95,2|0,0:0|1:0,0:0:0:0:
311,159,53190,2,0,P|262:175|211:153,1,95,2|8,1:0|0:0,0:0:0:0:
353,65,53532,2,0,L|474:67,1,95,2|0,0:0|1:0,0:0:0:0:
307,283,53875,2,0,P|231:260|245:138,1,190,2|0,1:0|0:0,0:0:0:0:
398,233,54390,2,0,L|396:354,1,95,2|0,1:0|1:0,0:0:0:0:
222,162,54732,2,0,L|224:41,1,95,10|0,0:0|0:0,0:0:0:0:
398,233,55075,6,0,P|349:249|298:227,1,95,2|0,1:0|1:0,0:0:0:0:
222,162,55418,1,10,0:0:0:0:
222,162,55590,2,0,L|101:160,1,95,2|0,0:0|1:0,0:0:0:0:
223,67,55932,1,2,1:0:0:0:
304,115,56104,1,8,0:0:0:0:
125,255,56275,2,0,L|127:134,1,95,2|0,0:0|1:0,0:0:0:0:
262,325,56618,2,0,B|167:291|165:371|68:322,1,190,2|0,1:0|0:0,0:0:0:0:
212,226,57132,2,0,L|333:228,1,95,2|0,1:0|1:0,0:0:0:0:
351,153,57475,2,0,L|472:155,1,95,10|0,0:0|0:0,0:0:0:0:
352,304,57818,6,0,P|303:320|252:298,1,95,2|0,1:0|1:0,0:0:0:0:
212,226,58161,2,0,P|163:210|112:232,1,95,10|0,0:0|0:0,0:0:0:0:
20,322,58504,2,0,L|22:201,1,95,2|0,1:0|1:0,0:0:0:0:
74,154,58847,2,0,L|76:33,1,95,10|0,0:0|0:0,0:0:0:0:
188,198,59190,5,2,1:0:0:0:
122,253,59361,1,2,1:0:0:0:
174,114,59533,1,10,0:0:0:0:
202,282,59704,1,2,0:0:0:0:
108,169,59876,5,2,1:0:0:0:
268,227,60047,1,2,1:0:0:0:
136,337,60218,1,10,0:0:0:0:
254,143,60390,1,2,0:0:0:0:
282,311,60561,6,0,P|230:309|198:271,2,95,2|0|8,1:0|1:0|0:0,0:0:0:0:
425,202,61076,1,0,1:0:0:0:
313,200,61247,1,0,1:0:0:0:
301,199,61333,1,0,1:0:0:0:
289,199,61418,1,0,1:0:0:0:
277,199,61504,1,0,1:0:0:0:
265,198,61590,1,8,0:0:0:0:
149,194,61761,1,0,1:0:0:0:
264,293,61932,6,0,L|265:182,1,95,0|0,1:0|1:0,0:0:0:0:
149,99,62276,2,0,L|148:210,1,95,8|0,0:0|1:0,0:0:0:0:
149,315,62618,1,0,1:0:0:0:
252,200,62790,1,0,1:0:0:0:
67,246,62961,1,8,0:0:0:0:
226,237,63133,1,0,0:0:0:0:
114,163,63304,6,0,P|65:147|14:169,1,95,2|0,1:0|1:0,0:0:0:0:
179,321,63647,2,0,L|279:315,1,95,8|0,0:0|1:0,0:0:0:0:
179,188,63990,1,0,1:0:0:0:
178,199,64076,1,0,1:0:0:0:
178,211,64161,1,0,1:0:0:0:
178,223,64247,1,0,1:0:0:0:
177,235,64333,1,8,0:0:0:0:
260,110,64504,1,0,1:0:0:0:
67,151,64675,6,0,L|66:262,1,95,0|0,1:0|1:0,0:0:0:0:
153,78,65018,1,8,0:0:0:0:
23,148,65190,1,0,1:0:0:0:
177,235,65361,2,0,P|226:251|277:229,1,95,0|0,1:0|1:0,0:0:0:0:
447,139,65704,2,0,L|278:137,1,142.5,10|0,0:0|0:0,0:0:0:0:
280,136,66047,5,0,1:0:0:0:
375,241,66218,1,0,1:0:0:0:
329,51,66389,2,0,P|280:35|229:57,1,95,8|0,0:0|1:0,0:0:0:0:
400,137,66732,1,0,1:0:0:0:
411,138,66818,1,0,1:0:0:0:
423,138,66904,1,0,1:0:0:0:
435,138,66989,1,0,1:0:0:0:
447,139,67075,1,8,0:0:0:0:
240,47,67246,1,0,1:0:0:0:
152,130,67418,6,0,P|136:179|158:230,1,95,0|0,1:0|1:0,0:0:0:0:
327,180,67761,2,0,L|227:174,1,95,8|0,0:0|1:0,0:0:0:0:
364,269,68104,1,0,1:0:0:0:
386,104,68276,1,8,0:0:0:0:
268,256,68447,1,0,1:0:0:0:
423,193,68619,1,8,0:0:0:0:
290,91,68790,6,0,L|182:93,1,95,0|0,1:0|1:0,0:0:0:0:
0,77,69132,2,0,L|108:79,1,95,8|0,0:0|1:0,0:0:0:0:
207,172,69475,1,0,1:0:0:0:
209,183,69561,1,0,1:0:0:0:
210,195,69646,1,0,1:0:0:0:
210,207,69732,1,0,1:0:0:0:
207,218,69818,1,8,0:0:0:0:
101,341,69990,1,0,1:0:0:0:
96,209,70161,6,0,L|98:109,1,95,0|0,1:0|1:0,0:0:0:0:
257,286,70504,2,0,P|207:300|157:284,1,95,8|0,0:0|1:0,0:0:0:0:
272,138,70847,1,0,1:0:0:0:
375,255,71018,1,0,1:0:0:0:
191,200,71190,2,0,P|173:129|208:56,1,142.5,10|0,0:0|0:0,0:0:0:0:
220,61,71532,5,0,1:0:0:0:
365,125,71702,1,0,1:0:0:0:
272,138,71872,1,8,0:0:0:0:
405,41,72043,1,0,1:0:0:0:
426,200,72213,1,0,1:0:0:0:
420,209,72298,1,0,1:0:0:0:
413,219,72383,1,0,1:0:0:0:
405,228,72468,1,0,1:0:0:0:
396,235,72553,1,8,0:0:0:0:
313,48,72724,1,0,1:0:0:0:
488,86,72895,6,0,L|378:89,1,95,0|0,1:0|1:0,0:0:0:0:
128,59,73237,2,0,L|238:62,1,95,8|0,0:0|1:0,0:0:0:0:
371,59,73580,1,0,1:0:0:0:
278,244,73752,1,0,1:0:0:0:
128,136,73923,2,0,L|280:141,1,142.5,10|0,0:0|0:0,0:0:0:0:
294,141,74266,6,0,P|339:133|394:146,1,95,8|0,0:0|0:0,0:0:0:0:
475,238,74621,2,0,P|430:246|375:233,1,95,8|0,0:0|0:0,0:0:0:0:
309,119,74976,6,0,P|355:123|404:149,1,95,8|0,0:0|0:0,0:0:0:0:
459,259,75331,2,0,P|413:255|364:229,1,95,8|0,0:0|0:0,0:0:0:0:
330,102,75686,6,0,P|373:117|414:156,1,95,8|0,0:0|0:0,0:0:0:0:
438,276,76030,2,0,P|395:261|354:222,1,95,8|0,0:0|0:0,0:0:0:0:
354,91,76375,6,0,P|392:117|421:165,1,95,8|0,0:0|0:0,0:0:0:0:
414,287,76720,2,0,P|376:261|347:213,1,95,8|0,0:0|0:0,0:0:0:0:
346,82,77065,5,8,0:0:0:0:
487,226,77234,1,8,0:0:0:0:
287,203,77403,1,8,0:0:0:0:
467,104,77573,1,8,0:0:0:0:
379,284,77742,5,8,0:0:0:0:
340,71,77912,1,8,0:0:0:0:
496,230,78081,1,8,0:0:0:0:
275,204,78251,1,8,0:0:0:0:
474,96,78420,5,8,0:0:0:0:
378,297,78590,1,8,0:0:0:0:
399,125,78759,1,8,0:0:0:0:
457,299,78929,1,0,1:0:0:0:
340,71,79098,2,0,L|428:17,1,95,8|0,0:0|1:0,0:0:0:0:
378,297,79437,2,0,L|290:351,1,95,8|0,0:0|1:0,0:0:0:0:
234,76,79776,6,0,P|230:144|240:190,1,95,14|2,0:0|1:0,0:0:0:0:
297,346,80122,2,0,P|301:278|291:232,1,95,10|2,0:0|1:0,0:0:0:0:
154,124,80469,1,10,0:0:0:0:
201,284,80643,1,0,1:0:0:0:
219,42,80816,1,10,0:0:0:0:
133,220,80989,1,0,1:0:0:0:
350,118,81163,6,0,L|235:120,1,95,10|2,0:0|1:0,0:0:0:0:
403,179,81510,2,0,L|518:177,1,95,10|2,0:0|1:0,0:0:0:0:
255,119,81856,2,0,P|251:187|261:233,1,95,10|0,0:0|1:0,0:0:0:0:
401,41,82203,2,0,P|333:37|287:47,1,95,10|0,0:0|1:0,0:0:0:0:
192,97,82530,5,10,0:0:0:0:
279,308,82702,1,2,1:0:0:0:
296,124,82874,1,10,0:0:0:0:
107,174,83047,1,2,1:0:0:0:
349,230,83219,2,0,P|407:242|463:223,1,95,10|0,0:0|1:0,0:0:0:0:
192,97,83564,1,10,0:0:0:0:
192,97,83909,5,10,0:0:0:0:
130,337,84081,1,2,1:0:0:0:
248,156,84251,1,10,0:0:0:0:
56,110,84423,1,2,1:0:0:0:
252,250,84594,2,0,L|246:136,1,95,10|0,0:0|1:0,0:0:0:0:
130,337,84931,2,0,P|198:341|244:331,1,95,10|0,0:0|1:0,0:0:0:0:
296,46,85288,5,10,0:0:0:0:
78,135,85456,1,2,1:0:0:0:
313,189,85625,5,8,0:0:0:0:
156,14,85793,1,2,1:0:0:0:
184,255,85962,5,10,0:0:0:0:
240,28,86130,1,0,1:0:0:0:
51,168,86299,5,10,0:0:0:0:
292,163,86467,1,0,1:0:0:0:
98,30,86643,5,10,0:0:0:0:
123,289,86812,1,2,1:0:0:0:
266,70,86981,1,8,0:0:0:0:
18,167,87151,1,2,1:0:0:0:
270,231,87320,1,10,0:0:0:0:
170,0,87490,5,2,1:0:0:0:
201,349,87659,1,10,0:0:0:0:
145,157,87829,5,10,0:0:0:0:
145,157,87914,1,8,0:0:0:0:
145,157,87998,6,0,P|145:82|153:29,1,95,2|2,1:0|1:0,0:0:0:0:
187,242,88337,2,0,P|187:317|179:370,1,95,8|2,0:0|0:0,0:0:0:0:
59,110,88676,1,2,1:0:0:0:
294,254,88846,1,0,1:0:0:0:
97,335,89015,2,0,P|97:260|105:207,1,95,10|0,0:0|0:0,0:0:0:0:
234,99,89354,5,2,1:0:0:0:
178,283,89526,1,2,1:0:0:0:
162,32,89698,1,8,0:0:0:0:
283,177,89871,1,2,0:0:0:0:
101,261,90043,2,0,P|26:261|-27:253,1,95,2|0,1:0|1:0,0:0:0:0:
234,99,90388,2,0,P|309:99|362:107,1,95,10|0,0:0|0:0,0:0:0:0:
78,184,90733,5,2,1:0:0:0:
165,32,90910,1,2,1:0:0:0:
156,284,91088,1,10,0:0:0:0:
76,94,91265,1,2,0:0:0:0:
247,239,91443,2,0,P|247:314|239:367,1,95,2|0,1:0|1:0,0:0:0:0:
165,32,91798,5,10,0:0:0:0:
165,32,92141,5,2,1:0:0:0:
325,75,92314,1,2,1:0:0:0:
108,143,92488,1,8,0:0:0:0:
252,30,92661,1,2,0:0:0:0:
276,190,92835,2,0,P|276:265|268:318,1,95,2|0,1:0|0:0,0:0:0:0:
108,143,93181,2,0,P|183:143|236:151,1,95,10|0,0:0|0:0,0:0:0:0:
370,167,93534,5,2,1:0:0:0:
239,226,93705,1,2,1:0:0:0:
298,66,93876,1,8,0:0:0:0:
370,262,94048,1,2,0:0:0:0:
180,129,94219,2,0,P|180:54|188:1,1,95,2|0,1:0|1:0,0:0:0:0:
319,252,94562,2,0,P|319:327|311:380,1,95,10|0,0:0|0:0,0:0:0:0:
124,188,94904,5,2,1:0:0:0:
324,76,95072,2,0,P|399:76|452:84,1,95,2|8,1:0|0:0,0:0:0:0:
425,244,95407,5,2,0:0:0:0:
231,164,95575,1,2,1:0:0:0:
427,137,95742,1,2,1:0:0:0:
328,286,95910,1,10,0:0:0:0:
256,42,96078,1,2,1:0:0:0:
417,332,96245,6,0,P|417:257|409:204,1,95,10|2,0:0|1:0,0:0:0:0:
295,23,96580,2,0,P|291:70|292:117,1,95,8|2,0:0|1:0,0:0:0:0:
344,355,96916,1,10,0:0:0:0:
382,79,97083,1,0,1:0:0:0:
223,244,97251,1,10,0:0:0:0:
494,271,97418,1,0,1:0:0:0:
233,116,97586,6,0,P|185:112|138:113,1,95,10|2,0:0|1:0,0:0:0:0:
356,259,97930,2,0,P|403:262|450:261,1,95,8|2,0:0|1:0,0:0:0:0:
155,180,98275,1,10,0:0:0:0:
259,375,98448,1,0,1:0:0:0:
249,59,98620,1,10,0:0:0:0:
187,312,98792,1,0,1:0:0:0:
329,114,98965,6,0,P|332:66|331:19,1,95,10|2,0:0|1:0,0:0:0:0:
205,238,99303,2,0,P|201:285|202:332,1,95,10|2,0:0|1:0,0:0:0:0:
329,114,99642,1,10,0:0:0:0:
135,164,99812,1,0,1:0:0:0:
333,294,99981,1,10,0:0:0:0:
259,42,100151,1,0,1:0:0:0:
260,348,100320,5,10,0:0:0:0:
342,53,100499,1,2,1:0:0:0:
175,248,100679,1,8,0:0:0:0:
409,218,100858,1,2,1:0:0:0:
192,23,101038,1,10,0:0:0:0:
65,322,101212,1,0,1:0:0:0:
95,328,101299,1,0,1:0:0:0:
127,327,101386,1,2,1:0:0:0:
158,319,101474,1,0,1:0:0:0:
178,307,101561,1,0,1:0:0:0:
201,304,101648,1,0,1:0:0:0:
223,311,101735,6,0,B|301:271|301:345|394:306,1,163.400002493286,6|0,1:0|1:0,0:0:0:0:
458,243,102252,1,2,1:0:0:0:
345,220,102424,2,0,P|329:168|338:130,1,81.7000012466431,10|0,0:0|0:0,0:0:0:0:
404,39,102769,1,2,1:0:0:0:
404,39,102941,2,0,L|311:55,1,81.7000012466431,0|2,1:0|0:0,0:0:0:0:
121,103,103286,1,10,0:0:0:0:
267,2,103459,1,0,1:0:0:0:
295,135,103631,1,2,1:0:0:0:
56,54,103803,1,10,0:0:0:0:
56,54,103976,2,0,P|99:26|140:23,1,81.7000012466431,0|2,1:0|0:0,0:0:0:0:
240,37,104321,1,8,0:0:0:0:
84,227,104485,6,0,L|71:128,1,95,2|2,1:0|0:0,0:0:0:0:
172,209,104823,1,0,1:0:0:0:
143,294,104993,1,2,1:0:0:0:
112,141,105162,2,0,P|171:117|205:125,1,95,10|0,0:0|0:0,0:0:0:0:
327,181,105501,5,2,1:0:0:0:
327,181,105671,2,0,L|243:237,1,95,0|2,1:0|0:0,0:0:0:0:
305,100,106010,1,10,0:0:0:0:
387,122,106179,1,0,1:0:0:0:
349,264,106349,1,2,1:0:0:0:
223,78,106518,1,10,0:0:0:0:
223,78,106688,2,0,L|231:176,1,95,0|2,1:0|0:0,0:0:0:0:
245,302,107027,1,8,0:0:0:0:
301,18,107196,1,2,1:0:0:0:
