osu file format v14

[General]
AudioFilename: Moby - Extreme Ways (Bourne's Ultimatum).mp3
AudioLeadIn: 0
PreviewTime: 211659
Countdown: 0
SampleSet: None
StackLeniency: 0.6
Mode: 0
LetterboxInBreaks: 0
WidescreenStoryboard: 0

[Editor]
Bookmarks: 2686,4695,7566,21059,23356,25365,25652,26801,35964,81897,82471,83045,91083,109457,115208,119802,124395,127840,128127,128414,128701,133581,147361,155400,173773,177218,182959,188701,190998,192146,202481,211668,224873,225160,225447,230041,248414
DistanceSpacing: 0.4
BeatDivisor: 4
GridSize: 4
TimelineZoom: 1.3

[Metadata]
Title:Extreme Ways
TitleUnicode:Extreme Ways
Artist:Moby
ArtistUnicode:Moby
Creator:-NeBu-
Version:You Know His Name
Source:Bourne's Ultimatum
Tags:moby 18 electronic bourne ultimatum movie
BeatmapID:1509274
BeatmapSetID:714135

[Difficulty]
HPDrainRate:5
CircleSize:4
OverallDifficulty:9.3
ApproachRate:9.7
SliderMultiplier:2.2
SliderTickRate:1

[Events]
//Background and Video events
0,0,"338853.jpg",0,0
//Break Periods
//Storyboard Layer 0 (Background)
//Storyboard Layer 1 (Fail)
//Storyboard Layer 2 (Pass)
//Storyboard Layer 3 (Foreground)
//Storyboard Sound Samples

[TimingPoints]
403,574.162679425837,4,3,0,5,1,0
4979,574.162679425837,4,3,0,20,1,0
23330,-111.111111111111,4,3,0,20,0,0
25626,-100,4,3,0,20,0,0
26797,-100,4,3,0,55,0,0
27927,287.081339712919,4,3,0,65,1,1
46300,-100,4,3,0,60,0,0
56918,-50,4,3,0,60,0,0
57492,-100,4,3,0,60,0,0
70626,-100,4,3,0,5,0,0
70698,-100,4,3,0,60,0,0
74645,-100,4,3,0,5,0,0
74717,-100,4,3,0,60,0,0
76942,-100,4,3,0,5,0,0
77013,-100,4,3,0,60,0,0
77803,-100,4,3,0,5,0,0
77875,-100,4,3,0,60,0,0
81535,-100,4,3,0,5,0,0
81607,-100,4,3,0,60,0,0
83042,-133.333333333333,4,3,0,60,0,0
92229,-80,4,3,0,70,0,1
110602,-100,4,3,0,65,0,0
120295,-100,4,3,0,5,0,0
120367,-100,4,3,0,65,0,0
121587,-100,4,3,0,5,0,0
121659,-100,4,3,0,65,0,0
131491,-100,4,3,0,5,0,0
131563,-100,4,3,0,65,0,0
156539,-80,4,3,0,75,0,1
174912,-100,4,3,0,70,0,0
184027,-100,4,3,0,5,0,0
184099,-100,4,3,0,70,0,0
193291,-66.6666666666667,4,3,0,80,0,1
207281,-66.6666666666667,4,3,0,5,0,1
207352,-66.6666666666667,4,3,0,80,0,1
230032,-100,4,3,0,80,0,0

[HitObjects]
48,120,403,6,0,B|71:203|157:215|157:215|194:225|227:287|267:328|219:400|162:400|93:387|82:316|75:232|214:240|245:272|245:272|307:342|417:316|417:316,1,770
449,252,2699,6,0,B|426:169|340:157|340:157|303:147|270:85|230:44|278:-28|335:-28|404:-15|415:56|422:140|283:132|252:100|252:100|190:30|80:56|80:56,1,770
245,237,4979,6,0,P|253:205|237:181,1,55
168,217,5266,2,0,P|160:249|176:273,1,55
180,132,5553,2,0,P|127:132|88:171,1,110
258,109,5983,2,0,P|258:56|219:17,1,110
220,16,6557,1,0,0:0:0:0:
258,109,6701,2,0,P|306:121|358:85,1,110
354,90,7132,1,0,0:0:0:0:
258,109,7275,6,0,P|244:136|257:167,1,55
309,249,7562,2,0,P|323:222|310:191,1,55
242,289,7849,2,0,P|274:321|350:317,1,110
195,218,8280,2,0,P|163:186|87:190,1,110
32,248,8854,1,0,0:0:0:0:
100,182,8998,2,0,P|108:128|83:79,1,110
83,79,9428,1,0,0:0:0:0:
196,108,9572,6,0,P|224:116|252:96,1,55
206,29,9859,2,0,P|178:21|150:41,1,55
298,167,10146,2,0,P|346:161|388:111,1,110
248,79,10577,2,0,P|254:127|304:169,1,110
340,24,11151,1,0,0:0:0:0:
248,80,11294,2,0,P|211:122|203:177,1,110
202,173,11725,1,0,0:0:0:0:
263,246,11868,6,0,P|291:254|315:238,1,55
256,172,12156,2,0,P|228:164|204:180,1,55
358,171,12443,2,0,P|367:118|334:62,1,110
256,172,12873,2,0,P|247:225|280:281,1,110
272,272,13447,1,0,0:0:0:0:
256,172,13591,2,0,P|204:164|156:196,1,110
157,193,14022,1,0,0:0:0:0:
358,182,14165,6,0,L|350:126,1,55
440,256,14452,2,0,L|448:200,1,55
256,172,14739,2,0,L|272:60,1,110
173,302,15170,2,0,L|160:188,1,110
160,192,15744,1,0,0:0:0:0:
70,186,15888,2,0,L|86:74,1,110
85,77,16318,1,0,0:0:0:0:
18,302,16462,6,0,L|82:290,1,55
70,186,16749,2,0,L|124:196,1,55
179,105,17036,2,0,L|291:97,1,110
176,288,17467,2,0,L|285:295,1,110
124,196,18041,1,0,0:0:0:0:
285,295,18184,2,0,L|401:287,1,110
285,295,18615,1,0,0:0:0:0:
312,160,18758,6,0,L|252:152,1,55
201,238,19045,2,0,L|146:245,1,55
115,78,19333,2,0,P|155:54|219:62,1,110
146,244,19763,2,0,P|92:252|45:227,1,110
115,78,20337,1,0,0:0:0:0:
146,244,20481,2,0,P|153:300|122:344,1,110
124,342,20912,1,0,0:0:0:0:
115,78,21055,6,0,L|171:70,1,55
220,256,21342,2,0,L|164:248,1,55
172,52,21629,2,0,L|228:44,1,55
155,263,21916,2,0,L|99:255,1,55
238,62,22203,2,0,L|294:54,1,55
91,276,22490,2,0,L|35:268,1,55
286,39,22778,2,0,L|342:31,1,55
54,252,23065,2,0,L|-2:244,1,55
357,116,23352,6,0,B|429:88|424:1|424:1|520:66|456:176|456:176|497:303|392:345|392:345|407:262|350:216,1,692.999978851319
256,90,25648,6,0,B|213:55|157:68|157:68|280:10|365:126,1,330
400,336,26797,5,8,0:0:0:0:
56,312,26940,1,0,0:0:0:0:
288,88,27084,5,8,0:0:0:0:
244,384,27227,1,0,0:0:0:0:
0,133,27371,5,8,0:0:0:0:
344,157,27514,1,0,0:0:0:0:
156,348,27658,5,8,0:0:0:0:
152,24,27801,1,0,0:0:0:0:
266,208,27927,6,0,P|283:259|266:311,1,110
127,142,28214,2,0,P|110:91|128:40,1,110
414,265,28501,2,0,B|318:273|318:273|298:251|298:251|205:260,1,220
204,260,28931,1,0,0:0:0:0:
244,52,29075,5,8,0:0:0:0:
360,324,29218,1,0,0:0:0:0:
128,128,29362,1,0,0:0:0:0:
388,0,29505,1,0,0:0:0:0:
432,280,29649,1,0,0:0:0:0:
432,280,29721,1,0,0:0:0:0:
432,280,29793,1,0,0:0:0:0:
184,180,29937,2,0,L|74:187,1,110
329,192,30223,6,0,P|349:242|332:294,1,110
88,224,30510,2,0,P|68:174|86:123,1,110
417,68,30797,2,0,B|381:41|346:52|346:52|324:35|324:35|288:47|288:47|255:23|213:34,1,220
332,294,31228,1,0,0:0:0:0:
452,0,31371,5,8,0:0:0:0:
200,192,31515,1,0,0:0:0:0:
512,328,31659,2,0,L|500:218,1,110
296,52,31946,1,8,0:0:0:0:
424,292,32089,1,0,0:0:0:0:
452,0,32233,1,8,0:0:0:0:
187,114,32376,1,0,0:0:0:0:
424,292,32520,6,0,L|428:176,1,110
208,272,32807,2,0,L|211:381,1,110
334,92,33094,2,0,B|206:137|251:49|122:98,1,220
121,98,33525,1,0,0:0:0:0:
320,296,33668,5,8,0:0:0:0:
232,12,33812,1,0,0:0:0:0:
64,320,33955,2,0,L|180:308,1,110
512,206,34242,2,0,L|292:190,1,220
276,196,34601,1,0,0:0:0:0:
260,200,34673,1,0,0:0:0:0:
113,81,34816,6,0,L|233:73,1,110
108,240,35104,2,0,L|-4:224,1,110
356,0,35391,2,0,B|372:46|356:85|356:85|384:106|384:106|361:147|392:207,1,220
424,376,35821,1,0,0:0:0:0:
188,216,35965,5,8,0:0:0:0:
464,68,36108,1,0,0:0:0:0:
332,336,36252,1,8,0:0:0:0:
240,0,36395,1,0,0:0:0:0:
500,256,36539,1,8,0:0:0:0:
176,344,36682,1,0,0:0:0:0:
363,54,36826,2,0,P|411:42|471:78,1,110
93,310,37113,6,0,L|85:198,1,110
362,53,37400,2,0,L|355:163,1,110
246,373,37687,2,0,B|218:333|205:270|205:270|202:213|227:154,1,220
224,164,38118,1,0,0:0:0:0:
336,64,38261,2,0,B|392:57|392:57|452:80,1,110
228,168,38549,2,0,B|177:187|177:187|121:180,1,110
340,186,38836,2,0,P|437:179|437:71,1,220
441,75,39266,1,0,0:0:0:0:
271,140,39410,6,0,P|258:188|287:252,1,110
352,104,39697,2,0,P|365:56|336:-8,1,110
163,102,39984,2,0,B|167:163|138:210|138:210|175:248|179:314,1,220
178,307,40415,1,0,0:0:0:0:
312,92,40558,5,8,0:0:0:0:
44,84,40702,1,0,0:0:0:0:
272,304,40845,1,8,0:0:0:0:
184,8,40989,1,0,0:0:0:0:
0,360,41132,2,0,L|112:348,1,110
409,212,41419,2,0,L|297:200,1,110
86,162,41706,6,0,P|74:218|98:270,1,110
299,200,41993,2,0,P|311:144|287:92,1,110
0,55,42281,2,0,B|90:43|90:43|122:70|122:70|208:56,1,220
440,32,42711,1,0,0:0:0:0:
276,256,42855,5,8,0:0:0:0:
340,8,42998,1,0,0:0:0:0:
460,312,43142,1,8,0:0:0:0:
228,176,43285,1,0,0:0:0:0:
508,88,43429,2,0,L|496:208,1,110
356,372,43716,1,0,0:0:0:0:
497,197,43860,1,0,0:0:0:0:
279,316,44003,6,0,L|163:324,1,110
247,66,44290,2,0,L|363:74,1,110
120,261,44577,1,0,0:0:0:0:
52,0,44721,1,0,0:0:0:0:
272,144,44864,1,0,0:0:0:0:
40,256,45008,1,0,0:0:0:0:
184,16,45151,5,8,0:0:0:0:
244,336,45295,1,0,0:0:0:0:
48,172,45438,1,8,0:0:0:0:
380,184,45582,1,0,0:0:0:0:
160,348,45726,1,8,0:0:0:0:
264,52,45869,1,0,0:0:0:0:
428,384,46013,2,0,L|316:376,1,110
264,52,46300,6,0,P|308:40|368:80,1,110
252,200,46587,2,0,P|208:212|148:172,1,110
429,142,46874,2,0,P|471:251|429:347,1,220
77,341,47304,2,0,P|40:240|83:142,1,220
203,208,47735,2,0,P|210:262|186:317,1,110
83,141,48022,2,0,P|76:87|100:32,1,110
203,208,48309,1,0,0:0:0:0:
268,0,48453,1,0,0:0:0:0:
304,225,48596,6,0,P|252:233|200:205,1,110
320,69,48883,2,0,P|372:61|424:89,1,110
147,266,49171,2,0,P|127:182|249:140,1,220
304,225,49601,2,0,P|324:309|202:351,1,220
48,184,50032,1,8,0:0:0:0:
312,116,50175,1,0,0:0:0:0:
164,300,50319,1,8,0:0:0:0:
192,8,50462,1,0,0:0:0:0:
273,289,50606,2,0,L|153:301,1,110
464,268,50893,5,8,0:0:0:0:
164,300,51037,1,0,0:0:0:0:
464,268,51180,1,8,0:0:0:0:
164,300,51324,1,0,0:0:0:0:
464,268,51467,2,0,P|475:215|446:167,1,110
295,255,51754,2,0,P|284:308|313:356,1,110
448,168,52041,1,8,0:0:0:0:
252,88,52185,1,0,0:0:0:0:
295,255,52328,1,8,0:0:0:0:
412,0,52472,1,0,0:0:0:0:
187,40,52615,2,0,P|171:95|203:155,1,110
295,255,52903,1,8,0:0:0:0:
295,255,53046,1,0,0:0:0:0:
412,0,53190,6,0,L|300:8,1,110
80,134,53477,2,0,L|192:142,1,110
464,183,53764,2,0,P|372:252|278:211,1,220
145,63,54194,2,0,P|244:29|325:97,1,220
372,336,54625,1,8,0:0:0:0:
227,124,54769,1,0,0:0:0:0:
492,208,54912,1,8,0:0:0:0:
206,234,55056,1,0,0:0:0:0:
432,48,55199,1,8,0:0:0:0:
372,336,55343,1,0,0:0:0:0:
104,208,55486,6,0,L|92:92,1,110
297,205,55773,2,0,L|286:315,1,110
72,267,56060,6,0,L|48:31,1,220
340,160,56491,2,0,L|318:379,1,220
36,266,56922,6,0,L|12:30,1,220
376,166,57209,2,0,L|353:384,1,220
192,12,57496,1,8,0:0:0:0:
192,12,57639,1,0,0:0:0:0:
364,188,57783,6,0,P|312:208|256:184,1,110
344,36,58070,2,0,P|394:18|444:38,1,110
176,286,58357,2,0,B|148:174|148:174|192:78,1,220
434,142,58788,2,0,B|477:237|477:237|449:349,1,220
270,65,59218,2,0,P|326:57|374:85,1,110
356,361,59505,2,0,P|300:369|252:341,1,110
371,81,59793,2,0,L|447:73,1,55
319,172,59936,2,0,L|255:160,1,55
484,13,60080,6,0,P|507:65|492:133,1,110
335,275,60367,2,0,P|312:223|327:155,1,110
426,167,60654,6,0,P|450:223|326:267,1,220
318,171,61084,2,0,P|219:179|226:279,1,220
356,350,61515,2,0,P|402:310|406:250,1,110
202,205,61802,2,0,P|156:245|152:305,1,110
356,350,62089,1,0,0:0:0:0:
268,92,62233,1,0,0:0:0:0:
39,298,62376,6,0,L|155:290,1,110
377,99,62663,2,0,L|261:91,1,110
148,290,62950,2,0,B|319:278|319:278|256:249,1,220
267,91,63381,2,0,B|96:103|96:103|159:132,1,220
274,257,63812,1,8,0:0:0:0:
328,12,63955,1,0,0:0:0:0:
128,200,64099,1,8,0:0:0:0:
384,256,64242,1,0,0:0:0:0:
256,56,64386,1,8,0:0:0:0:
260,384,64529,1,0,0:0:0:0:
440,192,64673,6,0,P|457:143|433:91,1,110
128,200,64960,2,0,P|111:249|135:301,1,110
332,54,65247,2,0,P|220:34|176:130,1,220
224,330,65678,2,0,P|336:350|380:254,1,220
263,102,66108,1,8,0:0:0:0:
148,360,66252,1,0,0:0:0:0:
432,332,66395,1,8,0:0:0:0:
168,80,66539,1,0,0:0:0:0:
300,384,66682,1,8,0:0:0:0:
424,20,66826,1,0,0:0:0:0:
59,63,66970,6,0,L|176:81,1,110
436,140,67257,1,0,0:0:0:0:
264,332,67400,1,0,0:0:0:0:
177,133,67544,6,0,L|165:69,1,55
309,142,67687,2,0,L|298:196,1,55
264,332,67831,1,0,0:0:0:0:
224,20,67974,6,0,P|336:8|380:104,1,220
208,264,68405,2,0,P|168:228|164:164,1,110
282,298,68692,2,0,P|246:338|182:342,1,110
236,191,68979,2,0,P|289:188|337:230,1,110
88,226,69266,6,0,P|76:158|212:102,1,220
191,92,69697,1,0,0:0:0:0:
308,128,69840,2,0,P|352:136|408:88,1,110
225,26,70127,2,0,P|181:18|125:66,1,110
245,241,70415,6,0,P|309:213|305:125,1,165
308,48,70702,2,0,L|436:40,1,110
156,300,70989,2,0,L|148:188,1,110
363,190,71276,2,0,L|356:300,1,110
105,129,71563,6,0,P|165:117|217:157,1,110
363,190,71850,2,0,P|411:214|463:201,1,110
342,73,72137,2,0,P|294:41|218:165,1,220
204,139,72568,1,0,0:0:0:0:
384,324,72711,1,8,0:0:0:0:
420,88,72855,1,0,0:0:0:0:
212,240,72998,1,8,0:0:0:0:
456,344,73142,1,0,0:0:0:0:
340,56,73285,1,0,0:0:0:0:
340,56,73357,1,0,0:0:0:0:
340,56,73429,1,0,0:0:0:0:
212,240,73572,2,0,L|328:252,1,110
167,86,73860,6,0,P|135:125|138:186,1,110
360,318,74147,2,0,P|391:278|388:217,1,110
63,246,74434,2,0,B|183:278|183:278|227:262,1,165
251,191,74721,2,0,L|383:187,1,110
225,68,75008,6,0,P|165:60|117:108,1,110
360,187,75295,2,0,P|420:195|468:147,1,110
187,132,75582,2,0,L|175:248,1,110
399,122,75869,2,0,L|387:6,1,110
187,132,76156,1,8,0:0:0:0:
392,296,76300,1,0,0:0:0:0:
352,36,76443,2,0,L|232:24,1,110
219,232,76730,2,0,P|287:256|351:184,1,165
392,132,77017,2,0,L|508:123,1,110
244,24,77304,5,8,0:0:0:0:
352,308,77448,1,0,0:0:0:0:
443,72,77592,2,0,P|385:55|315:122,1,165
288,195,77879,2,0,L|168:207,1,110
268,348,78166,1,8,0:0:0:0:
328,44,78309,1,0,0:0:0:0:
118,156,78453,6,0,P|102:216|138:276,1,110
394,228,78740,2,0,P|410:168|374:108,1,110
119,258,79027,2,0,L|231:266,1,110
391,125,79314,2,0,L|282:133,1,110
156,336,79601,5,8,0:0:0:0:
368,304,79745,1,0,0:0:0:0:
172,96,79888,1,8,0:0:0:0:
244,380,80032,1,0,0:0:0:0:
465,150,80175,2,0,P|460:85|424:53,1,110
220,176,80462,1,8,0:0:0:0:
220,176,80606,1,0,0:0:0:0:
391,319,80749,6,0,L|403:207,1,110
208,66,81037,2,0,L|219:175,1,110
458,159,81324,2,0,P|398:135|330:207,1,165
303,270,81611,2,0,L|191:278,1,110
84,80,81898,5,8,0:0:0:0:
60,328,82041,1,0,0:0:0:0:
172,120,82185,1,8,0:0:0:0:
144,376,82328,1,0,0:0:0:0:
252,168,82472,5,8,0:0:0:0:
60,328,82615,1,0,0:0:0:0:
172,120,82759,1,8,0:0:0:0:
144,376,82903,1,0,0:0:0:0:
252,168,83046,6,0,L|336:160,1,82.5000031471254
320,256,83333,2,0,L|402:263,1,82.5000031471254
289,61,83620,2,0,B|328:48|371:54|371:54|408:72|433:117,1,165.000006294251
176,336,84194,2,0,B|165:237|165:237|194:205|194:205|181:94,1,247.500009441376
32,182,85056,2,0,P|68:194|116:174,1,82.5000031471254
180,100,85343,6,0,L|272:108,1,82.5000031471254
229,227,85630,2,0,L|312:220,1,82.5000031471254
272,23,85917,2,0,L|364:31,1,82.5000031471254
301,315,86204,2,0,L|383:307,1,82.5000031471254
151,109,86491,6,0,P|141:147|163:197,1,82.5000031471254
441,251,86778,2,0,P|451:213|429:163,1,82.5000031471254
118,251,87065,6,0,P|156:261|206:239,1,82.5000031471254
474,109,87352,2,0,P|436:99|386:121,1,82.5000031471254
292,372,87639,5,8,0:0:0:0:
264,84,87927,1,4,0:0:0:0:
292,372,88214,2,0,L|277:195,1,165.000006294251
338,29,88788,2,0,P|258:-3|174:117,1,247.500009441376
248,122,89649,2,0,P|209:102|156:118,1,82.5000031471254
264,262,89936,6,0,P|303:282|356:266,1,82.5000031471254
323,136,90223,2,0,P|284:116|231:132,1,82.5000031471254
339,276,90510,2,0,P|378:296|431:280,1,82.5000031471254
398,150,90797,2,0,P|359:130|306:146,1,82.5000031471254
131,192,91084,5,8,0:0:0:0:
355,291,91228,1,0,0:0:0:0:
115,194,91371,5,8,0:0:0:0:
386,79,91515,1,0,0:0:0:0:
93,188,91659,5,8,0:0:0:0:
402,319,91803,1,0,0:0:0:0:
71,196,91946,5,8,0:0:0:0:
433,42,92089,1,0,0:0:0:0:
204,352,92233,6,0,P|183:281|224:216,1,137.5
347,27,92520,2,0,P|368:98|327:163,1,137.5
28,100,92807,2,0,B|134:81|134:81|174:110|174:110|292:85,1,275
289,85,93238,1,0,0:0:0:0:
156,288,93381,5,8,0:0:0:0:
208,4,93525,1,0,0:0:0:0:
392,280,93668,1,8,0:0:0:0:
108,204,93812,1,0,0:0:0:0:
400,40,93955,1,8,0:0:0:0:
352,352,94099,1,0,0:0:0:0:
33,80,94242,2,0,L|173:72,1,137.5
405,235,94529,6,0,P|337:251|281:215,1,137.5
170,72,94816,2,0,P|238:56|294:92,1,137.5
101,260,95104,2,0,P|61:140|177:72,1,275
169,71,95534,1,0,0:0:0:0:
316,292,95678,5,8,0:0:0:0:
96,156,95821,1,0,0:0:0:0:
392,76,95965,1,8,0:0:0:0:
240,336,96108,1,0,0:0:0:0:
248,12,96252,2,0,L|388:4,1,137.5
344,264,96539,2,0,L|204:256,1,137.5
467,37,96826,6,0,B|518:204|420:136|480:313,1,275
256,64,97257,1,0,0:0:0:0:
45,37,97400,2,0,B|-6:204|92:136|32:313,1,275
256,64,97831,1,0,0:0:0:0:
400,280,97974,5,8,0:0:0:0:
152,200,98118,1,0,0:0:0:0:
436,72,98261,1,8,0:0:0:0:
324,352,98405,1,0,0:0:0:0:
184,20,98549,1,8,0:0:0:0:
480,144,98692,1,0,0:0:0:0:
160,284,98836,1,0,0:0:0:0:
160,284,98907,1,0,0:0:0:0:
160,284,98979,1,0,0:0:0:0:
357,120,99123,6,0,P|425:108|489:160,1,137.5
282,307,99410,2,0,P|214:319|150:267,1,137.5
409,250,99697,2,0,P|421:316|385:372,1,137.5
221,174,99984,2,0,P|209:108|245:52,1,137.5
484,212,100271,5,8,0:0:0:0:
248,368,100415,1,0,0:0:0:0:
336,32,100558,1,8,0:0:0:0:
448,296,100702,1,0,0:0:0:0:
160,160,100845,1,8,0:0:0:0:
424,12,100989,1,0,0:0:0:0:
364,360,101132,1,8,0:0:0:0:
188,72,101276,1,0,0:0:0:0:
492,192,101419,6,0,L|484:336,1,137.5
208,384,101706,2,0,L|200:240,1,137.5
392,120,101993,2,0,P|411:215|285:318,1,275
286,318,102424,1,0,0:0:0:0:
126,218,102568,2,0,P|181:169|246:180,1,137.5
210,326,102855,2,0,P|147:359|74:348,1,137.5
156,93,103142,2,0,P|252:65|364:189,1,275
363,179,103572,1,0,0:0:0:0:
184,332,103716,5,8,0:0:0:0:
228,24,103860,1,0,0:0:0:0:
352,268,104003,1,8,0:0:0:0:
72,92,104147,1,0,0:0:0:0:
368,68,104290,2,0,L|516:84,1,137.5
282,212,104577,2,0,L|138:228,1,137.5
429,122,104864,6,0,P|458:188|430:252,1,137.5
205,171,105151,2,0,P|176:105|204:41,1,137.5
382,186,105438,5,8,0:0:0:0:
164,340,105582,1,0,0:0:0:0:
272,64,105726,1,8,0:0:0:0:
416,360,105869,1,0,0:0:0:0:
109,260,106013,6,0,P|97:196|145:148,1,137.5
424,104,106300,1,8,0:0:0:0:
240,360,106443,1,0,0:0:0:0:
239,44,106587,2,0,L|383:36,1,137.5
464,312,106874,1,8,0:0:0:0:
218,183,107017,1,0,0:0:0:0:
488,80,107161,5,8,0:0:0:0:
360,352,107304,1,0,0:0:0:0:
228,4,107448,1,8,0:0:0:0:
504,176,107592,1,0,0:0:0:0:
204,304,107735,2,0,L|64:288,1,137.5
252,92,108022,2,0,L|392:84,1,137.5
153,369,108309,6,0,P|125:313|149:240,1,137.5
272,64,108596,1,8,0:0:0:0:
336,308,108740,1,0,0:0:0:0:
58,75,108883,2,0,P|114:43|190:59,1,137.5
336,308,109171,1,8,0:0:0:0:
404,12,109314,1,0,0:0:0:0:
128,132,109458,5,8,0:0:0:0:
384,252,109601,1,0,0:0:0:0:
128,252,109745,5,8,0:0:0:0:
384,132,109888,1,0,0:0:0:0:
53,97,110032,5,8,0:0:0:0:
458,286,110175,1,0,0:0:0:0:
53,286,110319,5,8,0:0:0:0:
458,97,110462,1,0,0:0:0:0:
123,248,110606,6,0,B|105:216|73:208|73:208|242:204,1,220
299,167,111037,1,0,0:0:0:0:
352,228,111180,2,0,P|404:237|453:208,1,110
451,209,111467,1,0,0:0:0:0:
491,134,111611,2,0,P|445:72|312:90,1,220
310,295,112041,6,0,P|350:307|414:275,1,110
253,203,112328,2,0,P|213:191|149:223,1,110
325,310,112615,2,0,P|365:322|429:290,1,110
169,196,112903,6,0,L|109:188,1,55
256,124,113046,2,0,L|316:116,1,55
140,72,113190,2,0,L|24:60,1,110
308,31,113477,2,0,P|376:63|340:195,1,220
303,280,113907,2,0,P|235:248|271:116,1,220
452,195,114338,2,0,P|392:211|348:175,1,110
388,46,114625,2,0,P|448:30|492:66,1,110
399,256,114912,1,8,0:0:0:0:
296,4,115056,1,0,0:0:0:0:
504,132,115199,6,0,L|492:244,1,110
316,344,115486,2,0,L|304:234,1,110
461,71,115773,2,0,L|437:300,1,220
260,124,116204,1,0,0:0:0:0:
492,52,116348,5,8,0:0:0:0:
360,280,116491,1,0,0:0:0:0:
268,4,116635,1,8,0:0:0:0:
508,132,116778,1,0,0:0:0:0:
280,300,116922,2,0,L|160:312,1,110
335,149,117209,2,0,L|391:157,1,55
247,228,117352,2,0,L|183:235,1,55
324,60,117496,6,0,P|376:52|428:80,1,110
188,60,117783,2,0,P|136:52|84:80,1,110
351,311,118070,2,0,P|395:271|319:147,1,220
147,129,118501,2,0,P|103:169|179:293,1,220
334,148,118931,1,8,0:0:0:0:
108,48,119075,1,0,0:0:0:0:
280,284,119218,1,8,0:0:0:0:
384,0,119362,1,0,0:0:0:0:
100,132,119505,1,8,0:0:0:0:
360,288,119649,1,0,0:0:0:0:
209,139,119793,6,0,L|89:131,1,110
288,209,120080,2,0,B|424:201|424:201|380:181,1,165
357,112,120367,2,0,P|313:64|213:160,1,220
228,280,120797,6,0,L|344:292,1,110
154,220,121084,2,0,L|30:232,1,110
384,216,121371,2,0,B|404:84|404:84|384:48,1,165
308,24,121659,2,0,L|188:16,1,110
282,200,121946,6,0,P|330:224|402:204,1,110
219,125,122233,2,0,P|171:101|99:121,1,110
430,319,122520,2,0,B|468:216|468:216|426:103,1,220
365,63,122950,2,0,L|305:55,1,55
331,137,123094,6,0,P|380:144|433:106,1,110
244,16,123381,1,0,0:0:0:0:
300,232,123525,1,8,0:0:0:0:
412,40,123668,1,0,0:0:0:0:
188,75,123812,2,0,L|76:79,1,110
392,152,124099,1,8,0:0:0:0:
196,360,124242,1,0,0:0:0:0:
187,74,124386,6,0,B|324:121|279:40|402:79,1,220
401,78,124816,1,0,0:0:0:0:
187,309,124960,6,0,B|324:263|279:344|402:305,1,220
401,305,125390,1,0,0:0:0:0:
252,112,125534,5,8,0:0:0:0:
288,376,125678,1,0,0:0:0:0:
416,100,125821,1,8,0:0:0:0:
220,248,125965,1,0,0:0:0:0:
472,360,126108,1,8,0:0:0:0:
312,44,126252,1,0,0:0:0:0:
110,255,126395,2,0,L|222:247,1,110
256,120,126682,6,0,L|184:112,1,55
312,44,126826,2,0,L|372:40,1,55
139,179,126970,1,0,0:0:0:0:
320,384,127113,2,0,L|328:152,1,220
237,222,127544,2,0,L|221:102,1,110
400,264,127831,5,8,0:0:0:0:
436,12,127974,1,0,0:0:0:0:
322,292,128118,5,8,0:0:0:0:
286,40,128261,1,0,0:0:0:0:
246,324,128405,5,8,0:0:0:0:
146,89,128548,1,0,0:0:0:0:
184,384,128692,5,8,0:0:0:0:
32,180,128835,1,0,0:0:0:0:
272,240,128979,6,0,L|392:252,1,110
140,164,129266,2,0,L|24:180,1,110
280,84,129553,2,0,P|360:72|432:180,1,220
432,175,129984,1,0,0:0:0:0:
244,300,130127,5,8,0:0:0:0:
336,24,130271,1,0,0:0:0:0:
420,268,130415,1,8,0:0:0:0:
180,156,130558,1,0,0:0:0:0:
412,64,130702,1,8,0:0:0:0:
324,352,130845,1,0,0:0:0:0:
117,81,130989,2,0,L|237:69,1,110
72,292,131276,6,0,P|48:204|104:152,1,165
170,152,131563,2,0,L|294:164,1,110
456,112,131850,5,8,0:0:0:0:
216,232,131993,1,0,0:0:0:0:
504,324,132137,1,8,0:0:0:0:
212,212,132281,1,0,0:0:0:0:
508,304,132424,2,0,L|288:320,1,220
288,319,132855,1,0,0:0:0:0:
412,100,132998,2,0,L|192:84,1,220
192,84,133429,1,0,0:0:0:0:
433,281,133572,6,0,P|447:231|425:173,1,110
143,152,133860,2,0,P|129:202|151:260,1,110
380,120,134147,1,8,0:0:0:0:
152,52,134290,1,0,0:0:0:0:
300,336,134434,2,0,L|312:280,1,55
368,40,134577,1,0,0:0:0:0:
192,152,134721,6,0,P|176:200|200:264,1,110
440,188,135008,2,0,P|456:140|432:76,1,110
124,102,135295,2,0,B|84:202|84:202|130:319,1,220
125,306,135726,1,8,0:0:0:0:
328,156,135869,6,0,L|320:96,1,55
212,132,136013,2,0,L|220:76,1,55
416,8,136156,2,0,L|427:117,1,110
284,228,136443,1,0,0:0:0:0:
91,157,136587,2,0,L|84:48,2,110
233,289,137017,6,0,P|281:308|341:285,1,110
266,65,137304,2,0,P|218:46|158:69,1,110
354,196,137592,2,0,P|373:148|350:88,1,110
130,163,137879,2,0,P|111:211|134:271,1,110
342,17,138166,6,0,L|222:9,1,110
238,257,138453,2,0,L|128:264,1,110
450,104,138740,2,0,L|330:96,1,110
326,341,139027,2,0,L|216:348,1,110
398,217,139314,6,0,L|458:209,1,55
330,165,139458,2,0,L|322:105,1,55
272,240,139601,1,0,0:0:0:0:
272,240,139745,2,0,L|152:236,1,110
326,341,140032,2,0,L|438:349,2,110
204,170,140462,6,0,P|136:166|96:198,1,110
330,116,140749,2,0,P|398:112|438:144,1,110
169,251,141037,2,0,P|121:187|197:80,1,220
187,81,141467,1,0,0:0:0:0:
376,240,141611,2,0,L|408:304,1,55
276,288,141754,2,0,L|272:352,1,55
164,285,141898,2,0,L|120:321,1,55
293,145,142041,2,0,L|425:137,1,110
184,171,142328,2,0,L|72:159,1,110
276,288,142615,1,0,0:0:0:0:
180,72,142759,5,8,0:0:0:0:
212,352,142903,1,0,0:0:0:0:
257,119,143046,2,0,L|369:111,1,110
176,224,143333,6,0,P|116:232|72:188,1,110
354,263,143620,2,0,P|414:271|458:227,1,110
288,72,143907,5,8,0:0:0:0:
252,364,144051,1,0,0:0:0:0:
440,168,144194,1,8,0:0:0:0:
124,248,144338,1,0,0:0:0:0:
432,348,144482,1,8,0:0:0:0:
208,36,144625,1,0,0:0:0:0:
61,327,144769,2,0,L|181:343,1,110
392,272,145056,6,0,L|332:264,1,55
144,228,145199,2,0,L|200:216,1,55
328,136,145343,2,0,P|349:86|335:34,1,110
197,216,145630,2,0,P|175:265|189:317,1,110
360,352,145917,1,8,0:0:0:0:
412,132,146060,1,0,0:0:0:0:
154,149,146204,6,0,P|118:197|138:265,1,110
358,149,146491,2,0,P|394:197|374:265,1,110
204,271,146778,2,0,L|184:383,1,110
308,271,147065,2,0,L|328:383,1,110
256,156,147352,5,4,0:0:0:0:
176,120,147639,1,4,0:0:0:0:
104,168,147927,1,4,0:0:0:0:
108,256,148214,1,4,0:0:0:0:
176,120,148501,2,0,P|168:52|31:146,2,330
271,304,149649,6,0,P|315:320|375:304,1,110
324,244,149936,2,0,P|366:224|397:170,1,110
319,163,150223,2,0,P|335:119|319:59,1,110
259,111,150510,2,0,P|239:68|185:37,1,110
64,176,150797,6,0,L|176:184,1,110
425,216,151084,2,0,L|313:224,1,110
46,194,151371,2,0,L|158:202,1,110
407,234,151658,2,0,L|295:242,1,110
211,133,151946,6,4,P|195:73|319:65,2,220
211,133,152807,1,4,0:0:0:0:
274,227,153094,2,0,B|492:177|492:177|437:176|388:144,1,330
140,200,153955,2,0,P|135:253|176:304,1,110
260,320,154242,6,0,L|384:312,1,110
458,224,154529,2,0,L|334:216,1,110
273,135,154816,6,0,L|265:11,1,110
158,0,155104,2,0,L|166:109,1,110
172,236,155391,5,8,0:0:0:0:
340,148,155534,1,0,0:0:0:0:
165,275,155678,5,8,0:0:0:0:
346,108,155821,1,0,0:0:0:0:
170,327,155965,5,8,0:0:0:0:
341,56,156108,1,0,0:0:0:0:
196,383,156252,5,8,0:0:0:0:
315,0,156395,1,0,0:0:0:0:
468,352,156539,6,0,L|479:215,1,137.5
100,101,156826,2,0,L|112:239,1,137.5
462,105,157113,2,0,B|422:80|374:95|374:95|341:71|341:71|300:81|300:81|253:56|202:66,1,275
202,66,157544,1,0,0:0:0:0:
328,328,157687,5,8,0:0:0:0:
424,28,157831,1,0,0:0:0:0:
172,152,157974,1,8,0:0:0:0:
496,312,158118,1,0,0:0:0:0:
344,4,158261,1,8,0:0:0:0:
252,384,158405,1,0,0:0:0:0:
507,114,158549,2,0,L|367:106,1,137.5
80,224,158836,6,0,P|136:240|200:192,1,137.5
117,46,159123,2,0,P|61:30|-3:78,1,137.5
271,280,159410,2,0,B|332:114|212:158|279:0,1,275
273,14,159840,1,0,0:0:0:0:
416,184,159984,5,8,0:0:0:0:
140,272,160127,1,0,0:0:0:0:
344,80,160271,1,8,0:0:0:0:
368,384,160415,1,0,0:0:0:0:
76,208,160558,2,0,B|56:136|56:136|84:76,1,137.5
416,184,160845,2,0,B|442:240|442:240|422:312,1,137.5
180,51,161132,6,0,B|388:35|388:35|352:39|324:71,1,275
68,216,161563,1,0,0:0:0:0:
300,348,161706,1,8,0:0:0:0:
180,52,161850,1,0,0:0:0:0:
45,354,161993,2,0,L|182:339,1,137.5,0|0,0:0|0:1,0:0:0:0:
456,304,162281,5,8,0:0:0:0:
108,224,162424,1,0,0:0:0:0:
439,180,162568,5,8,0:0:0:0:
89,254,162711,1,0,0:0:0:0:
380,70,162855,5,8,0:0:0:0:
94,284,162998,1,0,0:0:0:0:
280,0,163142,5,8,0:0:0:0:
111,314,163285,1,0,0:0:0:0:
330,244,163429,6,0,L|344:384,1,137.5
440,200,163716,2,0,L|454:60,1,137.5
219,61,164003,6,0,B|184:194|184:194|227:325,1,275
226,324,164434,1,0,0:0:0:0:
372,128,164577,5,8,0:0:0:0:
80,224,164721,1,0,0:0:0:0:
308,380,164864,1,8,0:0:0:0:
280,12,165008,1,0,0:0:0:0:
136,280,165151,1,8,0:0:0:0:
432,188,165295,1,0,0:0:0:0:
108,40,165438,1,8,0:0:0:0:
192,340,165582,1,0,0:0:0:0:
407,1,165726,6,0,P|342:-15|272:18,1,137.5
230,263,166013,2,0,P|295:279|365:246,1,137.5
216,56,166300,1,8,0:0:0:0:
168,340,166443,1,0,0:0:0:0:
431,281,166587,2,0,P|425:215|365:175,1,137.5
116,268,166874,5,8,0:0:0:0:
368,372,167017,1,0,0:0:0:0:
248,76,167161,1,8,0:0:0:0:
140,352,167304,1,0,0:0:0:0:
452,184,167448,1,8,0:0:0:0:
164,96,167592,1,0,0:0:0:0:
368,372,167735,2,0,L|356:232,1,137.5
149,76,168022,6,0,P|118:141|157:204,1,137.5
370,250,168309,2,0,P|401:185|362:122,1,137.5
47,73,168596,2,0,B|30:171|30:171|67:229|67:229|51:340,1,275
51,334,169027,1,0,0:0:0:0:
200,88,169171,5,8,0:0:0:0:
136,384,169314,1,0,0:0:0:0:
284,62,169458,5,8,0:0:0:0:
220,358,169601,1,0,0:0:0:0:
368,40,169745,5,8,0:0:0:0:
304,384,169888,1,0,0:0:0:0:
452,80,170032,1,0,0:0:0:0:
452,80,170104,1,0,0:0:0:0:
452,80,170175,1,0,0:0:0:0:
232,61,170319,6,0,B|192:73|163:54|163:54|140:81|99:89,1,137.5
290,278,170606,1,8,0:0:0:0:
290,278,170749,2,0,B|310:84|310:84|295:126|245:146,1,275
77,330,171180,2,0,L|217:318,1,137.5
444,264,171467,5,8,0:0:0:0:
184,176,171611,1,0,0:0:0:0:
400,164,171754,5,8,0:0:0:0:
140,252,171898,1,0,0:0:0:0:
311,215,172041,5,8,0:0:0:0:
51,127,172185,1,0,0:0:0:0:
260,124,172328,5,8,0:0:0:0:
0,212,172472,1,0,0:0:0:0:
394,291,172615,6,0,B|450:138|337:166|394:7,1,275
388,24,173046,1,0,0:0:0:0:
320,216,173190,2,0,P|248:224|204:172,1,137.5
385,127,173477,2,0,P|457:119|501:171,1,137.5
374,355,173764,5,8,0:0:0:0:
138,29,173907,1,0,0:0:0:0:
138,355,174051,5,8,0:0:0:0:
374,29,174194,1,0,0:0:0:0:
394,383,174338,5,8,0:0:0:0:
117,0,174481,1,0,0:0:0:0:
117,383,174625,5,8,0:0:0:0:
394,0,174768,1,0,0:0:0:0:
260,280,174912,6,0,P|208:292|153:274,1,110
252,104,175199,2,0,P|304:92|360:112,1,110
232,264,175486,2,0,P|180:276|124:256,1,110
224,88,175773,2,0,P|276:76|332:96,1,110
381,217,176060,5,8,0:0:0:0:
318,325,176204,1,0,0:0:0:0:
208,261,176348,1,8,0:0:0:0:
272,152,176491,1,0,0:0:0:0:
420,300,176635,5,8,0:0:0:0:
229,357,176779,1,0,0:0:0:0:
170,163,176923,1,8,0:0:0:0:
363,105,177066,1,0,0:0:0:0:
288,283,177209,6,0,L|176:275,1,110
363,105,177496,2,0,L|475:97,1,110
237,186,177783,2,0,B|113:145|148:226|13:186,1,220
237,186,178214,1,4,0:0:0:0:
336,232,178357,6,0,P|373:271|376:328,1,110
242,299,178644,2,0,P|203:336|146:339,1,110
237,186,178931,2,0,P|200:147|197:90,1,110
312,32,179218,1,0,0:0:0:0:
312,32,179290,1,0,0:0:0:0:
312,32,179362,1,0,0:0:0:0:
371,188,179505,6,0,L|259:200,1,110
328,44,179793,2,0,L|440:56,1,110
256,120,180080,2,0,B|196:136|146:108|146:108|113:150|40:152,1,220
52,151,180510,1,4,0:0:0:0:
196,280,180654,5,8,0:0:0:0:
216,48,180797,1,0,0:0:0:0:
56,248,180941,1,8,0:0:0:0:
216,48,181084,1,0,0:0:0:0:
328,344,181228,5,8,0:0:0:0:
188,124,181371,1,0,0:0:0:0:
172,368,181515,1,8,0:0:0:0:
188,124,181659,1,0,0:0:0:0:
412,268,181802,6,0,P|434:221|416:160,1,110
291,79,182089,2,0,P|269:126|287:187,1,110
396,265,182376,2,0,P|418:218|400:157,1,110
275,76,182663,2,0,P|253:123|271:184,1,110
416,256,182950,5,8,0:0:0:0:
464,20,183094,1,0,0:0:0:0:
248,152,183238,1,8,0:0:0:0:
504,100,183381,1,0,0:0:0:0:
328,0,183525,1,8,0:0:0:0:
416,256,183668,1,0,0:0:0:0:
440,55,183812,2,0,B|346:50|386:98|281:73,1,165
256,48,184099,6,0,L|144:40,1,110
174,229,184386,2,0,L|64:236,1,110
280,168,184673,2,0,B|361:155|361:155|410:179|410:179|492:161,1,220
491,161,185104,1,0,0:0:0:0:
323,51,185247,5,8,0:0:0:0:
387,279,185391,1,0,0:0:0:0:
447,55,185534,1,8,0:0:0:0:
280,168,185678,1,0,0:0:0:0:
497,164,185821,2,0,L|509:280,1,110
280,168,186108,2,0,L|268:284,1,110
441,80,186395,6,0,P|339:77|279:177,1,220
279,167,186826,1,0,0:0:0:0:
188,200,186970,2,0,L|172:88,1,110
256,248,187257,2,0,L|245:306,1,55
325,315,187400,2,0,L|337:375,1,55
404,264,187544,6,0,L|416:152,1,110
432,0,187831,1,8,0:0:0:0:
432,0,187974,1,0,0:0:0:0:
108,264,188118,6,0,L|96:152,1,110
80,0,188405,1,8,0:0:0:0:
80,0,188548,1,0,0:0:0:0:
303,153,188692,6,0,B|256:142|221:167|221:167|169:141|169:141|135:161|90:153,1,220
200,32,189123,1,0,0:0:0:0:
304,152,189266,2,0,P|313:207|291:261,1,110
216,320,189553,2,0,L|200:268,1,55
104,245,189697,2,0,L|132:197,1,55
251,116,189840,6,0,B|305:105|305:105|367:128,1,110
305,275,190127,2,0,B|251:286|251:286|189:263,1,110
407,64,190415,2,0,B|461:53|461:53|523:76,1,110
144,329,190702,2,0,B|90:340|90:340|28:317,1,110
120,211,190989,5,8,0:0:0:0:
236,56,191132,1,0,0:0:0:0:
391,172,191276,1,8,0:0:0:0:
275,327,191419,1,0,0:0:0:0:
104,75,191563,5,8,0:0:0:0:
372,36,191706,1,0,0:0:0:0:
409,306,191850,1,8,0:0:0:0:
141,343,191993,1,0,0:0:0:0:
300,0,192137,5,4,0:0:0:0:
336,272,192281,1,0,0:0:0:0:
456,64,192424,1,4,0:0:0:0:
512,384,192568,1,0,0:0:0:0:
212,0,192711,5,4,0:0:0:0:
176,272,192855,1,0,0:0:0:0:
56,64,192998,1,4,0:0:0:0:
0,384,193142,1,0,0:0:0:0:
140,92,193285,5,8,0:0:0:0:
316,384,193429,1,0,0:0:0:0:
336,24,193572,1,8,0:0:0:0:
156,324,193716,1,0,0:0:0:0:
200,31,193860,2,0,B|334:22|334:22|387:71|387:71|514:60,1,330.000012588501
510,60,194290,1,0,0:0:0:0:
308,328,194434,5,8,0:0:0:0:
272,0,194577,1,0,0:0:0:0:
512,160,194721,1,8,0:0:0:0:
216,308,194864,1,0,0:0:0:0:
408,44,195008,1,8,0:0:0:0:
496,384,195151,1,0,0:0:0:0:
252,128,195295,1,0,0:0:0:0:
228,120,195367,1,0,0:0:0:0:
204,112,195438,1,0,0:0:0:0:
366,46,195582,6,0,B|491:34|491:34|467:42|452:72,1,165.000006294251
301,319,195869,2,0,B|176:331|176:331|200:323|215:293,1,165.000006294251
450,40,196156,2,0,B|456:145|456:145|498:191|498:191|466:237|466:237|476:346,1,330.000012588501
475,343,196587,1,0,0:0:0:0:
224,184,196730,5,8,0:0:0:0:
508,96,196874,1,0,0:0:0:0:
408,380,197017,1,8,0:0:0:0:
248,88,197161,1,0,0:0:0:0:
457,240,197304,2,0,P|396:292|317:282,1,165.000006294251
164,58,197592,2,0,P|224:5|303:15,1,165.000006294251
331,245,197879,6,0,P|339:285|319:333,1,82.5000031471254
234,262,198022,2,0,P|218:223|226:178,1,82.5000031471254
358,204,198166,2,0,B|386:284|386:284|350:364,1,165.000006294251
196,301,198453,6,0,B|164:228|164:228|192:148,1,165.000006294251
392,16,198740,1,8,0:0:0:0:
312,268,198883,1,0,0:0:0:0:
192,4,199027,5,8,0:0:0:0:
440,84,199171,1,0,0:0:0:0:
228,328,199314,1,8,0:0:0:0:
320,56,199458,1,0,0:0:0:0:
468,376,199601,1,8,0:0:0:0:
213,129,199745,1,0,0:0:0:0:
512,0,199888,2,0,L|496:164,1,165.000006294251
315,360,200175,6,0,B|287:284|287:284|316:223|316:223|255:135|321:54,1,330.000012588501
512,208,200606,1,8,0:0:0:0:
248,300,200749,6,0,B|145:258|173:334|72:288,1,165.000006294251
280,119,201037,2,0,B|364:158|336:82|439:124,1,165.000006294251
272,376,201324,5,8,0:0:0:0:
193,56,201467,1,0,0:0:0:0:
390,186,201611,5,8,0:0:0:0:
70,265,201754,1,0,0:0:0:0:
332,70,201898,5,8,0:0:0:0:
352,384,202041,1,0,0:0:0:0:
120,204,202185,5,8,0:0:0:0:
472,208,202328,1,0,0:0:0:0:
221,384,202472,6,0,B|194:306|194:306|237:224,1,165.000006294251
363,0,202759,2,0,B|390:78|390:78|352:152,1,165.000006294251
38,158,203046,2,0,B|170:137|170:137|221:175|221:175|358:150,1,330.000012588501
478,289,203477,1,0,0:0:0:0:
478,289,203549,1,0,0:0:0:0:
478,289,203620,2,0,P|399:319|310:277,1,165.000006294251
184,242,203907,2,0,P|108:217|33:247,1,165.000006294251
216,376,204194,1,8,0:0:0:0:
308,88,204338,1,0,0:0:0:0:
96,200,204482,1,8,0:0:0:0:
424,292,204625,1,0,0:0:0:0:
308,88,204769,6,0,B|213:58|242:118|136:88,1,165.000006294251
263,289,205056,2,0,B|358:259|329:319|423:291,1,165.000006294251
404,58,205343,2,0,B|164:12|164:12|203:25|229:68,1,330.000012588501
333,232,205773,1,0,0:0:0:0:
333,232,205845,1,0,0:0:0:0:
333,232,205917,2,0,P|249:256|193:204,1,165.000006294251
315,72,206204,2,0,P|399:48|455:100,1,165.000006294251
344,328,206491,1,8,0:0:0:0:
228,24,206635,1,0,0:0:0:0:
136,384,206778,1,8,0:0:0:0:
228,24,206922,1,0,0:0:0:0:
344,328,207065,6,0,P|428:360|508:244,1,247.500009441376
512,211,207352,2,0,P|457:152|376:158,1,165.000006294251
284,96,207639,2,0,L|120:84,1,165.000006294251
221,293,207927,2,0,L|57:305,1,165.000006294251
284,96,208214,5,8,0:0:0:0:
400,376,208357,1,0,0:0:0:0:
152,208,208501,1,8,0:0:0:0:
428,64,208644,1,0,0:0:0:0:
308,348,208788,1,8,0:0:0:0:
212,8,208931,1,0,0:0:0:0:
488,248,209075,1,8,0:0:0:0:
176,240,209218,1,0,0:0:0:0:
176,240,209290,1,0,0:0:0:0:
176,240,209362,6,0,P|144:152|184:96,1,165.000006294251
300,33,209649,2,0,L|392:41,1,82.5000031471254
305,160,209793,2,0,L|221:172,1,82.5000031471254
440,152,209936,6,0,B|468:268|468:268|444:316,1,165.000006294251
72,152,210223,2,0,B|44:268|44:268|68:316,1,165.000006294251
368,104,210510,5,8,0:0:0:0:
72,60,210654,1,0,0:0:0:0:
390,184,210797,5,8,0:0:0:0:
10,193,210941,1,0,0:0:0:0:
441,256,211084,5,8,0:0:0:0:
29,337,211228,1,0,0:0:0:0:
431,341,211371,6,0,L|515:357,1,82.5000031471254
144,248,211515,2,0,L|56:260,1,82.5000031471254
512,209,211659,6,0,P|520:133|448:81,1,165.000006294251
241,210,211946,2,0,P|233:286|305:338,1,165.000006294251
355,96,212233,2,0,B|247:85|247:85|211:43|211:43|162:77|162:77|48:66,1,330.000012588501
256,240,212663,1,0,0:0:0:0:
256,240,212735,1,0,0:0:0:0:
256,240,212807,2,0,L|424:232,1,165.000006294251
184,136,213094,5,8,0:0:0:0:
480,40,213238,1,0,0:0:0:0:
324,332,213381,5,8,0:0:0:0:
248,8,213525,1,0,0:0:0:0:
508,184,213668,5,8,0:0:0:0:
108,240,213812,1,0,0:0:0:0:
418,27,213955,6,0,B|447:101|447:101|422:183,1,165.000006294251
272,360,214242,2,0,B|243:286|243:286|268:204,1,165.000006294251
512,275,214529,2,0,L|176:287,1,330.000012588501
199,203,214960,1,0,0:0:0:0:
175,199,215032,1,0,0:0:0:0:
151,195,215104,2,0,B|-20:172,1,165.000006294251
240,64,215391,2,0,B|411:41,1,165.000006294251
264,356,215678,5,8,0:0:0:0:
92,52,215821,1,0,0:0:0:0:
396,116,215965,1,8,0:0:0:0:
168,336,216108,1,0,0:0:0:0:
322,93,216252,6,0,B|374:97|403:74|403:74|434:105|478:113,1,165.000006294251
250,294,216539,2,0,B|198:290|169:313|169:313|138:282|94:274,1,165.000006294251
462,34,216826,2,0,B|535:205|387:149|474:362,1,330.000012588501
469,350,217257,1,0,0:0:0:0:
344,72,217400,5,8,0:0:0:0:
332,380,217544,1,0,0:0:0:0:
242,24,217687,5,8,0:0:0:0:
230,332,217831,1,0,0:0:0:0:
139,39,217974,5,8,0:0:0:0:
127,347,218118,1,0,0:0:0:0:
44,2,218261,5,8,0:0:0:0:
32,310,218405,1,0,0:0:0:0:
227,109,218549,6,0,B|327:97|327:97|391:133,1,165.000006294251
248,332,218836,1,8,0:0:0:0:
160,48,218979,1,0,0:0:0:0:
464,85,219123,1,0,0:0:0:0:
467,110,219194,1,0,0:0:0:0:
470,135,219266,1,0,0:0:0:0:
264,244,219410,1,8,0:0:0:0:
512,360,219553,1,0,0:0:0:0:
372,52,219697,5,8,0:0:0:0:
252,328,219840,1,0,0:0:0:0:
504,192,219984,1,8,0:0:0:0:
272,40,220127,1,0,0:0:0:0:
396,380,220271,1,8,0:0:0:0:
488,8,220415,1,0,0:0:0:0:
112,148,220558,1,8,0:0:0:0:
444,280,220702,1,0,0:0:0:0:
456,256,220773,1,0,0:0:0:0:
467,230,220845,6,0,P|450:150|362:129,1,165.000006294251
35,124,221132,2,0,P|52:204|140:225,1,165.000006294251
433,50,221419,2,0,B|350:30|350:30|292:72|292:72|210:12|124:65,1,330.000012588501
240,216,221850,1,0,0:0:0:0:
264,220,221922,1,0,0:0:0:0:
288,224,221993,2,0,B|404:248|404:248|452:224,1,165.000006294251
234,54,222281,2,0,B|118:30|118:30|70:54,1,165.000006294251
248,324,222568,1,8,0:0:0:0:
368,4,222711,1,0,0:0:0:0:
11,96,222855,2,0,L|-1:268,1,165.000006294251
372,344,223142,6,0,B|391:287|391:287|344:180,1,165.000006294251
119,21,223429,2,0,B|100:78|100:78|147:185,1,165.000006294251
452,119,223716,2,0,P|368:75|240:243,1,330.000012588501
234,224,224147,1,0,0:0:0:0:
488,308,224290,5,8,0:0:0:0:
368,48,224434,1,0,0:0:0:0:
296,352,224577,1,8,0:0:0:0:
496,144,224721,1,0,0:0:0:0:
208,92,224864,6,0,L|120:84,1,82.5000031471254
334,196,225008,2,0,L|418:184,1,82.5000031471254
137,267,225151,2,0,L|49:259,1,82.5000031471254
352,363,225295,2,0,L|436:351,1,82.5000031471254
208,168,225457,5,8,0:0:0:0:
88,360,225582,1,0,0:0:0:0:
44,80,225726,1,8,0:0:0:0:
232,296,225869,1,0,0:0:0:0:
308,24,226013,5,8,0:0:0:0:
131,260,226156,1,0,0:0:0:0:
428,144,226300,1,8,0:0:0:0:
131,260,226443,1,0,0:0:0:0:
444,304,226587,5,8,0:0:0:0:
228,56,226730,1,0,0:0:0:0:
280,384,226874,1,8,0:0:0:0:
396,0,227017,1,0,0:0:0:0:
112,256,227161,5,8,0:0:0:0:
304,68,227304,1,0,0:0:0:0:
260,380,227448,1,8,0:0:0:0:
144,96,227592,1,0,0:0:0:0:
512,176,227735,5,8,0:0:0:0:
53,191,227879,1,0,0:0:0:0:
436,316,228022,1,8,0:0:0:0:
0,348,228166,1,0,0:0:0:0:
250,15,228309,5,8,0:0:0:0:
300,344,228453,1,0,0:0:0:0:
88,104,228596,1,8,0:0:0:0:
480,84,228740,1,0,0:0:0:0:
216,376,228883,5,8,0:0:0:0:
164,40,229027,1,0,0:0:0:0:
464,268,229171,5,8,0:0:0:0:
28,288,229314,1,0,0:0:0:0:
332,0,229458,5,8,0:0:0:0:
364,384,229601,1,0,0:0:0:0:
0,12,229745,5,8,0:0:0:0:
512,132,229888,1,0,0:0:0:0:
156,352,230032,5,8,0:0:0:0:
