osu file format v14

[General]
AudioFilename: audio.mp3
AudioLeadIn: 0
PreviewTime: 52626
Countdown: 1
SampleSet: Normal
StackLeniency: 0.7
Mode: 0
LetterboxInBreaks: 0
WidescreenStoryboard: 1

[Editor]
Bookmarks: 3207,13312,23417,42995,53100,63205,73311,78363,83416,89101
DistanceSpacing: 1.6
BeatDivisor: 4
GridSize: 32
TimelineZoom: 2.4

[Metadata]
Title:99 (TV Size)
TitleUnicode:99 (TV Size)
Artist:Mob Choir
ArtistUnicode:Mob Choir
Creator:[ Same ]
Version:???%
Source:Mob Psycho 100
Tags:
BeatmapID:1261977
BeatmapSetID:586781

[Difficulty]
HPDrainRate:7
CircleSize:4
OverallDifficulty:8.8
ApproachRate:9.2
SliderMultiplier:2.23
SliderTickRate:1

[Events]
//Background and Video events
0,0,"stretched-1366-768-767264.png",0,0
//Break Periods
//Storyboard Layer 0 (Background)
//Storyboard Layer 1 (Fail)
//Storyboard Layer 2 (Pass)
//Storyboard Layer 3 (Foreground)
//Storyboard Sound Samples

[TimingPoints]
48,315.789473684211,4,1,0,70,1,0
2574,-200,4,1,0,12,0,0
11258,-100,4,1,0,12,0,0
11891,-100,4,1,0,82,0,0
53100,-86.9565217391304,4,1,0,92,0,1
63205,-86.9565217391304,4,1,0,83,0,1
72048,-133.333333333333,4,1,0,83,0,1
73311,-100,4,1,0,73,0,0

[HitObjects]
170,77,48,6,0,L|141:145,1,55.75,0|0,3:0|3:0,3:0:0:0:
188,197,205,2,0,L|179:132,1,55.75,0|0,3:0|3:0,3:0:0:0:
217,74,363,2,0,L|254:137,3,55.75,0|0|0|0,3:0|3:0|3:0|3:0,3:0:0:0:
183,142,679,2,0,L|125:163,1,55.75,0|0,3:0|3:0,3:0:0:0:
114,228,837,2,0,L|168:180,1,55.75,0|0,3:0|3:0,3:0:0:0:
219,213,995,5,0,3:0:0:0:
272,229,1074,1,0,3:0:0:0:
325,245,1153,1,0,3:0:0:0:
378,261,1232,1,0,3:0:0:0:
433,247,1311,5,0,3:0:0:0:
473,209,1390,1,0,3:0:0:0:
479,155,1469,1,0,3:0:0:0:
449,110,1548,1,0,3:0:0:0:
398,94,1626,5,0,3:0:0:0:
344,104,1705,1,0,3:0:0:0:
307,144,1784,1,0,3:0:0:0:
302,199,1863,1,0,3:0:0:0:
330,245,1942,1,0,3:0:0:0:
130,229,2574,6,0,P|126:222|116:167,2,55.75,0|0|0,1:0|1:0|1:0,1:0:0:0:
258,102,3048,1,0,1:0:0:0:
258,102,3205,1,0,1:0:0:0:
203,242,3363,1,0,1:0:0:0:
388,256,3521,6,0,P|361:285|334:297,1,55.75,0|0,1:0|1:0,1:0:0:0:
225,107,3837,2,0,P|207:135|209:171,2,55.75,0|0|0,1:0|1:0|1:0,1:0:0:0:
415,219,4311,2,0,P|419:160|395:87,1,111.5,0|0,1:0|1:0,1:0:0:0:
217,226,4784,5,0,1:0:0:0:
217,226,4942,2,0,P|161:197|148:180,1,55.75,0|0,1:0|1:0,1:0:0:0:
301,172,5258,1,0,1:0:0:0:
112,134,5416,1,0,1:0:0:0:
185,58,5574,2,0,P|127:99|111:160,1,111.5,0|0,1:0|1:0,1:0:0:0:
265,222,6048,6,0,P|232:268|183:282,1,55.75,0|0,1:0|1:0,1:0:0:0:
232,138,6363,2,0,P|255:115|306:93,1,55.75,0|0,1:0|1:0,1:0:0:0:
87,212,6679,1,0,1:0:0:0:
183,258,6837,2,0,P|125:247|75:180,1,111.5,0|0,1:0|1:0,1:0:0:0:
189,105,7311,5,0,1:0:0:0:
189,105,7469,2,0,B|224:124|254:106|280:95|307:108,1,111.5,0|0,1:0|1:0,1:0:0:0:
243,33,7942,1,0,1:0:0:0:
245,181,8100,2,0,B|229:211|252:237|260:263|248:298,1,111.5,0|0,1:0|1:0,1:0:0:0:
180,258,8574,1,0,1:0:0:0:
310,202,8732,6,0,P|353:191|436:212,1,111.5,0|0,1:0|1:0,1:0:0:0:
281,125,9205,2,0,P|276:86|301:33,1,55.75,0|0,1:0|1:0,1:0:0:0:
279,70,9521,1,0,1:0:0:0:
95,126,9837,5,0,1:0:0:0:
95,126,9995,2,0,B|128:145|131:180|126:220|166:229|199:238|199:238|205:200|181:171,1,223,0|0,1:0|1:0,1:0:0:0:
262,122,10784,2,0,P|309:154|331:222,1,111.5,0|0,1:0|1:0,1:0:0:0:
193,133,11258,2,0,P|216:72|261:48,1,111.5,0|0,3:0|3:0,3:0:0:0:
168,114,12680,6,0,B|186:177|186:177|241:206,2,111.5,0|0|0,1:0|1:0|1:0,1:0:0:0:
359,304,13312,2,0,P|383:249|386:188,1,111.5,0|0,1:0|1:0,1:0:0:0:
78,216,13943,2,0,P|151:214|224:247,1,111.5,0|0,1:0|1:0,1:0:0:0:
416,70,14575,2,0,P|356:103|324:157,1,111.5,0|0,1:0|1:0,1:0:0:0:
217,304,15206,6,0,P|141:300|74:264,2,111.5,0|0|0,1:0|1:0|1:0,1:0:0:0:
225,57,15838,2,0,B|237:91|220:120|197:144|229:190,1,111.5,0|0,1:0|1:0,1:0:0:0:
359,273,16470,2,0,P|299:246|249:246,1,111.5,0|0,1:0|1:0,1:0:0:0:
317,129,16785,2,0,P|344:191|328:258,1,111.5,0|0,1:0|1:0,1:0:0:0:
159,130,17101,2,0,P|226:146|285:131,1,111.5,0|0,1:0|1:0,1:0:0:0:
212,293,17417,2,0,P|230:229|226:173,1,111.5,0|0,1:0|1:0,1:0:0:0:
115,48,17733,5,0,3:0:0:0:
94,254,17891,1,0,3:0:0:0:
366,153,18364,5,0,3:0:0:0:
159,180,18522,1,0,3:0:0:0:
314,28,18996,5,0,3:0:0:0:
466,198,19154,1,0,3:0:0:0:
285,135,19627,5,0,3:0:0:0:
135,273,19785,1,0,3:0:0:0:
412,225,20259,5,0,3:0:0:0:
168,209,20417,1,0,3:0:0:0:
374,42,20891,5,0,3:0:0:0:
266,278,21049,1,0,3:0:0:0:
181,73,21522,6,0,P|128:140|84:160,1,111.5,0|0,3:0|3:0,3:0:0:0:
321,80,21838,2,0,P|245:84|198:114,1,111.5,0|0,3:0|3:0,3:0:0:0:
410,203,22154,2,0,P|360:160|339:109,1,111.5,0|0,3:0|3:0,3:0:0:0:
385,311,22470,2,0,P|407:268|403:233,3,55.75,0|0|0|0,3:0|3:0|3:0|3:0,3:0:0:0:
235,223,22785,6,0,P|285:279|344:305,1,111.5,0|0,3:0|3:0,3:0:0:0:
289,142,23101,1,0,3:0:0:0:
235,284,23259,1,0,3:0:0:0:
269,110,23417,2,0,P|297:49|353:18,1,111.5,0|0,3:0|3:0,3:0:0:0:
375,149,23733,1,0,3:0:0:0:
213,57,23891,1,0,3:0:0:0:
175,171,24049,6,0,P|168:101|142:49,1,111.5,0|0,3:0|3:0,3:0:0:0:
143,229,24364,1,0,3:0:0:0:
254,105,24522,1,0,3:0:0:0:
120,271,24680,2,0,B|165:307|165:307|235:313,1,111.5,0|0,3:0|3:0,3:0:0:0:
175,133,24996,1,0,3:0:0:0:
244,265,25154,1,0,3:0:0:0:
185,102,25312,5,0,3:0:0:0:
220,59,25390,1,0,3:0:0:0:
272,43,25469,1,0,3:0:0:0:
325,57,25548,1,0,3:0:0:0:
362,98,25627,2,0,B|395:155|395:155|396:217,1,111.5,0|0,3:0|3:0,3:0:0:0:
228,288,25943,5,0,3:0:0:0:
228,288,26022,1,0,3:0:0:0:
228,288,26101,1,0,3:0:0:0:
181,113,26259,1,0,3:0:0:0:
278,256,26417,1,0,3:0:0:0:
162,66,26575,6,0,P|106:131|99:178,1,111.5,0|0,3:0|3:0,3:0:0:0:
100,154,26812,1,0,3:0:0:0:
100,154,26891,1,0,3:0:0:0:
250,268,27049,1,0,3:0:0:0:
194,91,27206,2,0,P|268:56|410:78,1,223,0|0,3:0|3:0,3:0:0:0:
219,138,27680,1,0,3:0:0:0:
430,84,27838,5,0,3:0:0:0:
430,84,27917,1,0,3:0:0:0:
430,84,27996,1,0,3:0:0:0:
316,237,28154,1,0,3:0:0:0:
372,35,28312,1,0,3:0:0:0:
283,207,28470,6,0,P|392:198|430:229,1,111.5,0|0,3:0|3:0,3:0:0:0:
389,196,28706,1,0,3:0:0:0:
389,196,28785,1,0,3:0:0:0:
208,277,28943,1,0,3:0:0:0:
290,134,29101,1,0,3:0:0:0:
265,317,29259,1,0,3:0:0:0:
265,317,29338,1,0,3:0:0:0:
265,317,29417,2,0,P|245:263|194:217,1,111.5,0|0,3:0|3:0,3:0:0:0:
114,59,29733,6,0,P|85:117|94:172,2,111.5,0|0|0,3:0|3:0|3:0,3:0:0:0:
247,82,30206,2,0,P|258:117|251:168,1,55.75,0|0,3:0|3:0,3:0:0:0:
299,51,30364,2,0,P|322:121|316:169,1,111.5,0|0,3:0|3:0,3:0:0:0:
132,271,30680,2,0,P|204:300|252:300,1,111.5,0|0,3:0|3:0,3:0:0:0:
240,239,30917,2,0,P|286:249|320:244,1,55.75,0|0,3:0|3:0,3:0:0:0:
416,143,31154,5,0,3:0:0:0:
416,143,31233,1,0,3:0:0:0:
416,143,31312,2,0,P|412:200|383:255,1,111.5,0|0,3:0|3:0,3:0:0:0:
306,97,31627,1,0,3:0:0:0:
307,262,31784,1,0,3:0:0:0:
307,262,31863,1,0,3:0:0:0:
307,262,31942,1,0,3:0:0:0:
466,333,32101,1,0,3:0:0:0:
255,179,32259,6,0,P|206:129|197:60,2,111.5,0|0|0,3:0|3:0|3:0,3:0:0:0:
130,48,32733,1,0,3:0:0:0:
160,256,32890,1,0,3:0:0:0:
160,256,32969,1,0,3:0:0:0:
160,256,33049,2,0,P|195:288|271:296,1,111.5,0|0,3:0|3:0,3:0:0:0:
202,151,33364,5,0,3:0:0:0:
308,333,33521,2,0,L|299:222,1,111.5,0|0,3:0|3:0,3:0:0:0:
262,93,33838,1,0,3:0:0:0:
170,248,33996,1,0,3:0:0:0:
377,186,34154,2,0,L|455:163,2,55.75,0|0|0,3:0|3:0|3:0,3:0:0:0:
251,37,34469,5,0,3:0:0:0:
356,225,34626,1,0,3:0:0:0:
201,48,34784,2,0,P|149:94|83:129,1,111.5,0|0,3:0|3:0,3:0:0:0:
339,154,35100,1,0,3:0:0:0:
105,202,35258,2,0,P|174:254|206:298,1,111.5,0|0,3:0|3:0,3:0:0:0:
225,311,35495,5,0,3:0:0:0:
277,328,35573,1,0,3:0:0:0:
332,323,35652,1,0,3:0:0:0:
380,299,35732,2,0,P|411:276|445:180,1,111.5,0|0,3:0|3:0,3:0:0:0:
292,60,36048,6,0,P|263:57|227:71,2,55.75,0|0|0,3:0|3:0|3:0,3:0:0:0:
431,179,36363,2,0,P|417:262|363:305,1,111.5,0|0,3:0|3:0,3:0:0:0:
241,222,36679,1,0,3:0:0:0:
241,222,36758,1,0,3:0:0:0:
241,222,36837,1,0,3:0:0:0:
370,95,36995,6,0,P|413:130|435:202,1,111.5,0|0,3:0|3:0,3:0:0:0:
221,289,37311,2,0,P|175:248|170:168,1,111.5,0|0,3:0|3:0,3:0:0:0:
348,117,37626,1,0,3:0:0:0:
259,297,37784,1,0,3:0:0:0:
317,78,37942,2,0,P|250:35|175:35,1,111.5,0|0,3:0|3:0,3:0:0:0:
368,175,38258,5,0,3:0:0:0:
153,92,38416,1,0,3:0:0:0:
370,224,38574,2,0,B|345:275|345:275|262:313,1,111.5,0|0,3:0|3:0,3:0:0:0:
390,114,38890,1,0,3:0:0:0:
239,287,39048,1,0,3:0:0:0:
357,86,39205,2,0,B|299:48|299:48|217:39,1,111.5,0|0,3:0|3:0,3:0:0:0:
101,215,39521,5,0,3:0:0:0:
215,64,39679,1,0,3:0:0:0:
123,258,39837,2,0,P|91:188|90:114,1,111.5,0|0,3:0|3:0,3:0:0:0:
310,151,40153,2,0,P|232:151|178:164,1,111.5,0|0,3:0|3:0,3:0:0:0:
199,157,40390,1,0,3:0:0:0:
199,157,40469,5,0,3:0:0:0:
397,58,40626,1,0,3:0:0:0:
286,224,40784,1,0,3:0:0:0:
430,95,40942,1,0,3:0:0:0:
430,95,41021,1,0,3:0:0:0:
430,95,41100,1,0,3:0:0:0:
244,195,41258,1,0,3:0:0:0:
244,195,41337,1,0,3:0:0:0:
244,195,41416,6,0,P|320:163|360:159,2,111.5,0|0|0,3:0|3:0|3:0,3:0:0:0:
140,107,41890,2,0,P|97:144|90:155,2,55.75,0|0|0,3:0|3:0|3:0,3:0:0:0:
174,325,42205,2,0,P|188:258|185:204,1,111.5,0|0,3:0|3:0,3:0:0:0:
230,149,42442,2,0,P|254:115|275:97,1,55.75,0|0,3:0|3:0,3:0:0:0:
463,214,42679,1,0,3:0:0:0:
274,43,42837,1,0,3:0:0:0:
292,277,42995,1,0,3:0:0:0:
139,58,43311,6,0,P|130:89|108:115,1,55.75,0|0,3:0|3:0,3:0:0:0:
310,146,43626,2,0,P|308:185|334:220,1,55.75,0|0,3:0|3:0,3:0:0:0:
134,277,43942,2,0,P|125:308|103:334,1,55.75,0|0,3:0|3:0,3:0:0:0:
82,191,44258,2,0,P|99:106|142:70,1,111.5,0|0,3:0|3:0,3:0:0:0:
311,71,44574,6,0,L|379:65,1,55.75,0|0,3:0|3:0,3:0:0:0:
207,221,44890,2,0,P|206:289|181:318,1,55.75,0|0,3:0|3:0,3:0:0:0:
415,70,45205,2,0,P|457:71|479:62,2,55.75,0|0|0,3:0|3:0|3:0,3:0:0:0:
226,64,45521,5,0,3:0:0:0:
172,49,45599,1,0,3:0:0:0:
121,67,45678,1,0,3:0:0:0:
88,112,45757,1,0,3:0:0:0:
86,165,45837,2,0,L|125:218,1,55.75,0|0,3:0|3:0,3:0:0:0:
229,202,45995,2,0,L|185:140,1,55.75,0|0,3:0|3:0,3:0:0:0:
272,117,46153,5,0,3:0:0:0:
306,159,46231,1,0,3:0:0:0:
358,179,46310,1,0,3:0:0:0:
412,171,46389,1,0,3:0:0:0:
456,137,46468,1,0,3:0:0:0:
306,319,46626,1,0,3:0:0:0:
125,120,46784,6,0,P|141:209|186:262,1,111.5,0|0,3:0|3:0,3:0:0:0:
168,258,47021,2,0,L|200:195,1,55.75,0|0,3:0|3:0,3:0:0:0:
276,41,47258,1,0,3:0:0:0:
428,191,47416,6,0,L|402:236,1,27.875,0|0,3:0|3:0,3:0:0:0:
197,126,47574,2,0,L|235:146,1,27.875,0|0,3:0|3:0,3:0:0:0:
282,313,47732,2,0,L|291:280,1,27.875,0|0,3:0|3:0,3:0:0:0:
331,86,47890,2,0,L|340:139,1,27.875,0|0,3:0|3:0,3:0:0:0:
177,259,48048,6,0,P|122:195|114:130,1,111.5,0|0,3:0|3:0,3:0:0:0:
268,299,48363,2,0,P|227:245|181:224,1,111.5,0|0,3:0|3:0,3:0:0:0:
415,320,48679,2,0,P|340:333|277:320,1,111.5,0|0,3:0|3:0,3:0:0:0:
454,162,48995,2,0,P|420:209|425:291,1,111.5,0|0,3:0|3:0,3:0:0:0:
303,237,49311,5,0,3:0:0:0:
224,116,49469,1,0,3:0:0:0:
241,235,49626,1,0,3:0:0:0:
332,114,49784,1,0,3:0:0:0:
303,237,49942,5,0,3:0:0:0:
156,69,50100,1,0,3:0:0:0:
241,235,50258,1,0,3:0:0:0:
399,68,50416,1,0,3:0:0:0:
303,237,50574,5,0,3:0:0:0:
185,48,50732,1,0,3:0:0:0:
241,278,50890,1,0,3:0:0:0:
417,114,51048,1,0,3:0:0:0:
303,237,51205,5,0,3:0:0:0:
139,76,51363,1,0,3:0:0:0:
241,278,51521,1,0,3:0:0:0:
408,63,51679,1,0,3:0:0:0:
333,260,51837,5,0,3:0:0:0:
342,205,51915,1,0,3:0:0:0:
333,150,51994,1,0,3:0:0:0:
312,98,52074,1,0,3:0:0:0:
308,43,52152,1,0,3:0:0:0:
342,1,52231,1,0,3:0:0:0:
396,0,52310,1,0,3:0:0:0:
441,24,52389,1,0,3:0:0:0:
455,82,52469,2,0,P|421:146|378:149,1,111.5,0|0,3:0|3:0,3:0:0:0:
298,294,53100,6,0,P|257:233|253:169,1,128.225002445698,0|0,1:0|1:0,1:0:0:0:
481,124,53416,1,0,1:0:0:0:
290,249,53574,1,0,1:0:0:0:
448,80,53732,1,0,1:0:0:0:
239,235,53890,1,0,1:0:0:0:
402,52,54048,2,0,P|333:80|274:53,1,128.225002445698,0|0,1:0|1:0,1:0:0:0:
356,305,54363,6,0,P|370:218|352:171,1,128.225002445698,0|0,1:0|1:0,1:0:0:0:
140,76,54679,1,0,1:0:0:0:
88,254,54837,2,0,P|194:235|342:295,1,256.450004891396,0|0,1:0|1:0,1:0:0:0:
178,116,55311,1,0,1:0:0:0:
341,35,55469,6,0,P|371:73|459:131,1,128.225002445698,0|0,1:0|1:0,1:0:0:0:
141,40,55784,2,0,P|239:38|293:59,1,128.225002445698,0|0,1:0|1:0,1:0:0:0:
72,217,56100,2,0,P|110:126|108:77,1,128.225002445698,0|0,1:0|1:0,1:0:0:0:
105,268,56416,5,0,1:0:0:0:
54,57,56574,1,0,1:0:0:0:
241,243,56732,1,0,1:0:0:0:
423,57,56890,2,0,P|455:140|447:208,1,128.225002445698,0|0,1:0|1:0,1:0:0:0:
254,287,57205,5,0,1:0:0:0:
131,158,57363,2,0,P|214:122|297:118,1,128.225002445698,0|0,1:0|1:0,1:0:0:0:
326,172,57679,1,0,1:0:0:0:
137,195,57837,1,0,1:0:0:0:
293,114,57995,6,0,P|326:46|347:151,1,256.450004891396,0|0,1:0|1:0,1:0:0:0:
266,292,58469,1,0,1:0:0:0:
219,114,58626,2,0,P|186:46|165:151,1,256.450004891396,0|0,1:0|1:0,1:0:0:0:
265,353,59100,1,0,1:0:0:0:
255,122,59258,2,0,B|255:28|255:28|305:75|323:142|303:202,1,256.450004891396,0|0,1:0|1:0,1:0:0:0:
130,311,59732,5,0,1:0:0:0:
130,311,59890,2,0,P|99:195|100:126,1,128.225002445698,0|0,1:0|1:0,1:0:0:0:
304,93,60205,1,0,1:0:0:0:
251,302,60363,1,0,1:0:0:0:
312,91,60521,2,0,B|374:73|434:89|434:89|430:140|368:211,1,256.450004891396,0|0,1:0|1:0,1:0:0:0:
155,37,60995,5,4,1:0:0:0:
356,278,61153,1,0,1:0:0:0:
52,133,61311,5,4,1:0:0:0:
362,110,61469,1,0,1:0:0:0:
213,307,61626,5,4,1:0:0:0:
285,47,61784,1,0,1:0:0:0:
135,265,61942,6,0,P|226:255|296:275,1,128.225002445698,0|0,1:0|1:0,1:0:0:0:
70,71,62258,2,0,P|78:171|55:238,1,128.225002445698,0|0,1:0|1:0,1:0:0:0:
306,27,62574,2,0,P|183:47|123:32,1,128.225002445698,0|0,1:0|1:0,1:0:0:0:
323,281,62890,2,0,P|324:192|299:116,1,128.225002445698,0|0,1:0|1:0,1:0:0:0:
108,286,63205,5,4,3:0:0:0:
226,66,63363,1,0,3:0:0:0:
165,297,63521,5,4,3:0:0:0:
94,50,63679,1,0,3:0:0:0:
301,226,63837,5,4,3:0:0:0:
37,166,63995,1,0,3:0:0:0:
297,53,64153,5,4,3:0:0:0:
258,282,64311,1,0,3:0:0:0:
154,22,64469,5,4,3:0:0:0:
150,295,64626,1,0,3:0:0:0:
396,129,64784,5,4,3:0:0:0:
138,222,64942,1,0,3:0:0:0:
395,226,65100,5,4,3:0:0:0:
141,125,65258,1,0,3:0:0:0:
417,275,65416,5,4,3:0:0:0:
288,296,65574,2,0,B|234:248|169:228|97:237|97:237|78:198|47:188,1,256.450004891396,0|0,3:0|3:0,3:0:0:0:
253,20,66048,5,4,3:0:0:0:
148,275,66205,1,0,3:0:0:0:
373,42,66363,5,4,3:0:0:0:
258,312,66521,1,0,3:0:0:0:
472,78,66679,5,4,3:0:0:0:
368,341,66837,1,0,3:0:0:0:
455,122,66995,5,4,3:0:0:0:
195,69,67153,1,0,3:0:0:0:
429,247,67311,5,4,3:0:0:0:
237,30,67469,1,0,3:0:0:0:
305,311,67626,5,4,3:0:0:0:
299,20,67784,1,0,3:0:0:0:
173,241,67942,1,4,3:0:0:0:
349,41,68100,2,0,P|262:89|100:53,1,256.450004891396,0|0,3:0|3:0,3:0:0:0:
195,290,68574,5,4,3:0:0:0:
166,52,68732,1,0,3:0:0:0:
325,255,68890,5,12,3:0:0:0:
28,269,69048,1,0,3:0:0:0:
225,45,69205,5,4,3:0:0:0:
254,283,69363,1,0,3:0:0:0:
23,200,69521,5,4,3:0:0:0:
320,186,69679,1,0,3:0:0:0:
53,95,69837,6,4,P|147:102|217:133,1,128.225002445698,4|4,3:0|3:0,3:0:0:0:
459,95,70153,2,0,P|365:102|295:133,1,128.225002445698,0|0,3:0|3:0,3:0:0:0:
253,343,70469,5,4,3:0:0:0:
258,41,70626,2,0,B|225:97|257:144|308:189|245:294,1,256.450004891396,0|0,3:0|3:0,3:0:0:0:
208,39,71100,5,4,3:0:0:0:
299,315,71258,1,0,3:0:0:0:
140,86,71416,5,4,3:0:0:0:
366,267,71574,1,0,3:0:0:0:
108,162,71732,5,4,3:0:0:0:
398,191,71890,1,0,3:0:0:0:
139,236,72048,6,0,B|190:198|239:225|272:257|316:222|355:197|326:120|328:257,1,250.875009570122,0|0,3:0|3:0,3:0:0:0:
203,318,72679,1,0,3:0:0:0:
161,312,72757,1,0,3:0:0:0:
124,294,72836,1,0,3:0:0:0:
93,266,72915,1,0,3:0:0:0:
130,258,72995,1,0,3:0:0:0:
102,227,73073,1,0,3:0:0:0:
85,189,73152,1,0,3:0:0:0:
80,147,73231,1,0,3:0:0:0:
94,110,73311,6,0,P|156:115|212:93,1,111.5,0|0,3:0|3:0,3:0:0:0:
364,221,73626,1,0,3:0:0:0:
175,64,73784,1,0,3:0:0:0:
349,258,73942,6,0,P|393:176|379:109,1,111.5,0|0,3:0|3:0,3:0:0:0:
241,306,74258,1,0,3:0:0:0:
398,102,74416,1,0,3:0:0:0:
187,284,74574,6,0,P|175:196|201:135,1,111.5,0|0,3:0|3:0,3:0:0:0:
386,306,74890,1,0,3:0:0:0:
386,306,74969,1,0,3:0:0:0:
386,306,75048,1,0,3:0:0:0:
198,122,75205,6,0,P|273:98|359:105,1,111.5,0|0,3:0|3:0,3:0:0:0:
86,240,75521,1,0,3:0:0:0:
334,144,75679,1,0,3:0:0:0:
71,190,75837,6,0,P|68:122|106:55,1,111.5,0|0,3:0|3:0,3:0:0:0:
240,272,76153,2,0,P|302:278|328:264,2,55.75,0|0|0,3:0|3:0|3:0,3:0:0:0:
300,49,76469,6,0,P|375:88|423:147,1,111.5,0|0,3:0|3:0,3:0:0:0:
148,98,76784,1,0,3:0:0:0:
148,98,76863,1,0,3:0:0:0:
148,98,76942,1,0,3:0:0:0:
250,279,77100,6,0,P|165:305|105:286,1,111.5,0|0,3:0|3:0,3:0:0:0:
405,189,77416,2,0,P|328:225|295:268,1,111.5,0|0,3:0|3:0,3:0:0:0:
414,11,77732,2,0,P|437:81|420:148,1,111.5,0|0,3:0|3:0,3:0:0:0:
230,33,78048,2,0,P|294:24|372:31,1,111.5,0|0,3:0|3:0,3:0:0:0:
188,149,78363,6,0,P|249:158|260:158,1,55.75,0|0,3:0|3:0,3:0:0:0:
324,149,78521,2,0,P|263:158|252:158,1,55.75,0|0,3:0|3:0,3:0:0:0:
187,213,78679,6,0,P|248:222|259:222,1,55.75,0|0,3:0|3:0,3:0:0:0:
323,213,78837,2,0,P|262:222|251:222,1,55.75,0|0,3:0|3:0,3:0:0:0:
189,283,78995,6,0,P|250:292|261:292,1,55.75,0|0,3:0|3:0,3:0:0:0:
325,283,79153,2,0,P|264:292|253:292,1,55.75,0|0,3:0|3:0,3:0:0:0:
397,283,79311,6,0,P|458:292|469:292,1,55.75,0|0,3:0|3:0,3:0:0:0:
280,343,79469,2,0,P|254:376|219:400,1,55.75,0|0,3:0|3:0,3:0:0:0:
373,220,79626,6,0,P|434:229|445:229,1,55.75,0|0,3:0|3:0,3:0:0:0:
256,280,79784,2,0,P|230:313|195:337,1,55.75,0|0,3:0|3:0,3:0:0:0:
350,155,79942,6,0,P|411:164|422:164,1,55.75,0|0,3:0|3:0,3:0:0:0:
233,215,80100,2,0,P|207:248|172:272,1,55.75,0|0,3:0|3:0,3:0:0:0:
47,267,80258,6,0,P|108:276|119:276,1,55.75,0|0,3:0|3:0,3:0:0:0:
233,148,80416,2,0,P|207:181|172:205,1,55.75,0|0,3:0|3:0,3:0:0:0:
47,200,80574,6,0,P|108:209|119:209,1,55.75,0|0,3:0|3:0,3:0:0:0:
231,79,80732,2,0,P|205:112|170:136,1,55.75,0|0,3:0|3:0,3:0:0:0:
45,131,80890,6,0,P|106:140|117:140,1,55.75,0|0,3:0|3:0,3:0:0:0:
135,33,81048,2,0,P|166:30|195:31,1,55.75,0|0,3:0|3:0,3:0:0:0:
191,134,81205,6,0,P|252:143|263:143,1,55.75,0|0,3:0|3:0,3:0:0:0:
281,36,81363,2,0,P|312:33|341:34,1,55.75,0|0,3:0|3:0,3:0:0:0:
338,134,81521,6,0,P|399:143|410:143,1,55.75,0|0,3:0|3:0,3:0:0:0:
428,36,81679,2,0,P|459:33|488:34,1,55.75,0|0,3:0|3:0,3:0:0:0:
428,142,81837,6,0,P|476:142|501:139,1,55.75,0|0,3:0|3:0,3:0:0:0:
295,97,81995,2,0,P|326:94|355:95,1,55.75,0|0,3:0|3:0,3:0:0:0:
295,203,82153,6,0,P|343:203|368:200,1,55.75,0|0,3:0|3:0,3:0:0:0:
169,156,82311,2,0,P|200:153|229:154,1,55.75,0|0,3:0|3:0,3:0:0:0:
169,262,82469,6,0,P|217:262|242:259,1,55.75,0|0,3:0|3:0,3:0:0:0:
222,111,82626,2,0,P|179:111|146:115,1,55.75,0|0,3:0|3:0,3:0:0:0:
253,303,82784,6,0,P|284:266|298:245,1,55.75,0|0,3:0|3:0,3:0:0:0:
172,165,82942,2,0,P|144:198|126:226,1,55.75,0|0,3:0|3:0,3:0:0:0:
340,265,83100,6,0,P|331:218|324:194,1,55.75,0|0,3:0|3:0,3:0:0:0:
182,239,83258,2,0,P|189:281|199:313,1,55.75,0|0,3:0|3:0,3:0:0:0:
256,192,83416,12,0,88469,1:0:0:0:
