osu file format v14

[General]
AudioFilename: audio.mp3
AudioLeadIn: 0
PreviewTime: -1
Countdown: 1
SampleSet: Normal
StackLeniency: 0.7
Mode: 0
LetterboxInBreaks: 0
EpilepsyWarning: 1
WidescreenStoryboard: 1

[Editor]
DistanceSpacing: 0.7
BeatDivisor: 2
GridSize: 4
TimelineZoom: 3.299999

[Metadata]
Title:The Suncatcher
TitleUnicode:Ловец Солнца
Artist:Mnogoznaal
ArtistUnicode:Mnogoznaal
Creator:Filacuesta
Version:ar 10 hell diff [old]
Source:The Night Suncatcher [Cintape]
Tags:DD Dead Dynasty
BeatmapID:1441750
BeatmapSetID:635468

[Difficulty]
HPDrainRate:5
CircleSize:3.5
OverallDifficulty:7.5
ApproachRate:10
SliderMultiplier:1.4
SliderTickRate:1

[Events]
//Background and Video events
0,0,"192.jpg",0,0
//Break Periods
//Storyboard Layer 0 (Background)
//Storyboard Layer 1 (Fail)
//Storyboard Layer 2 (Pass)
//Storyboard Layer 3 (Foreground)
//Storyboard Sound Samples

[TimingPoints]
18828,294.117647058824,4,1,0,100,1,0
19710,-100,4,1,0,100,0,0
42651,-50,4,1,0,100,0,0
44563,-100,4,1,0,100,0,0
47063,-200,4,1,0,100,0,0
49269,-100,4,1,0,100,0,0
50592,-200,4,1,0,100,0,0
52063,-100,4,1,0,100,0,0
111180,-50,4,1,0,100,0,0
111769,-100,4,1,0,100,0,0

[Colours]
Combo1 : 255,255,128
Combo2 : 0,170,105
Combo3 : 0,255,255
Combo4 : 255,128,64
Combo5 : 255,0,128
Combo6 : 255,0,255

[HitObjects]
152,176,18828,6,0,L|80:240,1,70
240,164,19122,1,0,0:0:0:0:
320,120,19269,1,0,0:0:0:0:
380,52,19416,2,0,L|456:56,1,70
240,52,19710,2,0,L|164:52,1,70
464,148,20004,5,0,0:0:0:0:
464,148,20078,1,0,0:0:0:0:
464,148,20151,1,0,0:0:0:0:
464,148,20225,1,0,0:0:0:0:
464,148,20298,1,0,0:0:0:0:
388,336,20445,5,0,0:0:0:0:
304,192,20592,1,0,0:0:0:0:
304,192,20666,1,0,0:0:0:0:
304,192,20739,1,0,0:0:0:0:
304,192,20813,1,0,0:0:0:0:
304,192,20886,2,0,L|292:120,1,70
400,328,21180,6,0,L|496:328,1,70
176,320,21475,1,0,0:0:0:0:
412,184,21622,1,0,0:0:0:0:
268,156,21769,1,0,0:0:0:0:
400,328,21916,1,0,0:0:0:0:
180,220,22063,1,0,0:0:0:0:
284,384,22210,1,0,0:0:0:0:
176,320,22357,6,0,L|84:336,1,70
180,220,22651,2,0,L|102:184,1,70
252,144,22945,5,0,0:0:0:0:
239,104,23018,1,0,0:0:0:0:
253,66,23092,1,0,0:0:0:0:
288,44,23165,1,0,0:0:0:0:
329,50,23239,1,0,0:0:0:0:
358,79,23312,1,0,0:0:0:0:
362,120,23386,1,0,0:0:0:0:
412,208,23533,6,0,L|460:120,1,70
408,312,23828,2,0,L|448:232,1,70
340,348,24122,1,0,0:0:0:0:
192,126,24269,1,0,0:0:0:0:
160,188,24416,1,0,0:0:0:0:
192,126,24563,1,0,0:0:0:0:
244,228,24710,6,0,L|324:240,1,70
120,64,25004,2,0,L|40:48,1,70
256,232,25298,2,0,L|336:192,1,70
88,312,25592,2,0,L|52:332,3,35
424,280,25886,5,0,0:0:0:0:
456,266,25959,1,0,0:0:0:0:
481,242,26033,1,0,0:0:0:0:
495,210,26106,1,0,0:0:0:0:
496,175,26180,1,0,0:0:0:0:
485,142,26253,1,0,0:0:0:0:
463,116,26327,1,0,0:0:0:0:
432,100,26400,1,0,0:0:0:0:
397,96,26475,6,0,L|332:136,1,70
344,320,26769,2,0,L|424:312,1,70
312,190,27063,5,0,0:0:0:0:
294,159,27136,1,0,0:0:0:0:
267,138,27210,1,0,0:0:0:0:
228,124,27283,1,0,0:0:0:0:
188,124,27357,1,0,0:0:0:0:
152,136,27430,1,0,0:0:0:0:
120,156,27504,1,0,0:0:0:0:
96,192,27577,1,0,0:0:0:0:
104,236,27651,6,0,L|192:269,1,70
136,44,27945,2,0,L|52:56,1,70
360,120,28239,2,0,P|304:157|386:148,1,210
256,192,28828,5,0,0:0:0:0:
144,152,28975,1,0,0:0:0:0:
292,304,29122,1,0,0:0:0:0:
56,164,29269,1,0,0:0:0:0:
272,384,29416,5,0,0:0:0:0:
144,152,29563,1,0,0:0:0:0:
292,304,29710,1,0,0:0:0:0:
256,192,29857,1,0,0:0:0:0:
440,176,30004,6,0,L|440:252,1,70
212,56,30298,2,0,L|316:60,1,70
80,248,30592,2,0,L|88:152,1,70
296,340,30886,2,0,L|208:336,1,70
424,72,31180,5,0,0:0:0:0:
144,276,31328,1,0,0:0:0:0:
64,272,31475,1,0,0:0:0:0:
464,216,31622,1,0,0:0:0:0:
460,288,31769,1,0,0:0:0:0:
80,156,31916,1,0,0:0:0:0:
80,76,32063,1,0,0:0:0:0:
348,332,32210,1,0,0:0:0:0:
80,156,32357,6,0,L|76:248,1,70
456,244,32651,2,0,L|452:172,1,70
208,44,32945,2,0,L|292:48,1,70
300,324,33239,2,0,L|224:324,1,70
404,196,33533,5,0,0:0:0:0:
472,140,33680,1,0,0:0:0:0:
116,200,33828,1,0,0:0:0:0:
56,132,33975,1,0,0:0:0:0:
404,196,34122,1,0,0:0:0:0:
472,140,34269,1,0,0:0:0:0:
116,200,34416,2,0,L|60:136,1,70
280,336,34710,6,0,L|176:336,1,70
204,44,35004,2,0,L|284:48,1,70
412,312,35298,5,0,0:0:0:0:
405,270,35371,1,0,0:0:0:0:
385,234,35445,1,0,0:0:0:0:
349,213,35518,1,0,0:0:0:0:
309,220,35592,1,0,0:0:0:0:
274,243,35665,1,0,0:0:0:0:
234,255,35739,1,0,0:0:0:0:
197,238,35812,1,0,0:0:0:0:
196,204,35886,6,0,L|220:176,3,35
384,60,36180,2,0,L|412:92,3,35
120,64,36475,2,0,L|144:96,4,35
112,312,36769,2,0,L|124:268,3,35
220,32,37063,5,0,0:0:0:0:
292,152,37210,1,0,0:0:0:0:
220,228,37357,1,0,0:0:0:0:
292,352,37504,1,0,0:0:0:0:
448,228,37651,2,0,L|384:280,1,70
292,352,37945,5,0,0:0:0:0:
340,208,38092,1,0,0:0:0:0:
396,161,38239,1,0,0:0:0:0:
144,348,38386,1,0,0:0:0:0:
396,161,38533,1,0,0:0:0:0:
340,208,38680,1,0,0:0:0:0:
256,48,38828,6,0,L|252:132,1,70
128,112,39122,2,0,L|192:164,1,70
136,288,39416,6,0,L|204:240,1,70
276,300,39710,2,0,L|204:352,1,70
384,256,40004,5,0,0:0:0:0:
396,340,40151,1,0,0:0:0:0:
460,160,40298,1,0,0:0:0:0:
464,240,40445,1,0,0:0:0:0:
372,172,40592,2,0,L|364:84,1,70
448,12,40886,2,0,L|456:92,1,70
212,72,41180,6,0,L|312:36,1,70
260,284,41475,1,0,0:0:0:0:
84,280,41622,1,0,0:0:0:0:
80,32,41769,2,0,L|7:92,1,70
288,88,42063,2,0,L|329:17,1,70
80,32,42357,6,0,L|24:104,1,70
112,100,42651,2,0,L|172:184,1,70
144,68,42798,2,0,L|200:148,1,70
152,88,42945,2,0,L|296:56,1,140
468,176,43239,6,0,L|400:116,1,70
444,208,43386,2,0,L|376:148,1,70
472,200,43533,2,0,L|344:256,1,140
96,296,43828,6,0,L|156:240,1,70
120,320,43975,2,0,L|180:256,1,70
96,336,44122,2,0,L|284:308,1,140
380,216,44416,2,0,L|188:240,1,140
88,104,44710,6,0,L|100:200,1,70
196,64,45004,1,0,0:0:0:0:
380,80,45151,1,0,0:0:0:0:
160,252,45298,1,0,0:0:0:0:
492,208,45445,1,0,0:0:0:0:
352,312,45592,2,0,L|412:388,1,70
104,276,45886,6,0,L|196:280,1,70
184,356,46180,2,0,L|100:356,1,70
188,160,46475,1,0,0:0:0:0:
88,156,46622,1,0,0:0:0:0:
280,320,46769,2,0,L|360:320,1,70
472,208,47063,2,0,L|428:196,1,35
40,40,47357,5,0,0:0:0:0:
48,80,47430,1,0,0:0:0:0:
60,120,47504,1,0,0:0:0:0:
68,152,47578,1,0,0:0:0:0:
116,44,47651,2,0,L|76:40,1,35
352,104,47945,5,0,0:0:0:0:
312,124,48019,1,0,0:0:0:0:
272,144,48092,1,0,0:0:0:0:
224,168,48166,1,0,0:0:0:0:
388,184,48239,2,0,L|380:148,1,35
128,256,48533,5,0,0:0:0:0:
149,279,48607,1,0,0:0:0:0:
174,300,48680,1,0,0:0:0:0:
196,323,48754,1,0,0:0:0:0:
224,348,48828,2,0,L|252:319,1,35
292,40,49122,2,0,L|292:88,1,35
508,200,49416,5,0,0:0:0:0:
380,100,49563,1,0,0:0:0:0:
376,324,49710,2,0,L|440:256,1,70
292,40,50004,2,0,L|236:92,1,70
224,360,50298,5,0,0:0:0:0:
148,32,50445,1,0,0:0:0:0:
48,228,50592,2,0,L|36:176,1,35
284,188,50886,1,0,0:0:0:0:
176,184,51033,1,0,0:0:0:0:
436,112,51180,2,0,L|440:248,1,105
172,176,51769,5,0,0:0:0:0:
36,176,51916,1,0,0:0:0:0:
100,32,52063,2,0,L|104:128,1,70
172,176,52357,2,0,L|172:96,1,70
264,340,52651,1,0,0:0:0:0:
136,280,52798,1,0,0:0:0:0:
352,160,52945,5,0,0:0:0:0:
264,340,53092,1,0,0:0:0:0:
184,180,53239,2,0,L|256:184,1,70
240,56,53533,2,0,L|120:52,2,70
48,172,53975,5,0,0:0:0:0:
72,328,54122,1,0,0:0:0:0:
132,132,54269,1,0,0:0:0:0:
72,328,54416,1,0,0:0:0:0:
216,96,54563,1,0,0:0:0:0:
68,320,54710,2,0,L|104:256,1,70
316,336,55004,6,0,L|404:304,1,70
48,44,55298,2,0,L|80:112,1,70
128,252,55592,5,0,0:0:0:0:
96,264,55666,1,0,0:0:0:0:
56,276,55739,1,0,0:0:0:0:
248,280,55886,6,0,L|340:320,1,70
200,168,56180,1,0,0:0:0:0:
424,264,56328,1,0,0:0:0:0:
376,52,56475,2,0,L|320:160,2,70
284,216,56916,1,0,0:0:0:0:
160,264,57063,6,0,L|64:136,1,140
144,88,57504,1,0,0:0:0:0:
244,92,57651,2,0,L|204:156,1,70
336,152,57945,2,0,L|264:188,1,70
364,252,58239,2,0,L|296:224,1,70
296,316,58533,2,0,L|248:252,1,70
160,204,58828,6,0,L|160:360,1,140
32,264,59269,1,0,0:0:0:0:
76,60,59416,2,0,L|260:64,1,140
28,260,59857,1,0,0:0:0:0:
304,208,60004,2,0,L|300:376,1,140
28,260,60445,1,0,0:0:0:0:
392,348,60592,2,0,L|392:264,1,70
28,260,60886,5,0,0:0:0:0:
20,206,60959,1,0,0:0:0:0:
36,153,61033,1,0,0:0:0:0:
72,113,61106,1,0,0:0:0:0:
123,92,61180,2,0,L|224:56,1,70
304,188,61475,6,0,L|228:224,1,70
452,304,61769,1,0,0:0:0:0:
316,36,61916,1,0,0:0:0:0:
424,88,62063,2,0,L|504:52,1,70
196,340,62357,5,0,0:0:0:0:
428,264,62504,1,0,0:0:0:0:
196,340,62651,2,0,L|100:320,1,70
288,208,62945,5,0,0:0:0:0:
220,36,63092,1,0,0:0:0:0:
60,128,63239,2,0,L|64:220,1,70
232,340,63533,5,0,0:0:0:0:
404,288,63680,1,0,0:0:0:0:
80,272,63828,1,0,0:0:0:0:
188,192,63975,1,0,0:0:0:0:
120,36,64122,5,0,0:0:0:0:
312,272,64269,1,0,0:0:0:0:
300,104,64416,2,0,L|368:56,1,70
96,268,64710,2,0,L|32:328,1,70
448,180,65004,2,0,L|360:144,1,70
157,42,65298,5,0,0:0:0:0:
123,55,65372,1,0,0:0:0:0:
84,89,65445,1,0,0:0:0:0:
63,132,65519,1,0,0:0:0:0:
63,183,65592,1,0,0:0:0:0:
84,234,65666,1,0,0:0:0:0:
127,268,65739,1,0,0:0:0:0:
161,277,65813,1,0,0:0:0:0:
200,286,65886,6,0,L|303:290,1,70
164,52,66180,1,0,0:0:0:0:
456,60,66328,2,0,L|456:184,1,70
168,160,66622,1,0,0:0:0:0:
456,168,66769,1,0,0:0:0:0:
276,68,66916,1,0,0:0:0:0:
408,296,67063,6,0,P|360:324|320:328,1,70
288,224,67357,1,0,0:0:0:0:
388,92,67504,1,0,0:0:0:0:
128,336,67651,2,0,L|224:352,1,70
40,44,67945,5,0,0:0:0:0:
57,85,68018,1,0,0:0:0:0:
75,127,68092,1,0,0:0:0:0:
93,169,68165,1,0,0:0:0:0:
111,211,68239,6,0,L|180:164,1,70
219,131,68533,2,0,L|176:64,1,70
236,48,68828,2,0,L|336:52,1,70
408,64,69122,5,0,0:0:0:0:
316,296,69269,1,0,0:0:0:0:
144,332,69416,1,0,0:0:0:0:
420,184,69563,1,0,0:0:0:0:
268,136,69710,1,0,0:0:0:0:
28,200,69857,1,0,0:0:0:0:
70,53,70004,6,0,L|140:56,1,70
292,312,70298,1,0,0:0:0:0:
368,312,70445,1,0,0:0:0:0:
120,288,70592,5,0,0:0:0:0:
56,216,70739,1,0,0:0:0:0:
68,112,70886,1,0,0:0:0:0:
148,36,71033,1,0,0:0:0:0:
244,44,71180,2,0,L|320:48,1,70
296,304,71475,2,0,L|196:300,1,70
408,276,71769,5,0,0:0:0:0:
456,168,71916,1,0,0:0:0:0:
416,64,72063,1,0,0:0:0:0:
304,36,72210,1,0,0:0:0:0:
128,48,72357,2,0,L|216:40,1,70
80,268,72651,5,0,0:0:0:0:
80,268,72725,1,0,0:0:0:0:
80,268,72798,1,0,0:0:0:0:
80,268,72872,1,0,0:0:0:0:
80,268,72945,2,0,L|112:200,1,70
328,36,73239,5,0,0:0:0:0:
328,36,73313,1,0,0:0:0:0:
328,36,73386,1,0,0:0:0:0:
328,36,73460,1,0,0:0:0:0:
328,36,73533,2,0,L|368:100,1,70
372,336,73828,5,0,0:0:0:0:
372,336,73901,1,0,0:0:0:0:
372,336,73975,1,0,0:0:0:0:
372,336,74048,1,0,0:0:0:0:
372,336,74122,2,0,L|284:272,1,70
52,148,74416,5,0,0:0:0:0:
260,148,74563,1,0,0:0:0:0:
148,24,74710,1,0,0:0:0:0:
148,348,74857,1,0,0:0:0:0:
148,24,75004,2,0,L|56:40,1,70
376,64,75298,6,0,L|447:78,1,70
72,140,75592,2,0,L|46:68,1,70
214,372,75886,2,0,L|140:375,1,70
489,238,76180,2,0,L|434:184,1,70
151,38,76475,2,0,L|225:33,1,70
428,28,76769,2,0,L|359:56,1,70
173,249,77063,5,0,0:0:0:0:
417,134,77210,1,0,0:0:0:0:
302,281,77357,1,0,0:0:0:0:
47,209,77504,1,0,0:0:0:0:
230,76,77651,6,0,L|335:69,1,70
120,344,77945,2,0,L|28:312,1,70
412,272,78239,2,0,L|340:318,1,70
94,296,78533,2,0,L|115:220,1,70
392,33,78828,2,0,L|317:73,1,70
133,127,79122,2,0,L|58:66,1,70
374,292,79416,5,0,0:0:0:0:
86,206,79563,1,0,0:0:0:0:
435,138,79710,1,0,0:0:0:0:
191,48,79857,1,0,0:0:0:0:
220,307,80004,6,0,L|122:307,1,70
407,51,80298,2,0,L|414:123,1,70
112,51,80592,2,0,L|119:127,1,70
407,51,80886,2,0,L|414:127,1,70
420,336,81180,2,0,L|337:325,1,70
48,152,81475,2,0,L|112:90,1,70
140,284,81769,5,0,0:0:0:0:
58,278,81916,1,0,0:0:0:0:
320,56,82063,1,0,0:0:0:0:
399,55,82210,1,0,0:0:0:0:
188,48,82357,5,0,0:0:0:0:
432,256,82504,1,0,0:0:0:0:
72,136,82651,1,0,0:0:0:0:
320,335,82798,1,0,0:0:0:0:
148,296,82945,5,0,0:0:0:0:
54,199,83092,1,0,0:0:0:0:
320,335,83239,1,0,0:0:0:0:
256,55,83386,1,0,0:0:0:0:
412,188,83533,5,0,0:0:0:0:
72,312,83680,1,0,0:0:0:0:
340,48,83828,1,0,0:0:0:0:
400,344,83975,1,0,0:0:0:0:
72,204,84122,5,0,0:0:0:0:
260,36,84269,1,0,0:0:0:0:
312,348,84416,1,0,0:0:0:0:
48,128,84563,1,0,0:0:0:0:
304,228,84710,6,0,L|264:164,1,70
100,48,85004,2,0,L|20:72,1,70
132,332,85298,2,0,L|120:244,1,70
308,296,85592,2,0,L|372:240,1,70
104,40,85886,2,0,L|44:96,1,70
480,76,86180,2,0,L|424:12,1,70
56,264,86475,5,0,0:0:0:0:
292,36,86622,1,0,0:0:0:0:
424,208,86769,1,0,0:0:0:0:
108,84,86916,1,0,0:0:0:0:
268,340,87063,6,0,L|264:260,1,70
360,340,87357,2,0,L|352:260,1,70
136,236,87651,2,0,L|40:240,1,70
408,168,87945,2,0,L|440:96,1,70
88,40,88239,2,0,L|140:96,1,70
440,332,88533,2,0,P|480:336|516:340,1,70
164,280,88828,5,0,0:0:0:0:
360,320,88975,1,0,0:0:0:0:
468,248,89122,1,0,0:0:0:0:
232,344,89269,1,0,0:0:0:0:
200,180,89416,6,0,L|168:100,1,70
260,124,89710,2,0,L|280:52,1,70
352,84,90004,2,0,L|408:36,1,70
456,100,90298,2,0,L|528:96,1,70
204,288,90592,5,0,0:0:0:0:
48,312,90739,1,0,0:0:0:0:
104,164,90886,2,0,L|16:192,1,70
304,160,91180,2,0,L|220:156,1,70
488,328,91475,2,0,L|480:236,1,70
136,240,91769,5,0,0:0:0:0:
260,116,91916,1,0,0:0:0:0:
344,268,92063,1,0,0:0:0:0:
96,300,92210,5,0,0:0:0:0:
200,16,92357,1,0,0:0:0:0:
384,292,92504,1,0,0:0:0:0:
84,348,92651,5,0,0:0:0:0:
416,152,92798,1,0,0:0:0:0:
156,72,92945,1,0,0:0:0:0:
304,332,93092,1,0,0:0:0:0:
144,288,93239,5,0,0:0:0:0:
368,208,93386,1,0,0:0:0:0:
440,304,93533,1,0,0:0:0:0:
112,180,93680,1,0,0:0:0:0:
60,92,93828,1,0,0:0:0:0:
368,48,93975,1,0,0:0:0:0:
260,56,94122,6,0,L|180:56,1,70
360,156,94416,1,0,0:0:0:0:
468,156,94563,1,0,0:0:0:0:
352,280,94710,6,0,L|300:328,1,70
272,248,95004,2,0,L|196:252,1,70
212,168,95298,2,0,L|120:144,1,70
52,160,95592,1,0,0:0:0:0:
60,240,95739,1,0,0:0:0:0:
184,56,95886,6,0,L|96:64,1,70
192,324,96180,2,0,L|112:328,1,70
336,212,96475,2,0,P|264:192|340:208,1,210
96,288,97063,6,0,L|32:328,1,70
48,196,97357,1,0,0:0:0:0:
124,208,97504,1,0,0:0:0:0:
136,132,97651,2,0,L|72:76,1,70
184,88,97945,1,0,0:0:0:0:
156,24,98092,1,0,0:0:0:0:
412,92,98239,6,0,L|488:52,1,70
428,172,98533,2,0,L|504:188,1,70
424,256,98828,2,0,L|488:304,1,70
248,256,99122,1,0,0:0:0:0:
316,304,99269,1,0,0:0:0:0:
108,236,99416,6,0,L|44:280,1,70
392,224,99710,2,0,L|440:280,1,70
120,128,100004,2,0,L|40:160,1,70
416,147,100298,1,0,0:0:0:0:
344,100,100445,1,0,0:0:0:0:
152,32,100592,6,0,L|80:40,1,70
376,28,100886,1,0,0:0:0:0:
260,168,101033,1,0,0:0:0:0:
464,336,101180,5,0,0:0:0:0:
376,280,101328,1,0,0:0:0:0:
92,328,101475,1,0,0:0:0:0:
176,272,101622,1,0,0:0:0:0:
96,28,101769,5,0,0:0:0:0:
176,84,101916,1,0,0:0:0:0:
456,28,102063,1,0,0:0:0:0:
376,92,102210,1,0,0:0:0:0:
104,28,102357,6,0,L|186:70,1,70
100,328,102651,2,0,L|192:296,1,70
440,332,102945,2,0,L|373:303,1,70
432,32,103239,2,0,L|337:90,1,70
112,248,103533,6,0,L|16:272,1,70
100,176,103828,2,0,L|184:160,1,70
188,232,104122,2,0,L|208:304,1,70
276,264,104416,2,0,L|352:240,1,70
312,172,104710,2,0,L|280:96,1,70
208,144,105004,2,0,L|184:64,1,70
420,304,105298,5,0,0:0:0:0:
72,256,105445,1,0,0:0:0:0:
208,144,105592,1,0,0:0:0:0:
112,328,105739,1,0,0:0:0:0:
312,372,105886,2,0,L|288:304,1,70
376,200,106180,5,0,0:0:0:0:
448,200,106328,1,0,0:0:0:0:
28,220,106475,6,0,L|112:244,1,70
88,80,106769,2,0,L|124:160,1,70
224,24,107063,2,0,L|160:88,1,70
348,32,107357,2,0,L|280:72,1,70
256,312,107651,5,0,0:0:0:0:
432,276,107798,1,0,0:0:0:0:
80,264,107945,1,0,0:0:0:0:
296,28,108092,1,0,0:0:0:0:
48,156,108239,2,0,L|60:88,1,70
456,152,108533,5,0,0:0:0:0:
368,152,108680,1,0,0:0:0:0:
124,88,108828,6,0,P|176:32|172:96,1,140
60,316,109269,1,0,0:0:0:0:
272,96,109416,2,0,P|348:84|328:64,1,140
200,316,109857,1,0,0:0:0:0:
408,72,110004,2,0,L|488:68,1,70
180,164,110298,5,0,0:0:0:0:
76,48,110445,1,0,0:0:0:0:
304,320,110592,6,0,L|364:380,1,70
372,240,110886,2,0,L|440:256,1,70
408,152,111180,6,0,L|488:164,1,70
356,76,111328,2,0,L|420:28,1,70
252,88,111475,2,0,L|236:16,1,70
168,144,111622,2,0,L|104:64,1,70
168,236,111769,5,0,0:0:0:0:
139,266,111842,1,0,0:0:0:0:
148,302,111916,1,0,0:0:0:0:
186,320,111989,1,0,0:0:0:0:
236,328,112063,1,0,0:0:0:0:
292,320,112136,1,0,0:0:0:0:
344,292,112210,1,0,0:0:0:0:
384,228,112283,1,0,0:0:0:0:
276,160,112357,6,0,L|188:168,1,70
384,48,112651,2,0,L|392:136,1,70
190,56,112945,6,0,L|260:56,1,70
68,56,113239,1,0,0:0:0:0:
384,48,113386,1,0,0:0:0:0:
144,150,113533,6,0,L|212:168,1,70
202,251,113827,2,0,L|272:248,1,70
300,328,114121,2,0,L|352:280,1,70
316,192,114415,1,0,0:0:0:0:
448,180,114562,1,0,0:0:0:0:
312,104,114709,6,0,L|364:56,1,70
312,296,115003,2,0,L|392:336,1,70
232,224,115298,2,0,P|160:204|236:220,1,210
308,348,115886,6,0,L|308:252,1,70
188,336,116180,1,0,0:0:0:0:
88,336,116327,1,0,0:0:0:0:
72,128,116474,2,0,L|8:72,1,70
252,200,116768,1,0,0:0:0:0:
156,24,116915,1,0,0:0:0:0:
292,32,117062,6,0,L|208:116,1,70
416,48,117356,2,0,L|352:91,1,70
512,108,117651,2,0,L|452:144,1,70
176,72,117945,1,0,0:0:0:0:
332,328,118092,1,0,0:0:0:0:
108,236,118239,6,0,L|44:280,1,70
412,240,118533,2,0,L|460:296,1,70
120,128,118827,2,0,L|40:160,1,70
88,344,119121,1,0,0:0:0:0:
440,160,119268,1,0,0:0:0:0:
196,28,119415,6,0,L|124:36,1,70
376,28,119709,1,0,0:0:0:0:
104,224,119856,1,0,0:0:0:0:
464,336,120003,5,0,0:0:0:0:
256,176,120151,1,0,0:0:0:0:
88,344,120298,1,0,0:0:0:0:
256,176,120445,1,0,0:0:0:0:
96,28,120592,5,0,0:0:0:0:
256,176,120739,1,0,0:0:0:0:
456,28,120886,1,0,0:0:0:0:
256,176,121033,1,0,0:0:0:0:
193,144,121180,6,0,L|275:186,1,70
184,200,121474,2,0,L|276:168,1,70
328,208,121768,2,0,L|261:179,1,70
328,140,122062,2,0,L|233:198,1,70
112,336,122356,6,0,L|16:360,1,70
168,248,122651,2,0,L|99:261,1,70
216,160,122945,2,0,L|136:176,1,70
268,72,123239,2,0,L|192:88,1,70
340,0,123533,2,0,L|252:4,1,70
112,336,123827,2,0,L|24:352,1,70
160,104,124121,5,0,0:0:0:0:
344,52,124268,1,0,0:0:0:0:
432,300,124415,1,0,0:0:0:0:
112,336,124562,1,0,0:0:0:0:
160,104,124709,2,0,L|136:36,1,70
480,168,125003,5,0,0:0:0:0:
252,348,125151,1,0,0:0:0:0:
28,220,125298,6,0,L|112:244,1,70
340,60,125592,2,0,L|376:140,1,70
96,112,125886,2,0,L|12:100,1,70
400,348,126180,2,0,L|460:312,1,70
384,232,126474,5,0,0:0:0:0:
432,112,126621,1,0,0:0:0:0:
196,64,126768,1,0,0:0:0:0:
128,256,126915,1,0,0:0:0:0:
48,156,127062,2,0,L|60:88,1,70
372,32,127356,5,0,0:0:0:0:
192,336,127503,1,0,0:0:0:0:
408,320,127651,6,0,L|516:316,1,70
56,40,127945,1,0,0:0:0:0:
60,316,128092,1,0,0:0:0:0:
272,96,128239,6,0,L|168:132,1,70
184,32,128533,1,0,0:0:0:0:
448,216,128680,1,0,0:0:0:0:
408,72,128828,6,0,L|488:68,1,70
60,312,129121,5,0,0:0:0:0:
228,40,129268,1,0,0:0:0:0:
72,136,129415,6,0,L|132:196,1,70
224,296,129709,2,0,L|292:312,1,70
184,128,130003,6,0,L|264:140,1,70
380,128,130298,2,0,L|364:56,1,70
61,161,130592,5,0,0:0:0:0:
61,196,130665,1,0,0:0:0:0:
71,230,130739,1,0,0:0:0:0:
86,263,130812,1,0,0:0:0:0:
109,290,130886,1,0,0:0:0:0:
135,313,130959,1,0,0:0:0:0:
165,331,131033,1,0,0:0:0:0:
199,342,131106,1,0,0:0:0:0:
240,340,131180,5,0,0:0:0:0:
285,338,131253,1,0,0:0:0:0:
326,326,131327,1,0,0:0:0:0:
365,306,131400,1,0,0:0:0:0:
399,280,131474,1,0,0:0:0:0:
429,248,131547,1,0,0:0:0:0:
450,190,131622,1,0,0:0:0:0:
68,160,131769,6,0,L|120:92,1,70
412,24,132063,2,0,L|356:88,1,70
160,352,132357,2,0,L|80:308,1,70
472,148,132651,2,0,L|416:228,1,70
224,92,132945,2,0,L|140:32,1,70
436,344,133239,2,0,L|324:308,1,70
64,316,133533,5,0,0:0:0:0:
184,32,133680,1,0,0:0:0:0:
300,336,133828,1,0,0:0:0:0:
408,36,133975,1,0,0:0:0:0:
436,336,134122,6,0,L|384:260,1,70
284,220,134416,2,0,L|200:224,1,70
100,204,134710,2,0,L|68:120,1,70
188,56,135004,2,0,L|280:52,1,70
388,56,135298,2,0,L|464:80,1,70
488,204,135592,2,0,L|460:296,1,70
64,56,135886,5,0,0:0:0:0:
404,144,136033,1,0,0:0:0:0:
36,220,136180,1,0,0:0:0:0:
392,304,136328,1,0,0:0:0:0:
56,56,136475,6,0,L|152:48,1,70
232,112,136769,2,0,L|156:124,1,70
260,196,137063,2,0,L|340:184,1,70
424,232,137357,2,0,L|344:248,1,70
440,304,137651,2,0,L|508:280,1,70
144,344,137945,2,0,L|72:288,1,70
352,60,138239,5,0,0:0:0:0:
216,304,138386,1,0,0:0:0:0:
164,60,138533,1,0,0:0:0:0:
360,300,138680,1,0,0:0:0:0:
64,144,138828,5,0,0:0:0:0:
96,236,138975,1,0,0:0:0:0:
472,128,139122,1,0,0:0:0:0:
440,204,139269,1,0,0:0:0:0:
100,60,139416,5,0,0:0:0:0:
200,316,139563,1,0,0:0:0:0:
444,52,139710,1,0,0:0:0:0:
320,320,139857,1,0,0:0:0:0:
108,280,140004,5,0,0:0:0:0:
280,48,140151,1,0,0:0:0:0:
392,320,140298,1,0,0:0:0:0:
60,128,140445,1,0,0:0:0:0:
464,108,140592,1,0,0:0:0:0:
212,340,140739,1,0,0:0:0:0:
168,40,140886,1,0,0:0:0:0:
424,212,141033,1,0,0:0:0:0:
132,272,141180,6,0,L|68:312,1,70
204,232,141475,2,0,L|264:180,1,70
208,116,141769,2,0,L|160:176,1,70
44,220,142063,2,0,L|120:216,1,70
76,132,142357,2,0,L|48:60,1,70
144,48,142651,2,0,L|220:40,1,70
320,144,142945,5,0,0:0:0:0:
60,44,143092,1,0,0:0:0:0:
440,56,143239,1,0,0:0:0:0:
192,192,143386,1,0,0:0:0:0:
384,220,143533,6,0,L|440:156,1,70
72,344,143828,2,0,L|64:260,1,70
280,32,144122,2,0,L|184:28,1,70
432,348,144416,2,0,L|376:288,1,70
48,144,144710,2,0,L|64:64,1,70
488,200,145004,2,0,L|384:176,1,70
40,296,145298,5,0,0:0:0:0:
316,280,145445,1,0,0:0:0:0:
152,164,145592,1,0,0:0:0:0:
400,160,145739,1,0,0:0:0:0:
256,60,145886,6,0,L|352:56,1,70
168,56,146180,2,0,L|64:56,1,70
384,256,146475,2,0,L|472:256,1,70
116,256,146769,2,0,L|32:252,1,70
432,356,147063,2,0,L|324:348,1,70
44,328,147357,2,0,L|160:332,1,70
280,28,147651,5,0,0:0:0:0:
296,336,147798,1,0,0:0:0:0:
76,164,147945,1,0,0:0:0:0:
468,188,148092,1,0,0:0:0:0:
168,52,148239,5,0,0:0:0:0:
168,284,148386,1,0,0:0:0:0:
388,280,148533,1,0,0:0:0:0:
372,68,148680,1,0,0:0:0:0:
80,40,148828,5,0,0:0:0:0:
100,332,148975,1,0,0:0:0:0:
432,336,149122,1,0,0:0:0:0:
424,40,149269,1,0,0:0:0:0:
136,152,149416,5,0,0:0:0:0:
280,48,149563,1,0,0:0:0:0:
168,352,149710,1,0,0:0:0:0:
384,188,149857,1,0,0:0:0:0:
144,28,150004,1,0,0:0:0:0:
356,304,150151,1,0,0:0:0:0:
48,284,150298,1,0,0:0:0:0:
400,40,150445,1,0,0:0:0:0:
256,320,150592,6,0,L|336:316,1,70
256,320,150886,2,0,L|176:324,1,70
120,64,151180,2,0,L|48:152,1,70
120,64,151475,2,0,L|168:0,1,70
464,212,151769,2,0,L|468:132,1,70
464,212,152063,2,0,L|464:304,1,70
92,196,152357,5,0,0:0:0:0:
92,196,152504,1,0,0:0:0:0:
352,44,152651,1,0,0:0:0:0:
352,44,152798,1,0,0:0:0:0:
348,320,152945,6,0,L|400:236,1,70
120,52,153239,2,0,L|20:60,1,70
92,332,153533,2,0,L|176:308,1,70
460,200,153828,2,0,L|452:92,1,70
176,176,154122,2,0,L|52:192,1,70
472,348,154416,2,0,L|444:272,1,70
80,328,154710,5,0,0:0:0:0:
100,48,154857,1,0,0:0:0:0:
264,40,155004,1,0,0:0:0:0:
444,40,155151,1,0,0:0:0:0:
480,320,155298,6,0,L|384:324,1,70
72,172,155592,2,0,L|192:196,1,70
448,120,155886,2,0,L|432:200,1,70
212,60,156180,2,0,L|120:40,1,70
360,348,156475,2,0,L|336:260,1,70
56,204,156769,2,0,L|132:304,1,70
460,180,157063,5,0,0:0:0:0:
96,36,157210,1,0,0:0:0:0:
96,36,157357,1,0,0:0:0:0:
176,328,157504,1,0,0:0:0:0:
80,180,157651,5,0,0:0:0:0:
144,112,157798,1,0,0:0:0:0:
216,172,157945,1,0,0:0:0:0:
148,244,158092,1,0,0:0:0:0:
444,96,158239,5,0,0:0:0:0:
376,40,158386,1,0,0:0:0:0:
320,108,158533,1,0,0:0:0:0:
396,180,158680,1,0,0:0:0:0:
364,344,158828,5,0,0:0:0:0:
280,264,158975,1,0,0:0:0:0:
216,336,159122,1,0,0:0:0:0:
448,292,159269,1,0,0:0:0:0:
88,40,159416,5,0,0:0:0:0:
72,256,159563,1,0,0:0:0:0:
224,64,159710,1,0,0:0:0:0:
416,64,159857,1,0,0:0:0:0:
172,308,160004,6,0,L|92:328,1,70
88,88,160298,2,0,L|68:16,1,70
396,44,160592,2,0,L|284:68,1,70
440,336,160886,2,0,L|360:264,1,70
160,160,161180,2,0,L|64:220,1,70
468,184,161475,2,0,L|464:104,1,70
328,352,161769,2,0,L|324:264,1,70
60,76,162063,2,0,L|152:32,1,70
484,80,162357,6,0,L|392:40,1,70
284,224,162651,2,0,L|288:148,1,70
136,148,162945,2,0,L|152:224,1,70
460,344,163239,2,0,L|380:336,1,70
452,48,163533,2,0,L|364:36,1,70
60,244,163828,2,0,L|128:312,1,70
216,252,164122,2,0,L|172:152,1,70
268,132,164416,2,0,L|360:184,1,70
64,52,164710,6,0,L|72:140,1,70
172,132,165004,2,0,L|160:40,1,70
272,36,165298,2,0,L|280:120,1,70
384,128,165592,2,0,L|376:36,1,70
464,32,165886,2,0,L|472:104,1,70
476,296,166180,2,0,L|472:196,1,70
368,200,166475,2,0,L|372:280,1,70
280,264,166769,2,0,L|280:184,1,70
168,260,167063,6,0,L|176:168,7,70
404,112,168239,2,0,L|360:36,1,70
436,328,168533,2,0,L|352:336,1,70
