osu file format v14

[General]
AudioFilename: audio.mp3
AudioLeadIn: 0
PreviewTime: -1
Countdown: 1
SampleSet: Normal
StackLeniency: 0.7
Mode: 0
LetterboxInBreaks: 0
EpilepsyWarning: 1
WidescreenStoryboard: 0

[Editor]
DistanceSpacing: 1.5
BeatDivisor: 4
GridSize: 4
TimelineZoom: 2.6

[Metadata]
Title:The Suncatcher
TitleUnicode:Ловец Солнца
Artist:Mnogoznaal
ArtistUnicode:Mnogoznaal
Creator:Filacuesta
Version:Such a long way
Source:The Night Suncatcher [Cintape]
Tags:DD Dead Dynasty
BeatmapID:1348491
BeatmapSetID:635468

[Difficulty]
HPDrainRate:6
CircleSize:3.5
OverallDifficulty:7
ApproachRate:9.6
SliderMultiplier:1.4
SliderTickRate:1

[Events]
//Background and Video events
0,0,"192.jpg",0,0
//Break Periods
//Storyboard Layer 0 (Background)
//Storyboard Layer 1 (Fail)
//Storyboard Layer 2 (Pass)
//Storyboard Layer 3 (Foreground)
//Storyboard Sound Samples

[TimingPoints]
18828,294.117647058824,4,1,0,100,1,0
19710,-100,4,1,0,100,0,0
21180,-133.333333333333,4,1,0,100,0,0
22651,-200,4,1,0,100,0,0
23533,-166.666666666667,4,1,0,100,0,0
25886,-200,4,1,0,100,0,0
28828,-100,4,1,0,100,0,0
29416,-200,4,1,0,100,0,0
31180,-200,4,1,0,100,0,0
33533,-100,4,1,0,100,0,0
35298,-66.6666666666667,4,1,0,100,0,0
39122,-100,4,1,0,100,0,0
40004,-200,4,1,0,100,0,0
40298,-100,4,1,0,100,0,0
40445,-66.6666666666667,4,1,0,100,0,0
40592,-66.6666666666667,4,1,0,100,0,0
42337,-133.333333333333,4,1,0,100,0,0
42795,-100,4,1,0,100,0,0
42945,-133.333333333333,4,1,0,100,0,0
46769,-100,4,1,0,100,0,0
49416,-80,4,1,0,100,0,0
50298,-100,4,1,0,100,0,0
51769,-80,4,1,0,100,0,0
52798,-66.6666666666667,4,1,0,100,0,0
54269,-100,4,1,0,100,0,0
55592,-50,4,1,0,100,0,0
56180,-100,4,1,0,100,0,0
65592,-80,4,1,0,100,0,0
69122,-200,4,1,0,100,0,0
69710,-100,4,1,0,100,0,0
72210,-100,4,1,0,100,0,0
77357,-66.6666666666667,4,1,0,100,0,0
80004,-100,4,1,0,100,0,0

[Colours]
Combo1 : 255,255,128
Combo2 : 0,170,105
Combo3 : 0,255,255
Combo4 : 255,128,64
Combo5 : 255,0,128
Combo6 : 255,0,255

[HitObjects]
256,192,17965,12,0,18700,0:0:0:0:
456,296,18828,5,0,0:0:0:0:
288,172,19122,1,0,0:0:0:0:
464,60,19416,1,0,0:0:0:0:
256,48,19710,2,0,B|262:49|262:49|154:42|154:42|152:79,1,140,0|0,3:0|3:0,3:0:0:0:
92,156,20151,1,0,0:0:0:0:
136,184,20298,1,0,0:0:0:0:
292,324,20592,5,0,0:0:0:0:
392,140,20886,1,0,0:0:0:0:
456,148,21033,1,0,0:0:0:0:
160,132,21180,2,0,B|116:116|116:116|120:168|120:168|124:172|124:172|176:180|176:180|200:128,1,210.000008010865
356,128,22063,1,0,0:0:0:0:
400,176,22210,1,0,0:0:0:0:
420,116,22357,1,0,0:0:0:0:
216,32,22651,5,0,0:0:0:0:
300,120,22945,2,0,L|368:120,1,35
220,36,23239,1,0,0:0:0:0:
220,36,23386,1,0,0:0:0:0:
88,64,23533,2,0,B|123:148|123:148,1,83.9999974365235
248,100,23975,1,0,0:0:0:0:
272,40,24122,1,0,0:0:0:0:
472,36,24416,5,0,0:0:0:0:
496,252,24710,2,0,L|468:180,1,41.9999987182618
416,56,25004,1,0,0:0:0:0:
316,196,25298,1,0,0:0:0:0:
236,48,25592,1,0,0:0:0:0:
445,58,25739,1,0,0:0:0:0:
445,58,25886,2,0,B|397:58|397:58|397:106|397:106|445:106|445:106|445:94,2,140
248,48,27357,1,0,0:0:0:0:
84,44,27651,5,0,0:0:0:0:
184,216,27945,1,0,0:0:0:0:
240,180,28092,1,0,0:0:0:0:
180,156,28239,1,0,0:0:0:0:
380,116,28533,5,0,0:0:0:0:
236,44,28828,2,0,P|168:24|168:24,1,70
368,176,29122,1,0,0:0:0:0:
504,252,29269,1,0,0:0:0:0:
476,73,29416,2,0,P|464:33|488:33,1,70
344,112,30004,5,0,0:0:0:0:
284,288,30298,5,0,0:0:0:0:
240,244,30445,1,0,0:0:0:0:
224,304,30592,1,0,0:0:0:0:
36,200,30886,5,0,0:0:0:0:
160,56,31180,2,0,P|193:35|194:81,1,70
408,52,31769,1,0,0:0:0:0:
144,84,32063,1,0,0:0:0:0:
340,216,32357,1,0,0:0:0:0:
64,280,32651,1,0,0:0:0:0:
68,284,32798,1,0,0:0:0:0:
244,332,32945,1,0,0:0:0:0:
200,172,33239,5,0,0:0:0:0:
44,164,33533,6,0,B|47:165|-38:145|71:68|173:73,1,140
236,40,34122,2,0,B|205:71|205:71|270:142,2,140
212,240,35004,1,0,0:0:0:0:
176,188,35151,1,0,0:0:0:0:
232,188,35298,2,0,P|188:176|208:212,3,105.000004005432
84,248,35886,2,0,B|107:293|107:293|27:349|27:349|-1:293,1,210.000008010865
220,252,36475,1,0,0:0:0:0:
48,184,36769,1,0,0:0:0:0:
88,72,37063,5,0,0:0:0:0:
104,124,37210,1,0,0:0:0:0:
136,168,37357,1,0,0:0:0:0:
176,200,37504,1,0,0:0:0:0:
220,231,37651,2,0,P|132:256|135:165,1,210.000008010865
192,68,38092,1,0,0:0:0:0:
276,144,38239,1,0,0:0:0:0:
180,140,38386,1,0,0:0:0:0:
264,56,38533,1,0,0:0:0:0:
24,176,38828,5,0,0:0:0:0:
68,28,38975,1,0,0:0:0:0:
168,140,39122,2,0,P|175:172|208:180,1,70
172,247,39416,1,0,0:0:0:0:
412,328,39710,5,0,0:0:0:0:
348,260,39857,1,0,0:0:0:0:
466,215,40004,2,0,L|410:158,1,70
392,72,40445,2,0,P|419:33|460:59,2,105.000004005432
264,96,40886,1,0,0:0:0:0:
144,172,41180,5,0,0:0:0:0:
33,223,41328,1,0,0:0:0:0:
184,236,41475,1,0,0:0:0:0:
104,148,41622,1,0,0:0:0:0:
88,280,41769,1,0,0:0:0:0:
120,56,42063,5,0,0:0:0:0:
264,96,42210,1,0,0:0:0:0:
120,56,42357,2,0,P|84:19|33:25,1,105.000004005432
168,196,42798,1,0,0:0:0:0:
236,272,42945,2,0,P|262:228|244:181,1,105.000004005432
92,56,43386,5,0,0:0:0:0:
279,45,43533,1,0,0:0:0:0:
411,172,43680,1,0,0:0:0:0:
250,179,43828,1,0,0:0:0:0:
96,184,43975,1,0,0:0:0:0:
164,272,44122,1,0,0:0:0:0:
284,192,44416,6,0,P|302:174|328:173,1,52.5000020027161
388,88,44710,1,0,0:0:0:0:
256,56,45004,1,0,0:0:0:0:
148,52,45151,1,0,0:0:0:0:
128,144,45298,1,0,0:0:0:0:
262,159,45445,1,0,0:0:0:0:
274,41,45592,1,0,0:0:0:0:
148,56,45886,5,0,0:0:0:0:
132,148,46033,1,0,0:0:0:0:
72,240,46180,1,0,0:0:0:0:
0,84,46328,1,0,0:0:0:0:
72,240,46475,1,0,0:0:0:0:
128,52,46769,6,0,L|188:87,2,70
136,296,47357,1,0,0:0:0:0:
132,232,47504,1,0,0:0:0:0:
32,228,47651,1,0,0:0:0:0:
36,292,47798,1,0,0:0:0:0:
180,120,47945,2,0,P|149:103|115:105,2,70
180,100,48386,5,0,0:0:0:0:
344,116,48533,1,0,0:0:0:0:
344,52,48680,1,0,0:0:0:0:
408,52,48828,1,0,0:0:0:0:
256,156,49122,1,0,0:0:0:0:
96,64,49416,6,0,P|28:128|16:128,1,87.5
240,132,49710,2,0,L|300:64,1,87.5
224,272,50004,2,0,P|136:236|136:232,1,87.5
364,260,50298,2,0,P|400:204|364:140,1,140
140,176,50739,1,0,0:0:0:0:
216,312,50886,6,0,B|192:267|192:267|154:293|136:236|136:236,1,70
140,68,51180,1,0,0:0:0:0:
96,20,51328,1,0,0:0:0:0:
76,80,51475,1,0,0:0:0:0:
412,32,51769,5,0,0:0:0:0:
300,60,51916,2,0,L|380:108,1,87.5
136,140,52210,1,0,0:0:0:0:
108,208,52357,2,0,L|64:288,1,87.5
372,80,52651,1,0,0:0:0:0:
308,144,52798,2,0,B|262:162|262:162|236:168|236:168|258:118|258:118|180:140,1,210
424,324,53239,1,0,0:0:0:0:
468,268,53386,1,0,0:0:0:0:
404,256,53533,2,0,B|386:307|386:307|296:280|296:280,1,105.000004005432
292,144,53828,21,0,0:0:0:0:
312,20,53975,2,0,L|384:76,1,87.5
120,204,54269,1,0,0:0:0:0:
180,151,54416,2,0,L|232:104,1,70
136,216,54710,2,0,L|3:261,1,140
408,124,55151,5,0,0:0:0:0:
432,260,55298,1,0,0:0:0:0:
368,260,55445,1,0,0:0:0:0:
464,72,55592,2,0,B|420:171|420:171|368:176|368:176|312:64,1,280
432,260,56180,1,0,0:0:0:0:
256,192,56328,12,0,57063,0:0:0:0:
92,80,57357,6,0,L|36:32,1,70
44,188,57651,1,0,0:0:0:0:
212,232,57945,1,0,0:0:0:0:
181,83,58239,2,0,L|251:83,1,70
336,168,58533,1,0,0:0:0:0:
408,36,58828,2,0,B|436:68|436:68|453:51|472:36|472:36|491:51|528:76|528:76|560:44,1,140
136,152,59416,1,0,0:0:0:0:
416,208,59710,5,0,0:0:0:0:
352,188,59857,1,0,0:0:0:0:
400,144,60004,1,0,0:0:0:0:
264,292,60298,5,0,0:0:0:0:
179,350,60445,1,0,0:0:0:0:
162,243,60592,1,0,0:0:0:0:
364,168,60886,5,0,0:0:0:0:
364,168,60960,1,0,0:0:0:0:
364,168,61033,1,0,0:0:0:0:
364,168,61107,1,0,0:0:0:0:
364,168,61180,1,0,0:0:0:0:
240,88,61328,5,0,0:0:0:0:
113,210,61475,1,0,0:0:0:0:
136,68,61769,5,0,0:0:0:0:
52,240,61916,1,0,0:0:0:0:
236,244,62063,1,0,0:0:0:0:
352,172,62210,5,0,0:0:0:0:
332,98,62357,2,0,B|280:12|280:12|227:41,1,140
396,164,62798,1,0,0:0:0:0:
416,308,62945,2,0,B|452:308|452:308|440:276|440:276|404:276|404:276|388:308|388:308|412:340|412:340|456:340|456:340,1,210
176,240,63533,5,0,0:0:0:0:
170,349,63680,1,0,0:0:0:0:
315,289,63828,1,0,0:0:0:0:
312,232,63975,1,0,0:0:0:0:
200,344,64122,1,0,0:0:0:0:
207,234,64269,1,0,0:0:0:0:
48,288,64416,1,0,0:0:0:0:
100,144,64563,5,0,0:0:0:0:
216,200,64710,2,0,L|292:200,2,70
304,132,65151,2,0,L|232:132,2,70
112,288,65592,1,0,0:0:0:0:
328,304,65886,1,0,0:0:0:0:
344,168,66180,5,0,0:0:0:0:
160,224,66328,1,0,0:0:0:0:
352,88,66475,2,0,B|352:52|352:52|404:52,2,87.5
158,107,66916,2,0,L|236:148,1,87.5
340,252,67210,1,0,0:0:0:0:
436,212,67357,1,0,0:0:0:0:
260,288,67504,1,0,0:0:0:0:
248,140,67651,2,0,B|296:108|296:108|348:140,1,87.5
76,256,67945,5,0,0:0:0:0:
76,256,68092,1,0,0:0:0:0:
72,249,68239,2,0,B|130:154|130:154|232:176,1,175
368,256,68680,1,0,0:0:0:0:
300,296,68828,1,0,0:0:0:0:
168,236,69122,6,0,B|152:228|152:228|160:256,1,35
200,80,69416,2,0,B|216:60|216:60|224:80,1,35
408,156,69710,2,0,B|368:124|368:124|444:112|444:112|388:80|388:80|440:56|440:56|408:28|408:28,1,280
452,144,70445,5,0,0:0:0:0:
436,208,70592,1,0,0:0:0:0:
388,256,70739,1,0,0:0:0:0:
328,292,70886,1,0,0:0:0:0:
264,304,71033,1,0,0:0:0:0:
288,172,71180,1,0,0:0:0:0:
224,44,71475,5,0,0:0:0:0:
392,88,71622,1,0,0:0:0:0:
456,128,71769,1,0,0:0:0:0:
396,164,71916,1,0,0:0:0:0:
456,208,72063,1,0,0:0:0:0:
473,282,72210,1,0,0:0:0:0:
213,266,72357,2,0,B|353:304|352:304,1,144.375005507469
88,280,72798,5,0,0:0:0:0:
88,280,72945,1,0,0:0:0:0:
88,184,73239,5,0,0:0:0:0:
92,180,73313,1,0,0:0:0:0:
88,176,73386,1,0,0:0:0:0:
88,184,73460,1,0,0:0:0:0:
88,176,73533,2,0,B|123:223|123:223|88:248,1,70
292,236,73828,5,0,0:0:0:0:
292,236,73901,1,0,0:0:0:0:
293,247,73975,1,0,0:0:0:0:
293,247,74048,1,0,0:0:0:0:
293,247,74122,2,0,B|236:263|236:263|232:224,1,70
352,136,74416,5,0,0:0:0:0:
360,140,74489,1,0,0:0:0:0:
360,140,74563,1,0,0:0:0:0:
362,145,74636,1,0,0:0:0:0:
362,145,74710,2,0,B|415:120|415:120|432:200,1,140
123,313,75298,5,0,0:0:0:0:
336,220,75592,1,0,0:0:0:0:
71,173,75886,1,0,0:0:0:0:
396,283,76180,1,0,0:0:0:0:
141,38,76475,1,0,0:0:0:0:
281,354,76769,1,0,0:0:0:0:
256,7,77063,1,0,0:0:0:0:
123,313,77357,2,0,B|84:274|84:274|36:323,1,105.000004005432
369,69,77651,5,0,0:0:0:0:
123,313,77945,1,0,0:0:0:0:
369,69,78239,1,0,0:0:0:0:
256,7,78533,1,0,0:0:0:0:
281,354,78827,1,0,0:0:0:0:
141,38,79121,1,0,0:0:0:0:
396,283,79416,1,0,0:0:0:0:
71,173,79710,2,0,B|58:235|58:235|128:231,1,105.000004005432
447,165,80004,5,0,0:0:0:0:
123,313,80298,1,0,0:0:0:0:
439,318,80592,2,0,B|374:250|374:250|466:274,1,140
80,125,81180,2,0,B|159:121|159:121|92:69,1,140
488,42,81769,2,0,B|396:59|396:59|465:-3,1,140
36,243,82210,5,0,0:0:0:0:
106,243,82357,1,0,0:0:0:0:
288,88,82651,1,0,0:0:0:0:
430,192,82945,1,0,0:0:0:0:
89,64,83533,2,0,P|32:134|58:178,1,140
392,188,84122,2,0,P|374:117|426:64,1,140
123,313,84710,5,0,0:0:0:0:
172,208,84857,1,0,0:0:0:0:
224,100,85004,1,0,0:0:0:0:
480,304,85298,1,0,0:0:0:0:
360,56,85592,1,0,0:0:0:0:
432,292,85887,1,0,0:0:0:0:
124,196,86181,1,0,0:0:0:0:
447,165,86475,1,0,0:0:0:0:
192,284,86769,1,0,0:0:0:0:
369,69,87063,5,0,0:0:0:0:
123,313,87357,1,0,0:0:0:0:
369,69,87651,1,0,0:0:0:0:
256,7,87945,1,0,0:0:0:0:
281,354,88239,1,0,0:0:0:0:
141,38,88533,1,0,0:0:0:0:
396,283,88828,1,0,0:0:0:0:
71,173,89122,1,0,0:0:0:0:
444,216,89416,5,0,0:0:0:0:
344,280,89563,1,0,0:0:0:0:
220,284,89710,1,0,0:0:0:0:
108,268,89857,1,0,0:0:0:0:
103,147,90004,1,0,0:0:0:0:
180,77,90151,1,0,0:0:0:0:
264,44,90298,1,0,0:0:0:0:
99,74,90593,2,0,B|159:121|159:121|80:125,1,140
434,265,91181,2,0,B|374:250|374:250|439:318,1,140
242,182,91769,5,0,0:0:0:0:
387,16,92063,1,0,0:0:0:0:
71,165,92357,1,0,0:0:0:0:
