osu file format v14

[General]
AudioFilename: audio.mp3
AudioLeadIn: 0
PreviewTime: 44453
Countdown: 0
SampleSet: Soft
StackLeniency: 0.7
Mode: 2
LetterboxInBreaks: 0
WidescreenStoryboard: 1

[Editor]
DistanceSpacing: 1
BeatDivisor: 3
GridSize: 8
TimelineZoom: 1.9

[Metadata]
Title:Countenance
TitleUnicode:Countenance
Artist:Mniam
ArtistUnicode:Mniam
Creator:bigh
Version:Salad
Source:
Tags:solo piano classical instrument instrumental bighzonda
BeatmapID:3669100
BeatmapSetID:1790590

[Difficulty]
HPDrainRate:4
CircleSize:3
OverallDifficulty:6.6
ApproachRate:6.6
SliderMultiplier:1.7
SliderTickRate:1

[Events]
//Background and Video events
0,0,"20210515_021358.jpg",0,0
//Break Periods
2,2825,4666
//Storyboard Layer 0 (Background)
//Storyboard Layer 1 (Fail)
//Storyboard Layer 2 (Pass)
//Storyboard Layer 3 (Foreground)
//Storyboard Layer 4 (Overlay)
//Storyboard Sound Samples

[TimingPoints]
500,500,4,2,1,60,1,0
8500,375,3,2,1,60,1,0
63250,500,4,2,1,60,1,0
64500,500,4,2,1,60,1,0
65500,500,4,2,1,55,1,0
66500,-100,4,2,1,45,0,0
67000,-100,4,2,1,40,0,0
67500,-100,4,2,1,35,0,0
68000,-100,4,2,1,30,0,0
68500,-100,4,2,1,25,0,0
69000,-100,4,2,1,20,0,0
69500,-100,4,2,1,15,0,0
70000,-100,4,2,1,10,0,0
70500,-100,4,2,1,5,0,0

[Colours]
Combo1 : 201,126,126
Combo2 : 117,117,117
Combo3 : 163,163,163

[HitObjects]
256,192,500,5,2,0:0:0:0:
256,192,2500,5,2,0:0:0:0:
256,192,2625,1,2,0:0:0:0:
256,192,6500,5,2,0:0:0:0:
256,192,8500,6,0,L|72:192,1,170,6|8,0:0|0:0,0:0:0:0:
86,192,9250,1,8,0:0:0:0:
353,80,9625,2,0,B|505:80|505:80|482:63,1,170,2|8,0:0|0:0,0:0:0:0:
490,69,10375,1,8,0:0:0:0:
320,72,10750,6,0,P|260:138|327:180,1,170,2|8,0:0|0:0,0:0:0:0:
475,72,11500,1,8,0:0:0:0:
208,152,11875,2,0,L|24:152,1,170,2|8,0:0|0:0,0:0:0:0:
38,152,12625,1,8,0:0:0:0:
304,216,13000,6,0,L|304:40,1,170,2|8,0:0|0:0,0:0:0:0:
304,46,13750,1,8,0:0:0:0:
40,216,14125,2,0,L|40:40,1,170,2|8,0:0|0:0,0:0:0:0:
40,46,14875,1,8,0:0:0:0:
216,216,15250,6,0,L|216:40,1,170,2|8,0:0|0:0,0:0:0:0:
216,46,16000,1,8,0:0:0:0:
480,208,16375,2,0,L|480:32,1,170,2|8,0:0|0:0,0:0:0:0:
480,38,17125,1,8,0:0:0:0:
216,47,17500,6,0,P|161:97|240:152,1,170,6|8,0:0|0:0,0:0:0:0:
383,162,18250,1,8,0:0:0:0:
120,152,18625,2,0,P|72:152|40:47,1,170,2|8,0:0|0:0,0:0:0:0:
208,40,19375,1,8,0:0:0:0:
376,152,19750,6,0,P|424:152|496:48,1,170,2|8,0:0|0:0,0:0:0:0:
328,40,20500,1,8,0:0:0:0:
65,190,20875,2,0,P|11:131|88:81,1,170,2|8,0:0|0:0,0:0:0:0:
233,62,21625,1,8,0:0:0:0:
496,168,22000,6,0,L|304:168,2,170,2|8|8,0:0|0:0|0:0,0:0:0:0:
232,64,23125,2,0,L|40:64,2,170,2|8|8,0:0|0:0|0:0,0:0:0:0:
62,64,24250,6,0,L|254:64,2,170,2|8|8,0:0|0:0|0:0,0:0:0:0:
326,168,25375,2,0,L|496:168,2,170,2|8|8,0:0|0:0|0:0,0:0:0:0:
62,170,26500,6,0,B|32:152|13:106|27:64|68:19|121:2|209:3|267:11,1,340,6|8,0:0|0:0,0:0:0:0:
88,176,27625,1,2,0:0:0:0:
256,168,28000,1,10,0:0:0:0:
424,176,28375,1,2,0:0:0:0:
160,48,28750,6,0,P|37:111|176:160,1,340,2|8,0:0|0:0,0:0:0:0:
328,136,29875,2,0,L|432:40,2,113.333333333333,2|2|2,0:0|0:0|0:0,0:0:0:0:
208,136,30625,1,8,0:0:0:0:
472,56,31000,6,0,L|504:248,1,170,2|8,0:0|0:0,0:0:0:0:
329,231,31750,1,8,0:0:0:0:
499,223,32125,1,2,0:0:0:0:
329,231,32500,2,0,L|128:232,1,170,10|2,0:0|0:0,0:0:0:0:
424,48,33250,6,0,L|480:232,2,170,2|8|8,0:0|0:0|0:0,0:0:0:0:
256,128,34375,1,2,0:0:0:0:
144,144,34625,1,2,0:0:0:0:
32,160,34875,1,2,0:0:0:0:
144,144,35125,1,10,0:0:0:0:
408,176,35500,6,0,P|432:119|208:8,1,340,6|8,0:0|0:0,0:0:0:0:
424,176,36625,1,2,0:0:0:0:
256,168,37000,1,10,0:0:0:0:
88,176,37375,1,2,0:0:0:0:
352,47,37750,6,0,P|468:111|316:174,1,340,2|8,0:0|0:0,0:0:0:0:
176,152,38875,2,0,L|72:56,2,113.333333333333,2|2|2,0:0|0:0|0:0,0:0:0:0:
296,152,39625,1,8,0:0:0:0:
40,56,40000,6,0,P|28:127|87:198,1,170,2|8,0:0|0:0,0:0:0:0:
256,208,40750,1,8,0:0:0:0:
425,208,41125,1,2,0:0:0:0:
256,208,41500,2,0,L|457:209,1,170,10|2,0:0|0:0,0:0:0:0:
160,104,42250,6,0,B|88:112|88:112|32:144|8:232,2,170,2|8|8,0:0|0:0|0:0,0:0:0:0:
328,112,43375,2,0,L|328:232,1,113.333333333333,2|2,0:0|0:0,0:0:0:0:
208,112,43875,1,2,0:0:0:0:
88,112,44125,1,10,0:0:0:0:
352,200,44500,6,0,P|430:157|376:96,1,170,6|8,0:0|0:0,0:0:0:0:
232,112,45250,1,8,0:0:0:0:
488,208,45625,2,0,B|488:88|488:88|416:72,1,170,2|8,0:0|0:0,0:0:0:0:
272,56,46375,1,8,0:0:0:0:
104,64,46750,6,0,P|48:80|53:182,1,170,2|8,0:0|0:0,0:0:0:0:
216,184,47500,1,8,0:0:0:0:
480,192,47875,2,0,L|288:192,2,170,2|8|8,0:0|0:0|0:0,0:0:0:0:
208,216,49000,6,0,L|208:40,1,170,2|8,0:0|0:0,0:0:0:0:
208,46,49750,1,8,0:0:0:0:
472,216,50125,2,0,L|472:40,1,170,2|8,0:0|0:0,0:0:0:0:
472,46,50875,1,8,0:0:0:0:
296,216,51250,6,0,L|296:40,1,170,2|8,0:0|0:0,0:0:0:0:
296,46,52000,1,8,0:0:0:0:
32,208,52375,2,0,L|32:32,1,170,2|8,0:0|0:0,0:0:0:0:
32,38,53125,1,8,0:0:0:0:
303,195,53500,6,0,P|303:145|184:88,1,170,6|8,0:0|0:0,0:0:0:0:
42,92,54250,1,8,0:0:0:0:
303,195,54625,2,0,L|487:195,1,170,2|8,0:0|0:0,0:0:0:0:
303,195,55375,1,8,0:0:0:0:
136,200,55750,6,0,P|116:140|216:80,1,170,2|8,0:0|0:0,0:0:0:0:
357,79,56500,1,8,0:0:0:0:
96,112,56875,2,0,B|40:120|16:128|0:104|8:88|8:88|0:72|16:48|40:56|72:56|72:56,1,170,2|8,0:0|0:0,0:0:0:0:
216,56,57625,1,8,0:0:0:0:
488,280,58000,6,0,P|488:181|430:118,1,170,2|8,0:0|0:0,0:0:0:0:
389,120,58500,1,2,0:0:0:0:
333,120,58625,1,2,0:0:0:0:
277,120,58750,1,8,0:0:0:0:
16,224,59125,2,0,L|16:32,1,170,2|8,0:0|0:0,0:0:0:0:
16,54,59625,1,2,0:0:0:0:
32,32,59750,1,2,0:0:0:0:
72,24,59875,1,8,0:0:0:0:
240,40,60250,6,0,P|268:132|200:216,1,170,2|8,0:0|0:0,0:0:0:0:
179,205,60750,1,2,0:0:0:0:
123,205,60875,1,2,0:0:0:0:
67,205,61000,1,8,0:0:0:0:
328,96,61375,2,0,L|504:96,1,170,2|8,0:0|0:0,0:0:0:0:
480,56,61875,1,2,0:0:0:0:
440,48,62000,1,2,0:0:0:0:
376,48,62125,1,8,0:0:0:0:
113,160,62500,6,0,L|54:62,1,113.333333333333,8|2,0:0|0:0,0:0:0:0:
112,40,62875,2,0,L|235:41,1,113.333333333333,8|2,0:0|0:0,0:0:0:0:
352,160,63250,1,8,0:0:0:0:
352,160,63750,1,2,0:0:0:0:
352,160,64000,1,2,0:0:0:0:
352,160,64250,1,2,0:0:0:0:
144,152,64500,5,6,0:0:0:0:
256,192,64750,12,2,70500,0:0:0:0:
