osu file format v14

[General]
AudioFilename: audio.mp3
AudioLeadIn: 0
PreviewTime: 57966
Countdown: 0
SampleSet: None
StackLeniency: 0.4
Mode: 0
LetterboxInBreaks: 0
WidescreenStoryboard: 1

[Editor]
DistanceSpacing: 1
BeatDivisor: 4
GridSize: 4
TimelineZoom: 1

[Metadata]
Title:Ley-Line of Twilight time from A Clockwork Ley-Line
TitleUnicode:黄昏時のレイライン~from A Clockwork Ley-Line~
Artist:Mizutsuki Ryo
ArtistUnicode:水月 陵
Creator:Electoz
Version:Hard
Source:時計仕掛けのレイライン -黄昏時の境界線-
Tags:Ley-Line Unison shift visual novel eroge Electroz
BeatmapID:1619191
BeatmapSetID:770110

[Difficulty]
HPDrainRate:5
CircleSize:5.5
OverallDifficulty:6
ApproachRate:7
SliderMultiplier:1.7
SliderTickRate:1

[Events]
//Background and Video events
0,0,"bg.jpg",0,0
//Break Periods
//Storyboard Layer 0 (Background)
//Storyboard Layer 1 (Fail)
//Storyboard Layer 2 (Pass)
//Storyboard Layer 3 (Foreground)
//Storyboard Sound Samples

[TimingPoints]
393,666.666666666667,4,2,1,40,1,0
7226,-100,4,2,1,5,0,0
7393,-100,4,2,1,40,0,0
7893,-100,4,2,1,5,0,0
8059,-100,4,2,1,40,0,0
9893,-100,4,2,1,5,0,0
10059,-100,4,2,1,40,0,0
10559,-100,4,2,1,5,0,0
10726,-100,4,2,1,40,0,0
16059,-100,4,2,1,5,0,0
16393,-100,4,2,1,40,0,0
79226,-100,4,2,1,5,0,0
79393,-100,4,2,1,40,0,0
103059,722.89156626506,4,2,1,40,1,0
104504,779.220779220779,4,2,1,40,1,0
106062,821.917808219178,4,2,1,40,1,0
107752,905.660377358491,4,2,1,40,1,0
107978,-100,4,2,1,10,0,0

[Colours]
Combo1 : 128,128,128
Combo2 : 13,125,251
Combo3 : 179,214,253
Combo4 : 192,192,192

[HitObjects]
164,228,59,37,2,0:0:0:0:
223,167,226,1,2,0:0:0:0:
164,228,393,1,2,0:0:0:0:
328,268,726,1,2,0:0:0:0:
282,106,1059,1,2,0:0:0:0:
97,175,1393,2,0,P|81:250|146:312,1,170,2|8,0:0|0:0,0:0:0:0:
225,329,2393,5,2,0:0:0:0:
246,248,2559,1,2,0:0:0:0:
305,187,2726,1,2,0:0:0:0:
364,126,2893,1,2,0:0:0:0:
388,207,3059,1,2,0:0:0:0:
223,167,3393,1,2,0:0:0:0:
339,43,3726,1,2,0:0:0:0:
322,262,4059,2,0,P|305:183|364:126,1,170,2|8,0:0|0:0,0:0:0:0:
388,207,5059,37,8,0:0:0:0:
322,262,5226,1,2,0:0:0:0:
388,317,5393,1,2,0:0:0:0:
322,372,5559,1,2,0:0:0:0:
91,317,5726,6,0,B|185:346|158:283|255:316,1,170,2|2,0:0|0:0,0:0:0:0:
130,239,6726,2,0,P|104:184|115:120,1,127.5,2|0,0:0|0:0,0:0:0:0:
188,172,7393,2,0,P|249:183|306:156,1,127.5,2|0,0:0|0:0,0:0:0:0:
353,86,8059,1,2,0:0:0:0:
130,239,8393,38,0,P|40:246|4:319,1,170,2|2,0:0|0:0,0:0:0:0:
218,328,9393,2,0,L|83:316,1,127.5,2|0,0:0|0:0,0:0:0:0:
130,239,10059,2,0,P|156:184|145:120,1,127.5,2|0,0:0|0:0,0:0:0:0:
96,49,10726,1,2,0:0:0:0:
306,155,11059,5,2,0:0:0:0:
90,316,11726,1,2,0:0:0:0:
90,316,12643,1,8,0:0:0:0:
145,120,13059,1,2,0:0:0:0:
96,49,13226,1,2,0:0:0:0:
61,126,13393,1,2,0:0:0:0:
108,196,13559,1,2,0:0:0:0:
193,191,13726,1,10,0:0:0:0:
256,192,13893,12,0,16059,0:0:0:0:
52,192,16393,37,2,0:0:0:0:
52,192,19059,1,2,0:0:0:0:
52,192,21726,5,2,0:0:0:0:
52,192,23393,1,2,0:0:0:0:
94,117,23726,1,2,0:0:0:0:
8,116,24059,1,2,0:0:0:0:
136,192,24393,37,2,0:0:0:0:
136,192,26059,1,2,0:0:0:0:
179,118,26393,1,2,0:0:0:0:
136,114,26559,1,2,0:0:0:0:
94,117,26726,1,2,0:0:0:0:
256,192,27059,37,2,0:0:0:0:
299,118,27393,1,2,0:0:0:0:
299,118,27559,2,0,P|356:114|434:117,1,127.5,2|2,0:0|0:0,0:0:0:0:
284,22,28726,1,0,0:0:0:0:
284,22,29059,1,0,0:0:0:0:
256,192,29726,5,2,0:0:0:0:
460,40,30726,1,2,0:0:0:0:
340,192,31726,1,2,0:0:0:0:
460,192,32393,38,0,P|392:184|324:180,1,127.5,2|0,0:0|0:0,0:0:0:0:
281,90,33393,2,0,P|344:95|408:102,1,127.5,2|0,0:0|0:0,0:0:0:0:
482,22,34393,2,0,P|419:15|356:11,1,127.5,2|0,0:0|0:0,0:0:0:0:
313,14,35059,5,2,0:0:0:0:
313,14,35726,1,2,0:0:0:0:
323,98,36059,1,2,0:0:0:0:
408,102,36393,2,0,P|445:127|459:168,1,85
325,101,36893,2,0,P|338:52|403:17,1,127.5
460,190,37726,37,2,0:0:0:0:
408,102,38059,1,2,0:0:0:0:
358,191,38393,1,2,0:0:0:0:
402,17,38726,1,0,0:0:0:0:
408,102,39059,2,0,P|440:93|479:50,1,85,2|0,0:0|0:0,0:0:0:0:
408,102,39559,2,0,L|500:110,1,85,2|0,0:0|0:0,0:0:0:0:
402,17,40059,1,2,0:0:0:0:
358,191,40393,37,2,0:0:0:0:
306,103,40726,1,2,0:0:0:0:
256,192,41060,1,2,0:0:0:0:
300,18,41393,1,0,0:0:0:0:
306,103,41726,2,0,L|398:111,1,85,2|0,0:0|0:0,0:0:0:0:
306,103,42226,2,0,P|338:94|377:51,1,85,2|0,0:0|0:0,0:0:0:0:
300,18,42726,1,2,0:0:0:0:
256,192,43059,5,2,0:0:0:0:
206,103,43393,1,2,0:0:0:0:
154,191,43726,1,2,0:0:0:0:
200,18,44059,1,2,0:0:0:0:
206,103,44393,1,0,0:0:0:0:
277,56,44726,1,0,0:0:0:0:
404,53,44893,2,0,L|262:56,1,127.5
206,103,45726,37,2,0:0:0:0:
284,140,46059,1,0,0:0:0:0:
411,142,46226,2,0,L|269:139,1,127.5
122,99,47059,2,0,P|164:93|205:102,1,85,2|0,0:0|0:0,0:0:0:0:
57,124,47559,2,0,P|55:80|83:42,1,85,2|0,0:0|0:0,0:0:0:0:
144,33,48059,1,2,0:0:0:0:
52,192,48393,5,2,0:0:0:0:
122,99,48726,1,2,0:0:0:0:
76,46,48893,1,2,0:0:0:0:
144,33,49059,1,0,0:0:0:0:
186,131,49393,1,0,0:0:0:0:
144,33,49726,1,0,0:0:0:0:
236,82,50059,1,0,0:0:0:0:
320,73,50226,2,0,L|215:84,1,85,2|0,0:0|0:0,0:0:0:0:
210,18,50726,1,0,0:0:0:0:
256,192,51059,38,0,L|361:181,1,85,2|2,0:0|0:0,0:0:0:0:
468,112,51559,2,0,L|383:120,1,85,2|0,0:0|0:0,0:0:0:0:
320,73,52059,1,2,0:0:0:0:
256,192,52393,1,0,0:0:0:0:
320,73,52726,1,0,0:0:0:0:
383,120,52893,2,0,L|468:112,1,85
452,46,53393,1,0,0:0:0:0:
320,73,53726,5,2,0:0:0:0:
320,73,54059,1,0,0:0:0:0:
383,26,54226,1,0,0:0:0:0:
452,46,54393,1,0,0:0:0:0:
460,190,54726,1,2,0:0:0:0:
256,192,54893,12,2,56504,0:0:0:0:
256,24,58059,37,8,0:0:0:0:
256,66,58393,1,8,0:0:0:0:
256,108,58726,1,8,0:0:0:0:
185,108,59059,6,0,L|63:97,2,113.333333333333,2|0|0,0:0|0:0|0:0,0:0:0:0:
256,24,60726,37,8,0:0:0:0:
256,66,61060,1,8,0:0:0:0:
256,108,61393,1,8,0:0:0:0:
327,108,61726,6,0,L|448:97,2,113.333333333333,2|0|0,0:0|0:0|0:0,0:0:0:0:
161,192,64393,38,0,L|39:181,2,113.333333333333,2|0|0,0:0|0:0|0:0,0:0:0:0:
256,66,66059,5,8,0:0:0:0:
256,108,66393,1,8,0:0:0:0:
256,150,66726,1,8,0:0:0:0:
256,192,67059,37,2,0:0:0:0:
256,108,67726,1,8,0:0:0:0:
256,24,68393,1,2,0:0:0:0:
256,192,69059,1,8,0:0:0:0:
351,192,69726,6,0,L|472:181,2,113.333333333333,2|0|0,0:0|0:0|0:0,0:0:0:0:
256,192,71393,37,8,0:0:0:0:
256,234,71727,1,8,0:0:0:0:
256,276,72060,5,8,0:0:0:0:
256,276,72226,1,8,0:0:0:0:
256,276,72393,2,0,L|121:264,2,127.5,2|0|0,0:0|0:0|0:0,0:0:0:0:
256,276,75059,38,0,L|339:283,1,85,2|2,0:0|0:0,0:0:0:0:
382,290,75559,1,8,0:0:0:0:
424,296,75726,1,2,0:0:0:0:
394,216,76059,1,2,0:0:0:0:
309,210,76393,1,8,0:0:0:0:
309,210,76559,2,0,P|237:192|192:219,1,127.5,8|0,0:0|0:0,0:0:0:0:
256,276,77393,1,8,0:0:0:0:
130,276,77726,5,2,0:0:0:0:
192,332,78059,1,2,0:0:0:0:
157,357,78226,1,8,0:0:0:0:
114,360,78393,1,2,0:0:0:0:
256,360,78726,1,2,0:0:0:0:
256,192,79393,37,2,0:0:0:0:
256,276,79727,1,2,0:0:0:0:
256,360,80060,1,2,0:0:0:0:
262,210,80393,6,0,P|315:183|256:192,1,170,2|8,0:0|0:0,0:0:0:0:
379,157,81393,2,0,P|350:117|318:100,1,85,2|2,0:0|0:0,0:0:0:0:
256,192,82059,1,8,0:0:0:0:
205,152,82393,1,8,0:0:0:0:
247,102,82726,1,8,0:0:0:0:
195,216,83059,38,0,P|285:252|321:197,1,170,2|8,0:0|0:0,0:0:0:0:
256,192,84059,1,8,0:0:0:0:
134,240,84393,1,2,0:0:0:0:
174,294,84726,1,2,0:0:0:0:
236,321,85059,1,2,0:0:0:0:
303,315,85393,1,2,0:0:0:0:
181,90,85726,6,0,P|131:156|134:240,1,170,2|8,0:0|0:0,0:0:0:0:
236,321,86726,1,2,0:0:0:0:
129,46,87392,1,8,0:0:0:0:
86,98,87726,1,8,0:0:0:0:
66,163,88059,1,8,0:0:0:0:
9,281,88393,37,2,0:0:0:0:
89,304,88726,1,2,0:0:0:0:
156,298,89060,1,2,0:0:0:0:
236,321,89393,1,2,0:0:0:0:
303,315,89726,1,2,0:0:0:0:
383,338,90059,1,2,0:0:0:0:
383,338,90393,6,2,L|352:369,5,28.3333333333333
430,291,91059,37,2,0:0:0:0:
488,229,91393,1,8,0:0:0:0:
404,209,91726,1,8,0:0:0:0:
463,146,92059,2,0,P|463:101|444:68,1,85,2|2,0:0|0:0,0:0:0:0:
361,42,92726,1,8,0:0:0:0:
381,125,93059,1,8,0:0:0:0:
299,100,93393,1,8,0:0:0:0:
157,40,93726,5,2,0:0:0:0:
78,74,94060,1,8,0:0:0:0:
30,144,94393,1,8,0:0:0:0:
31,228,94726,1,2,0:0:0:0:
52,310,95060,1,2,0:0:0:0:
135,293,95393,1,2,0:0:0:0:
191,356,95726,1,2,0:0:0:0:
108,373,96059,1,2,0:0:0:0:
299,334,96393,38,0,P|332:307|346:267,1,85,2|8,0:0|0:0,0:0:0:0:
353,140,97059,2,0,P|326:107|286:93,1,85,8|8,0:0|0:0,0:0:0:0:
201,97,97726,2,0,P|168:124|154:164,1,85,8|0,0:0|0:0,0:0:0:0:
159,205,98226,2,0,P|173:244|205:270,1,85
245,287,98726,1,0,0:0:0:0:
261,209,99059,6,0,P|314:182|256:192,1,170
256,192,100059,1,0,0:0:0:0:
256,192,100393,1,0,0:0:0:0:
256,192,100726,1,0,0:0:0:0:
256,192,101059,1,0,0:0:0:0:
245,287,101393,2,2,L|205:268,2,28.3333333333333
245,287,101726,6,0,L|328:294,2,85,2|2|2,0:0|0:0|0:0,0:0:0:0:
160,240,103059,37,2,0:0:0:0:
180,228,103781,1,2,0:0:0:0:
204,216,104504,5,2,0:0:0:0:
224,204,105283,1,2,0:0:0:0:
256,188,106062,37,2,0:0:0:0:
256,188,106883,1,2,0:0:0:0:
256,152,107752,5,2,0:0:0:0:
256,188,107978,5,10,0:1:0:0:
256,188,109789,37,10,0:1:0:0:
256,188,111827,5,10,0:1:0:0:
256,188,113638,37,10,0:1:0:0:
256,188,115450,5,10,0:1:0:0:
