osu file format v14

[General]
AudioFilename: Philosophyz (DJ Shimamura's Hardcore Remix).mp3
AudioLeadIn: 0
PreviewTime: 233219
Countdown: 1
SampleSet: Normal
StackLeniency: 0.7
Mode: 0
LetterboxInBreaks: 1
WidescreenStoryboard: 0

[Editor]
DistanceSpacing: 1.1
BeatDivisor: 4
GridSize: 4
TimelineZoom: 1

[Metadata]
Title:Philosophyz (DJ Shimamura's Hardcore Remix)
TitleUnicode:Philosophyz (DJ Shimamura's Hardcore Remix)
Artist:Mizutani Runa
ArtistUnicode:水谷瑠奈
Creator:Flower
Version:Marathon
Source:Rewrite
Tags:opening SUPER SHOT 4 visual art's key music compilation
BeatmapID:254572
BeatmapSetID:55715

[Difficulty]
HPDrainRate:6
CircleSize:4
OverallDifficulty:8
ApproachRate:9
SliderMultiplier:2
SliderTickRate:1

[Events]
//Background and Video events
0,0,"rw1.jpg",0,0
//Break Periods
2,54841,62511
2,128252,138746
2,256723,262629
//Storyboard Layer 0 (Background)
//Storyboard Layer 1 (Fail)
//Storyboard Layer 2 (Pass)
//Storyboard Layer 3 (Foreground)
//Storyboard Layer 4 (Overlay)
//Storyboard Sound Samples

[TimingPoints]
994,352.941176470588,4,1,1,60,1,0
12288,-100,4,1,1,60,0,0
17935,-100,4,1,1,60,0,1
22170,-100,4,1,1,60,0,0
23582,-100,4,1,1,60,0,1
46170,-100,4,1,1,60,0,0
48288,-100,4,2,1,50,0,0
48641,-100,4,2,1,40,0,0
48993,-100,4,2,1,30,0,0
49346,-100,4,2,1,25,0,0
49699,-100,4,2,1,20,0,0
54641,-133.333333333333,4,2,1,40,0,0
67346,-133.333333333333,4,2,1,70,0,0
69111,-133.333333333333,4,2,1,50,0,0
78641,-133.333333333333,4,2,1,40,0,0
80052,-133.333333333333,4,2,0,60,0,1
80141,-133.333333333333,4,2,1,50,0,0
89935,-133.333333333333,4,2,1,60,0,0
91346,-133.333333333333,4,2,0,60,0,1
91435,-133.333333333333,4,2,1,50,0,0
104229,-133.333333333333,4,1,1,50,0,0
104758,-133.333333333333,4,2,1,50,0,0
105464,-133.333333333333,4,2,0,70,0,1
105552,-100,4,2,1,70,0,0
105993,-100,4,2,1,60,0,0
116758,-100,4,1,0,60,0,1
116846,-100,4,2,1,60,0,0
128052,-100,4,2,0,70,0,0
139346,-100,4,1,1,60,0,0
149229,-100,4,2,1,60,0,0
150641,-100,4,1,1,60,0,0
158758,-100,4,2,0,70,0,0
159111,-100,4,1,1,60,0,0
160876,-100,4,2,0,60,0,0
161229,-100,4,1,1,60,0,0
170052,-100,4,2,0,70,0,0
170405,-100,4,1,1,60,0,0
173229,-100,4,1,1,60,0,1
181699,-100,4,1,1,60,0,0
183111,-100,4,2,1,60,0,0
183817,-100,4,1,1,60,0,0
183993,-100,4,2,1,60,0,0
184523,-100,4,1,1,60,0,1
194405,-100,4,2,0,50,0,1
196876,-100,4,2,1,40,0,0
197229,-100,4,1,1,60,0,0
208523,-100,4,1,1,70,0,1
208611,-100,4,1,1,60,0,0
219817,-100,4,1,1,70,0,1
219905,-100,4,1,1,60,0,0
233229,-100,4,2,1,60,0,0
233935,-100,4,1,1,60,0,1
242405,-100,4,1,1,60,0,0
243817,-100,4,2,1,60,0,0
244523,-100,4,1,1,60,0,0
244699,-100,4,2,1,60,0,0
244876,-100,4,1,1,60,0,0
245229,-100,4,1,1,60,0,1
256523,-100,4,2,1,70,0,0
267817,-133.333333333333,4,2,1,70,0,0
268170,-133.333333333333,4,2,1,40,0,0
279111,-100,4,1,1,60,0,0
287582,-100,4,1,1,40,0,0
288993,-100,4,1,1,70,0,0
289082,-100,4,2,1,60,0,0
290405,-100,4,1,1,60,0,1
298876,-100,4,1,1,60,0,0
300288,-100,4,2,1,60,0,0
300993,-100,4,1,1,60,0,0
301346,-100,4,2,1,60,0,0
301699,-100,4,1,1,60,0,1
312993,-100,4,1,1,60,0,0
332935,-100,4,2,1,60,0,0
335582,-100,4,1,1,60,0,0

[Colours]
Combo1 : 187,187,187
Combo2 : 191,158,125
Combo3 : 249,147,64
Combo4 : 175,179,209
Combo5 : 254,245,73
Combo6 : 78,90,180
SliderBorder : 255,255,255

[HitObjects]
256,266,12288,5,2,0:0:0:0:
184,215,12464,1,0,0:0:0:0:
210,130,12641,1,8,0:0:0:0:
300,130,12817,1,0,0:0:0:0:
326,215,12993,1,2,0:0:0:0:
326,215,13346,1,4,0:0:0:0:
448,240,13699,6,0,B|476:288|448:336,1,100,2|0,0:0|0:0,0:0:0:0:
368,336,14052,2,0,B|340:288|368:240,1,100,8|0,0:0|0:0,0:0:0:0:
404,172,14405,1,2,0:0:0:0:
404,172,14758,1,4,0:0:0:0:
256,116,15111,6,0,B|180:44|164:192|80:116,1,200,2|8,0:0|0:0,0:0:0:0:
40,184,15641,1,0,0:0:0:0:
108,224,15817,2,0,B|76:272|92:340|168:360|204:332,1,200,2|8,0:0|0:0,0:0:0:0:
256,272,16346,1,0,0:0:0:0:
309,333,16523,2,0,B|344:360|420:340|436:272|404:224,1,200,2|8,0:0|0:0,0:0:0:0:
332,192,17052,1,0,0:0:0:0:
396,144,17229,1,12,0:0:0:0:
396,144,17405,1,8,0:0:0:0:
208,72,17582,6,0,B|156:48|112:84,1,100,4|0,0:0|0:0,0:0:0:0:
76,152,17935,2,0,B|128:176|172:140,1,100,8|0,0:0|0:0,0:0:0:0:
192,220,18288,1,8,0:0:0:0:
256,268,18464,1,0,0:0:0:0:
208,332,18641,6,0,B|104:300,1,100,8|0,0:0|0:0,0:0:0:0:
304,332,18993,2,0,B|408:300,1,100,8|0,0:0|0:0,0:0:0:0:
132,164,19346,2,0,B|185:249,1,100,8|0,0:0|0:0,0:0:0:0:
380,164,19699,2,0,B|327:249,1,100,8|0,0:0|0:0,0:0:0:0:
256,64,20052,1,8,0:0:0:0:
256,268,20229,1,0,0:0:0:0:
380,164,20405,1,8,0:0:0:0:
132,164,20582,1,0,0:0:0:0:
256,64,20758,5,0,0:0:0:0:
250,79,20846,1,0,0:0:0:0:
245,99,20935,1,0,0:0:0:0:
241,117,21023,1,0,0:0:0:0:
244,135,21111,1,0,0:0:0:0:
248,154,21199,1,0,0:0:0:0:
251,172,21288,1,0,0:0:0:0:
256,192,21376,1,0,0:0:0:0:
258,207,21464,1,0,0:0:0:0:
262,224,21552,1,0,0:0:0:0:
265,243,21641,1,0,0:0:0:0:
268,262,21729,1,0,0:0:0:0:
264,280,21817,1,0,0:0:0:0:
259,298,21905,1,0,0:0:0:0:
256,317,21993,2,0,L|256:376,1,50
256,192,22170,12,4,23582,0:0:0:0:
284,72,23935,6,0,B|356:76|408:124|420:200,1,200,8|0,0:0|0:0,0:0:0:0:
256,236,24641,1,8,0:0:0:0:
136,132,24993,6,0,B|176:224,1,100
376,132,25346,2,0,B|336:224,1,100,8|0,0:0|0:0,0:0:0:0:
207,318,25699,1,0,0:0:0:0:
304,318,25876,1,0,0:0:0:0:
163,318,26052,1,8,0:0:0:0:
348,318,26229,1,0,0:0:0:0:
388,240,26405,6,0,B|412:196|412:196|468:200|480:168|480:168|464:136|472:100,1,200,4|8,0:0|0:0,0:0:0:0:
124,240,27111,2,0,B|100:196|100:196|44:200|32:168|32:168|48:136|40:100,1,200,0|8,0:0|0:0,0:0:0:0:
196,128,27817,6,0,B|142:116|133:57,1,100
316,128,28170,2,0,B|370:116|379:57,1,100,8|0,0:0|0:0,0:0:0:0:
256,60,28523,1,0,0:0:0:0:
256,212,28699,1,0,0:0:0:0:
256,60,28876,1,8,0:0:0:0:
256,212,29052,1,0,0:0:0:0:
176,248,29229,6,0,B|204:312|304:316|340:248,1,200,4|8,0:0|0:0,0:0:0:0:
352,92,29935,2,0,B|256:56|156:92,1,200,0|8,0:0|0:0,0:0:0:0:
332,180,30641,6,0,B|388:184|424:220,1,100
180,180,30993,2,0,B|124:184|88:220,1,100,8|0,0:0|0:0,0:0:0:0:
410,339,31346,2,0,B|360:316|344:268,1,100
101,339,31699,2,0,B|152:316|168:268,1,100,8|0,0:0|0:0,0:0:0:0:
256,264,32052,5,0,0:0:0:0:
256,120,32229,1,0,0:0:0:0:
306,242,32405,1,8,0:0:0:0:
205,141,32582,1,0,0:0:0:0:
328,192,32758,1,0,0:0:0:0:
184,192,32935,1,0,0:0:0:0:
307,142,33111,1,8,0:0:0:0:
205,242,33288,1,0,0:0:0:0:
152,304,33464,6,0,B|108:336|60:304,1,100
60,224,33817,2,0,B|104:192|152:224,1,100,8|0,0:0|0:0,0:0:0:0:
360,304,34170,2,0,B|404:336|452:304,1,100
452,224,34523,2,0,B|408:192|360:224,1,100,8|0,0:0|0:0,0:0:0:0:
332,88,34876,6,0,B|424:40,1,100
180,88,35229,2,0,B|88:40,1,100,8|0,0:0|0:0,0:0:0:0:
352,160,35582,2,0,B|444:112,1,100,0|0,0:0|0:0,0:0:0:0:
160,160,35935,2,0,B|68:112,1,100,8|0,0:0|0:0,0:0:0:0:
256,104,36288,5,0,0:0:0:0:
256,240,36464,1,0,0:0:0:0:
256,136,36641,1,8,0:0:0:0:
256,272,36817,1,0,0:0:0:0:
312,332,36993,2,0,B|352:296|328:232,1,100
200,332,37346,2,0,B|160:296|184:232,1,100,8|0,0:0|0:0,0:0:0:0:
120,188,37699,5,8,0:0:0:0:
34,116,37876,1,0,0:0:0:0:
105,32,38052,1,8,0:0:0:0:
189,102,38229,1,0,0:0:0:0:
323,102,38405,1,8,0:0:0:0:
407,32,38582,1,0,0:0:0:0:
478,116,38758,1,8,0:0:0:0:
392,188,38935,1,0,0:0:0:0:
416,264,39111,5,4,0:0:0:0:
96,264,39464,1,4,0:0:0:0:
340,292,39817,1,4,0:0:0:0:
172,292,40170,1,4,0:0:0:0:
184,208,40346,1,0,0:0:0:0:
116,144,40523,6,0,B|216:132,1,100,10|0,0:0|0:0,0:0:0:0:
396,144,40876,2,0,B|296:132,1,100,10|0,0:0|0:0,0:0:0:0:
328,208,41229,1,10,0:0:0:0:
296,280,41405,1,2,0:0:0:0:
216,280,41582,1,8,0:0:0:0:
184,208,41758,1,2,0:0:0:0:
148,136,41935,5,10,0:0:0:0:
256,68,42111,1,0,0:0:0:0:
364,136,42288,1,10,0:0:0:0:
256,68,42464,1,0,0:0:0:0:
116,64,42641,1,10,0:0:0:0:
256,148,42817,1,2,0:0:0:0:
396,64,42993,1,8,0:0:0:0:
256,148,43170,1,2,0:0:0:0:
92,312,43346,5,0,0:0:0:0:
112,304,43435,1,0,0:0:0:0:
132,296,43523,1,0,0:0:0:0:
152,288,43611,1,0,0:0:0:0:
172,280,43699,1,0,0:0:0:0:
192,288,43788,1,0,0:0:0:0:
212,296,43876,1,0,0:0:0:0:
232,304,43964,1,0,0:0:0:0:
252,312,44052,1,0,0:0:0:0:
272,304,44141,1,0,0:0:0:0:
292,296,44229,1,0,0:0:0:0:
312,288,44317,1,0,0:0:0:0:
332,280,44405,1,0,0:0:0:0:
352,288,44494,1,0,0:0:0:0:
372,296,44582,1,0,0:0:0:0:
392,304,44670,1,0,0:0:0:0:
256,192,44758,12,4,46170,0:0:0:0:
256,192,46258,12,4,54641,0:0:0:0:
256,192,63111,5,4,0:0:0:0:
256,192,63641,1,0,0:0:0:0:
256,192,64170,1,0,0:0:0:0:
256,192,65935,5,4,0:0:0:0:
256,328,66464,1,0,0:0:0:0:
256,192,66993,1,0,0:0:0:0:
256,192,67346,12,4,68758,0:0:0:0:
464,100,69111,6,0,B|468:172|400:196,1,112.500004291535,2|0,0:0|0:0,0:0:0:0:
392,232,69464,1,2,0:0:0:0:
256,320,69817,1,0,0:0:0:0:
256,232,69993,1,0,0:0:0:0:
256,140,70170,1,2,0:0:0:0:
256,52,70346,6,0,B|175:36|119:98,1,150.000005722046
68,172,70876,1,2,0:0:0:0:
84,260,71052,1,0,0:0:0:0:
256,304,71582,5,4,0:0:0:0:
256,304,71758,1,0,0:0:0:0:
256,304,71935,2,0,B|256:216|336:188,1,150.000005722046,0|2,0:0|0:0,0:0:0:0:
376,268,72464,1,0,0:0:0:0:
444,208,72641,2,0,B|484:192|488:148,1,75.0000028610231
340,52,73170,6,0,B|300:68|296:112,1,75.0000028610231,0|0,0:0|0:0,0:0:0:0:
260,192,73523,1,0,0:0:0:0:
244,280,73699,2,0,B|231:318|184:326,1,75.0000028610231,2|0,0:0|0:0,0:0:0:0:
68,88,74405,5,4,0:0:0:0:
68,88,74582,1,0,0:0:0:0:
68,88,74758,2,0,B|136:128|212:88,1,150.000005722046,0|2,0:0|0:0,0:0:0:0:
444,296,75464,1,2,0:0:0:0:
444,296,75641,1,0,0:0:0:0:
444,296,75817,2,0,B|376:256|300:296,1,150.000005722046,0|0,0:0|0:0,0:0:0:0:
204,240,76346,2,0,B|148:180|184:100,1,150.000005722046,2|0,0:0|0:0,0:0:0:0:
396,168,77052,5,0,0:0:0:0:
396,168,77141,1,0,0:0:0:0:
396,168,77229,2,0,B|320:128|252:168,1,150.000005722046,4|0,0:0|0:0,0:0:0:0:
184,212,77758,1,0,0:0:0:0:
168,132,77935,2,0,B|86:118|35:190,1,150.000005722046,2|0,0:0|0:0,0:0:0:0:
36,186,78464,1,2,0:0:0:0:
60,296,78641,5,4,0:0:0:0:
192,340,78817,1,2,0:0:0:0:
256,196,78993,1,2,0:0:0:0:
320,340,79170,1,2,0:0:0:0:
324,344,79523,1,2,0:0:0:0:
396,308,79699,1,2,0:0:0:0:
440,240,79876,1,2,0:0:0:0:
432,156,80052,1,4,0:0:0:0:
156,68,80405,5,4,0:0:0:0:
72,104,80582,1,0,0:0:0:0:
52,192,80758,2,0,B|51:261|119:297,1,112.500004291535,0|0,0:0|0:0,0:0:0:0:
120,328,81111,1,2,0:0:0:0:
192,276,81288,2,0,B|264:244|340:280,1,150.000005722046
424,308,81817,1,2,0:0:0:0:
464,228,81993,2,0,B|464:184|500:156,2,75.0000028610231
256,44,82876,5,4,0:0:0:0:
256,44,83052,1,0,0:0:0:0:
256,44,83229,2,0,B|224:96|256:156,1,112.500004291535,2|0,0:0|0:0,0:0:0:0:
288,164,83582,2,0,B|332:200|348:248|340:300,1,150.000005722046,2|0,0:0|0:0,0:0:0:0:
256,332,84111,5,2,0:0:0:0:
256,332,84288,1,0,0:0:0:0:
204,260,84464,2,0,B|168:240|124:256,1,75.0000028610231,0|0,0:0|0:0,0:0:0:0:
52,296,84817,1,0,0:0:0:0:
40,192,84993,1,2,0:0:0:0:
92,96,85170,1,0,0:0:0:0:
172,136,85346,2,0,B|188:172|240:172,2,75.0000028610231,0|0|4,0:0|0:0|0:0,0:0:0:0:
380,44,86052,6,0,B|332:72|328:152,1,112.500004291535
372,156,86405,2,0,B|444:200|432:284,1,150.000005722046,2|2,0:0|0:0,0:0:0:0:
340,316,86935,2,0,B|268:280|196:316,1,150.000005722046
112,284,87464,1,0,0:0:0:0:
116,196,87641,6,0,B|180:136|136:48,1,150.000005722046,2|0,0:0|0:0,0:0:0:0:
344,152,88346,1,0,0:0:0:0:
344,152,88523,2,0,B|268:172|236:264,1,150.000005722046,4|0,0:0|0:0,0:0:0:0:
356,348,89052,1,0,0:0:0:0:
356,348,89141,1,0,0:0:0:0:
356,348,89229,2,0,B|420:336|452:256,1,112.500004291535,2|0,0:0|0:0,0:0:0:0:
440,248,89582,1,0,0:0:0:0:
344,152,89758,1,0,0:0:0:0:
460,124,89935,5,8,0:0:0:0:
316,40,90199,1,8,0:0:0:0:
340,240,90464,1,8,0:0:0:0:
196,156,90729,1,8,0:0:0:0:
56,48,90993,1,8,0:0:0:0:
37,75,91082,1,8,0:0:0:0:
26,107,91170,1,8,0:0:0:0:
24,141,91258,1,8,0:0:0:0:
31,174,91346,1,4,0:0:0:0:
424,192,91876,5,0,0:0:0:0:
408,280,92052,2,0,B|364:344|272:336,1,150.000005722046,2|0,0:0|0:0,0:0:0:0:
64,304,92582,2,0,B|108:240|200:248,1,150.000005722046,0|0,0:0|0:0,0:0:0:0:
252,172,93111,1,2,0:0:0:0:
172,128,93288,1,0,0:0:0:0:
364,56,93817,5,2,0:0:0:0:
364,56,93993,1,0,0:0:0:0:
364,56,94170,2,0,B|424:72|444:136,1,112.500004291535,4|0,0:0|0:0,0:0:0:0:
424,172,94523,1,2,0:0:0:0:
356,264,94699,2,0,B|336:300|348:344,1,75.0000028610231
77,194,95229,5,2,0:0:0:0:
77,194,95405,2,0,B|118:243|88:307,1,112.500004291535
72,340,95758,2,0,B|116:274|207:278,1,150.000005722046,4|0,0:0|0:0,0:0:0:0:
252,92,96464,1,0,0:0:0:0:
332,52,96641,1,2,0:0:0:0:
416,80,96817,1,0,0:0:0:0:
456,160,96993,6,0,B|400:212|308:184,1,150.000005722046,4|0,0:0|0:0,0:0:0:0:
216,136,97523,1,0,0:0:0:0:
124,172,97699,2,0,B|60:208|44:296,1,150.000005722046,0|2,0:0|0:0,0:0:0:0:
128,364,98229,2,0,B|192:328|208:240,1,150.000005722046
236,156,98758,1,2,0:0:0:0:
180,84,98935,1,0,0:0:0:0:
296,300,99464,5,2,0:0:0:0:
296,300,99641,1,0,0:0:0:0:
296,300,99817,2,0,B|372:296|424:224,1,150.000005722046,4|0,0:0|0:0,0:0:0:0:
412,136,100346,1,0,0:0:0:0:
360,64,100523,1,0,0:0:0:0:
272,56,100699,1,0,0:0:0:0:
188,92,100876,1,2,0:0:0:0:
160,176,101052,1,0,0:0:0:0:
188,280,101229,5,4,0:0:0:0:
188,280,101405,1,0,0:0:0:0:
188,280,101582,2,0,B|224:352|320:344,1,150.000005722046,2|0,0:0|0:0,0:0:0:0:
420,192,102288,1,2,0:0:0:0:
92,192,102641,1,4,0:0:0:0:
256,192,102729,12,4,103876,0:0:0:0:
256,192,104229,5,8,0:0:0:0:
256,192,104405,1,8,0:0:0:0:
256,76,104758,5,2,0:0:0:0:
256,76,105111,1,2,0:0:0:0:
256,288,105464,5,4,0:0:0:0:
352,236,105641,1,0,0:0:0:0:
352,236,105729,1,0,0:0:0:0:
352,236,105817,1,2,0:0:0:0:
352,344,105993,2,0,P|416:324|448:196,1,200,0|2,0:0|0:0,0:0:0:0:
372,128,106523,6,0,L|272:152,1,100,0|2,0:0|0:0,0:0:0:0:
140,60,106876,2,0,L|240:36,1,100,0|2,0:0|0:0,0:0:0:0:
144,160,107229,1,0,0:0:0:0:
144,160,107317,1,0,0:0:0:0:
144,160,107405,2,0,P|88:148|48:24,1,200,2|2,0:0|0:0,0:0:0:0:
140,60,107935,1,2,0:0:0:0:
148,280,108288,6,0,P|104:312|48:320,1,100,4|0,0:0|0:0,0:0:0:0:
256,360,108641,2,0,L|256:256,1,100,2|0,0:0|0:0,0:0:0:0:
364,280,108993,2,0,P|408:312|464:320,1,100,0|2,0:0|0:0,0:0:0:0:
444,212,109346,1,0,0:0:0:0:
352,152,109523,6,0,B|352:88|420:68|420:68|488:116,1,200,4|0,0:0|0:0,0:0:0:0:
256,188,110052,1,0,0:0:0:0:
160,152,110229,2,0,B|160:88|92:68|92:68|24:116,1,200,2|0,0:0|0:0,0:0:0:0:
68,212,110758,1,0,0:0:0:0:
160,280,110935,5,2,0:0:0:0:
160,280,111023,1,0,0:0:0:0:
160,280,111111,2,0,P|211:295|248:336,1,100,4|0,0:0|0:0,0:0:0:0:
344,288,111464,2,0,P|359:236|400:200,1,100,2|0,0:0|0:0,0:0:0:0:
352,104,111817,2,0,P|300:88|264:48,1,100
168,96,112170,2,0,P|152:147|112:184,1,100,2|2,0:0|0:0,0:0:0:0:
376,220,112699,5,0,0:0:0:0:
376,220,112876,2,0,P|416:268|384:352,1,150,2|0,0:0|0:0,0:0:0:0:
344,288,113229,2,0,B|296:300|256:336|256:336|216:300|168:288,1,200,2|2,0:0|0:0,0:0:0:0:
80,336,113758,1,0,0:0:0:0:
44,232,113935,6,0,P|104:200|120:72,1,200,4|0,0:0|0:0,0:0:0:0:
32,128,114464,2,0,P|84:176|208:144,1,200,2|0,0:0|0:0,0:0:0:0:
256,52,114993,1,0,0:0:0:0:
256,52,115170,1,2,0:0:0:0:
256,192,115346,12,4,116758,0:0:0:0:
256,340,117111,5,2,0:0:0:0:
136,288,117288,2,0,P|176:244|176:100,1,200,0|2,0:0|0:0,0:0:0:0:
256,32,117817,1,0,0:0:0:0:
330,109,117993,2,0,P|336:244|376:288,1,200,2|2,0:0|0:0,0:0:0:0:
488,176,118699,1,2,0:0:0:0:
488,176,119052,1,2,0:0:0:0:
392,232,119229,6,0,B|344:260|296:232|296:232,1,100,2|0,0:0|0:0,0:0:0:0:
208,132,119582,2,0,B|256:104|304:132|304:132,1,100,4|0,0:0|0:0,0:0:0:0:
216,232,119935,2,0,B|168:260|120:232,1,100,2|0,0:0|0:0,0:0:0:0:
48,152,120288,1,0,0:0:0:0:
48,152,120376,1,0,0:0:0:0:
48,152,120464,1,2,0:0:0:0:
84,308,120641,1,0,0:0:0:0:
216,232,120817,6,0,P|240:272|240:324,1,100,2|0,0:0|0:0,0:0:0:0:
84,308,121170,1,2,0:0:0:0:
48,152,121346,1,0,0:0:0:0:
212,192,121523,1,2,0:0:0:0:
212,192,121876,1,0,0:0:0:0:
120,104,122052,6,0,P|172:100|212:64,1,100,2|0,0:0|0:0,0:0:0:0:
304,70,122405,2,0,P|353:51|460:132,1,200,4|0,0:0|0:0,0:0:0:0:
364,148,122935,1,2,0:0:0:0:
420,228,123111,2,0,P|370:246|264:166,1,200,0|2,0:0|0:0,0:0:0:0:
200,88,123641,5,0,0:0:0:0:
120,160,123817,1,0,0:0:0:0:
120,160,123905,1,0,0:0:0:0:
120,160,123993,1,2,0:0:0:0:
8,168,124170,1,0,0:0:0:0:
120,160,124346,1,2,0:0:0:0:
216,216,124523,1,0,0:0:0:0:
120,160,124699,1,2,0:0:0:0:
92,268,124876,1,0,0:0:0:0:
72,56,125052,1,2,0:0:0:0:
256,192,125229,12,4,128052,0:0:0:0:
316,324,139346,5,4,0:0:0:0:
398,267,139523,1,0,0:0:0:0:
398,267,139611,1,0,0:0:0:0:
398,267,139699,2,0,P|421:224|416:160,1,100,8|0,0:0|0:0,0:0:0:0:
489,100,140052,1,0,0:0:0:0:
324,197,140229,1,0,0:0:0:0:
362,104,140405,1,8,0:0:0:0:
288,36,140582,5,0,0:0:0:0:
288,36,140670,1,0,0:0:0:0:
288,36,140758,1,0,0:0:0:0:
208,180,140935,2,0,P|148:196|108:180,2,100,0|8|0,0:0|0:0|0:0,0:0:0:0:
288,36,141464,1,0,0:0:0:0:
362,104,141641,1,0,0:0:0:0:
362,104,141729,1,0,0:0:0:0:
504,32,141993,1,8,0:0:0:0:
448,132,142170,6,0,P|440:184|456:228,1,100,4|0,0:0|0:0,0:0:0:0:
472,248,142435,1,0,0:0:0:0:
492,264,142523,2,0,P|468:312|424:336,1,100,8|0,0:0|0:0,0:0:0:0:
332,364,142876,1,0,0:0:0:0:
264,288,143052,1,0,0:0:0:0:
300,192,143229,1,8,0:0:0:0:
244,108,143405,5,0,0:0:0:0:
244,108,143493,1,0,0:0:0:0:
244,108,143582,1,0,0:0:0:0:
188,192,143758,2,0,P|128:212|96:200,2,100,0|8|0,0:0|0:0|0:0,0:0:0:0:
328,108,144288,1,0,0:0:0:0:
184,32,144464,1,0,0:0:0:0:
184,32,144552,1,0,0:0:0:0:
20,124,144817,1,8,0:0:0:0:
140,120,144993,6,0,P|180:168|184:212,1,100,4|0,0:0|0:0,0:0:0:0:
372,120,145346,2,0,P|332:168|328:212,1,100,8|0,0:0|0:0,0:0:0:0:
120,152,145699,2,0,P|161:183|181:229,1,100
392,152,146052,2,0,P|350:183|330:229,1,100,8|0,0:0|0:0,0:0:0:0:
108,180,146405,2,0,P|162:196|191:231,1,100,8|0,0:0|0:0,0:0:0:0:
404,180,146758,2,0,P|349:196|320:231,1,100,8|0,0:0|0:0,0:0:0:0:
100,216,147111,2,0,P|161:221|198:247,1,100,8|0,0:0|0:0,0:0:0:0:
412,216,147464,2,0,P|350:221|313:247,1,100,8|0,0:0|0:0,0:0:0:0:
256,368,147817,5,0,0:0:0:0:
248,348,147905,1,0,0:0:0:0:
240,328,147993,1,0,0:0:0:0:
232,308,148082,1,0,0:0:0:0:
224,288,148170,1,0,0:0:0:0:
232,268,148258,1,0,0:0:0:0:
240,248,148346,1,0,0:0:0:0:
248,228,148435,1,0,0:0:0:0:
256,208,148523,1,0,0:0:0:0:
248,188,148611,1,0,0:0:0:0:
240,168,148699,1,0,0:0:0:0:
232,148,148788,1,0,0:0:0:0:
224,128,148876,1,0,0:0:0:0:
232,108,148964,1,0,0:0:0:0:
240,88,149052,1,0,0:0:0:0:
248,68,149141,1,0,0:0:0:0:
256,52,149229,6,0,L|360:52,1,100,0|2,0:0|0:0,0:0:0:0:
456,328,149582,2,0,L|352:328,1,100,0|2,0:0|0:0,0:0:0:0:
128,328,149935,1,2,0:0:0:0:
136,308,150023,1,2,0:0:0:0:
144,288,150111,1,2,0:0:0:0:
152,268,150199,1,2,0:0:0:0:
160,248,150288,1,2,0:0:0:0:
152,228,150376,1,2,0:0:0:0:
144,208,150464,1,2,0:0:0:0:
136,188,150552,1,2,0:0:0:0:
128,168,150641,6,0,B|113:123|113:123|131:68,1,100,4|0,0:0|0:0,0:0:0:0:
252,20,150993,2,0,B|266:64|266:64|248:119,1,100,8|0,0:0|0:0,0:0:0:0:
248,216,151346,1,0,0:0:0:0:
332,164,151523,1,0,0:0:0:0:
396,240,151699,1,8,0:0:0:0:
480,188,151876,1,0,0:0:0:0:
416,112,152052,6,0,P|428:64|468:24,1,100
480,188,152405,2,0,P|504:232|500:280,1,100,8|0,0:0|0:0,0:0:0:0:
428,352,152758,1,0,0:0:0:0:
340,304,152935,1,0,0:0:0:0:
340,304,153023,1,0,0:0:0:0:
340,304,153464,6,0,P|312:336|260:356,1,100,4|0,0:0|0:0,0:0:0:0:
248,256,153817,2,0,P|200:232|148:236,1,100,8|0,0:0|0:0,0:0:0:0:
0,288,154170,1,0,0:0:0:0:
92,360,154346,1,0,0:0:0:0:
184,308,154523,1,8,0:0:0:0:
92,232,154699,5,0,0:0:0:0:
92,232,154788,1,0,0:0:0:0:
92,232,154876,2,0,P|144:216|180:180,1,100
104,28,155229,2,0,P|52:44|16:80,1,100,8|0,0:0|0:0,0:0:0:0:
8,176,155582,1,0,0:0:0:0:
96,132,155758,1,0,0:0:0:0:
96,132,155846,1,0,0:0:0:0:
96,132,156288,6,0,P|132:184|176:200,1,100,4|0,0:0|0:0,0:0:0:0:
256,160,156641,2,0,P|304:136|360:136,1,100,8|0,0:0|0:0,0:0:0:0:
400,304,156993,2,0,P|344:268|328:220,1,100
349,134,157346,1,8,0:0:0:0:
488,140,157523,5,0,0:0:0:0:
488,140,157611,1,0,0:0:0:0:
488,140,157699,1,0,0:0:0:0:
416,216,157876,1,0,0:0:0:0:
349,134,158052,1,8,0:0:0:0:
256,172,158229,1,0,0:0:0:0:
180,108,158405,1,0,0:0:0:0:
36,236,158758,5,2,0:0:0:0:
36,236,158935,1,2,0:0:0:0:
148,216,159111,6,0,P|212:236|236:264,1,100,4|0,0:0|0:0,0:0:0:0:
180,108,159464,2,0,P|116:116|76:96,1,100,8|0,0:0|0:0,0:0:0:0:
248,32,159817,1,0,0:0:0:0:
324,100,159993,1,0,0:0:0:0:
276,188,160170,1,8,0:0:0:0:
344,264,160346,1,0,0:0:0:0:
344,264,160435,1,0,0:0:0:0:
344,264,160523,1,0,0:0:0:0:
324,100,160699,1,0,0:0:0:0:
184,192,160876,5,2,0:0:0:0:
324,100,161229,1,0,0:0:0:0:
276,188,161405,1,0,0:0:0:0:
276,188,161493,1,0,0:0:0:0:
276,188,161582,1,0,0:0:0:0:
56,316,161935,5,4,0:0:0:0:
100,228,162111,1,0,0:0:0:0:
192,268,162288,1,8,0:0:0:0:
148,360,162464,1,0,0:0:0:0:
100,228,162641,1,0,0:0:0:0:
192,128,162817,1,0,0:0:0:0:
276,188,162993,2,0,P|332:212|380:204,1,100,8|0,0:0|0:0,0:0:0:0:
108,136,163346,6,0,P|52:112|4:120,1,100
44,200,163699,1,8,0:0:0:0:
192,128,163876,1,0,0:0:0:0:
276,188,164052,1,0,0:0:0:0:
220,36,164229,1,0,0:0:0:0:
220,36,164317,1,0,0:0:0:0:
136,216,164582,1,8,0:0:0:0:
228,252,164758,6,0,P|272:292|288:336,1,100,4|0,0:0|0:0,0:0:0:0:
136,216,165111,2,0,P|164:172|220:152,1,100,8|0,0:0|0:0,0:0:0:0:
308,208,165464,1,0,0:0:0:0:
392,160,165641,1,0,0:0:0:0:
480,212,165817,1,8,0:0:0:0:
388,60,165993,5,0,0:0:0:0:
388,60,166082,1,0,0:0:0:0:
388,60,166170,2,0,P|448:44|480:20,1,100
264,36,166523,2,0,P|263:92|294:138,1,100,8|0,0:0|0:0,0:0:0:0:
480,212,166876,1,0,0:0:0:0:
392,160,167052,1,0,0:0:0:0:
392,160,167141,1,0,0:0:0:0:
392,160,167229,1,8,0:0:0:0:
444,300,167405,1,8,0:0:0:0:
300,260,167582,6,0,B|251:278|251:278|196:256,1,100,4|0,0:0|0:0,0:0:0:0:
48,212,167935,1,8,0:0:0:0:
48,212,168111,1,0,0:0:0:0:
72,80,168288,1,0,0:0:0:0:
172,168,168464,1,0,0:0:0:0:
191,183,168552,1,0,0:0:0:0:
214,190,168641,2,0,P|270:186|318:154,1,100,8|0,0:0|0:0,0:0:0:0:
376,36,168993,5,0,0:0:0:0:
376,36,169170,1,0,0:0:0:0:
464,160,169346,1,8,0:0:0:0:
464,160,169523,1,0,0:0:0:0:
472,64,169699,1,0,0:0:0:0:
292,136,169876,1,0,0:0:0:0:
448,252,170052,5,2,0:0:0:0:
448,252,170229,1,2,0:0:0:0:
344,224,170405,5,4,0:0:0:0:
268,308,170582,2,0,L|240:364,2,50,0|0|8,0:0|0:0|0:0,0:0:0:0:
196,180,170935,2,0,L|224:236,2,50,4|0|8,0:0|0:0|0:0,0:0:0:0:
164,288,171288,1,0,0:0:0:0:
60,176,171464,1,12,0:0:0:0:
12,316,171641,1,8,0:0:0:0:
96,76,171817,5,0,0:0:0:0:
116,84,171905,1,0,0:0:0:0:
136,92,171993,1,0,0:0:0:0:
156,100,172082,1,0,0:0:0:0:
176,108,172170,1,0,0:0:0:0:
196,100,172258,1,0,0:0:0:0:
216,92,172346,1,0,0:0:0:0:
236,84,172435,1,0,0:0:0:0:
256,76,172523,1,0,0:0:0:0:
276,84,172611,1,0,0:0:0:0:
296,92,172699,1,0,0:0:0:0:
316,100,172788,1,0,0:0:0:0:
336,108,172876,1,0,0:0:0:0:
356,100,172964,1,0,0:0:0:0:
376,92,173052,1,0,0:0:0:0:
396,84,173141,1,0,0:0:0:0:
416,76,173229,6,0,P|476:72|512:88,1,100,4|0,0:0|0:0,0:0:0:0:
488,248,173582,2,0,P|428:252|392:236,1,100,8|0,0:0|0:0,0:0:0:0:
284,188,173935,2,0,P|216:172|180:184,1,100
48,240,174288,1,8,0:0:0:0:
136,128,174464,6,0,P|181:184|180:268,1,150,2|0,0:0|0:0,0:0:0:0:
208,140,174817,2,0,P|218:211|176:284,1,150,2|0,0:0|0:0,0:0:0:0:
268,188,175170,2,0,P|241:255|168:296,1,150,2|0,0:0|0:0,0:0:0:0:
105,306,175523,1,2,0:0:0:0:
64,144,175699,1,8,0:0:0:0:
152,228,175876,1,0,0:0:0:0:
300,260,176052,6,0,P|352:268|404:252,1,100,4|0,0:0|0:0,0:0:0:0:
348,156,176405,1,8,0:0:0:0:
348,156,176493,1,0,0:0:0:0:
348,156,176582,2,0,P|304:128|288:84,1,100
428,48,176935,1,0,0:0:0:0:
472,200,177111,1,8,0:0:0:0:
300,120,177288,6,0,B|312:144|348:156|348:156|316:192|320:240,1,150,2|0,0:0|0:0,0:0:0:0:
356,300,177641,1,2,0:0:0:0:
472,200,177817,1,8,0:0:0:0:
428,48,177993,1,2,0:0:0:0:
300,120,178170,2,0,P|240:136|196:124,1,100
24,204,178523,2,0,P|84:188|128:200,1,100,8|0,0:0|0:0,0:0:0:0:
116,216,178788,1,0,0:0:0:0:
112,236,178876,6,0,P|164:256|208:248,1,100,4|0,0:0|0:0,0:0:0:0:
336,204,179229,1,8,0:0:0:0:
224,108,179405,1,0,0:0:0:0:
224,108,179493,1,0,0:0:0:0:
224,108,179582,2,0,P|176:144|136:144,1,100
336,204,179935,2,0,P|388:212|432:248,1,100,8|0,0:0|0:0,0:0:0:0:
480,360,180288,1,0,0:0:0:0:
480,360,180641,5,8,0:0:0:0:
384,324,180817,1,0,0:0:0:0:
416,232,180993,2,0,P|423:183|402:124,1,100,8|0,0:0|0:0,0:0:0:0:
256,44,181346,1,8,0:0:0:0:
256,44,181523,1,0,0:0:0:0:
256,340,181699,5,4,0:0:0:0:
256,340,182229,1,6,0:0:0:0:
256,44,182582,1,6,0:0:0:0:
256,340,182935,1,6,0:0:0:0:
176,292,183111,6,0,P|132:248|124:204,1,100,2|0,0:0|0:0,0:0:0:0:
256,124,183464,2,0,L|256:232,1,100,2|0,0:0|0:0,0:0:0:0:
336,292,183817,2,0,P|380:248|388:204,1,100,4|0,0:0|0:0,0:0:0:0:
368,104,184170,1,2,0:0:0:0:
368,104,184523,6,0,P|320:128|272:124,1,100,4|0,0:0|0:0,0:0:0:0:
124,68,184876,1,8,0:0:0:0:
264,52,185052,2,0,P|266:105|234:152,1,100
132,188,185405,1,0,0:0:0:0:
132,188,185493,1,0,0:0:0:0:
132,188,185582,1,8,0:0:0:0:
276,144,185758,6,0,P|336:200|404:200,1,150,2|0,0:0|0:0,0:0:0:0:
484,192,186111,2,0,P|415:189|352:251,1,150,2|0,0:0|0:0,0:0:0:0:
320,336,186464,2,0,P|348:284|328:196,1,150,2|0,0:0|0:0,0:0:0:0:
276,144,186817,1,2,0:0:0:0:
168,72,186993,1,8,0:0:0:0:
344,96,187170,1,0,0:0:0:0:
208,188,187346,6,0,P|180:232|180:284,1,100,4|0,0:0|0:0,0:0:0:0:
276,144,187699,2,0,P|251:97|206:71,1,100,8|0,0:0|0:0,0:0:0:0:
276,224,188052,2,0,P|328:226|373:200,1,100
452,128,188405,1,8,0:0:0:0:
344,96,188582,5,2,0:0:0:0:
448,48,188758,1,0,0:0:0:0:
448,48,188846,1,0,0:0:0:0:
448,48,188935,1,2,0:0:0:0:
472,208,189111,1,8,0:0:0:0:
472,208,189288,1,2,0:0:0:0:
344,96,189464,1,0,0:0:0:0:
196,144,189641,2,0,P|136:160|92:148,1,100,0|8,0:0|0:0,0:0:0:0:
8,80,189993,5,0,0:0:0:0:
8,80,190082,1,0,0:0:0:0:
8,80,190170,2,0,P|68:108|92:232,1,200,4|8,0:0|0:0,0:0:0:0:
0,184,190699,1,0,0:0:0:0:
88,88,190876,2,0,P|156:86|196:64,1,100
360,136,191229,2,0,P|291:137|252:160,1,100,8|0,0:0|0:0,0:0:0:0:
196,216,191582,5,0,0:0:0:0:
280,64,191758,1,0,0:0:0:0:
280,64,191846,1,0,0:0:0:0:
280,64,191935,1,8,0:0:0:0:
360,136,192111,1,0,0:0:0:0:
216,116,192288,1,0,0:0:0:0:
276,248,192464,1,0,0:0:0:0:
360,136,192641,1,8,0:0:0:0:
276,248,192817,1,0,0:0:0:0:
388,232,192993,6,0,B|436:244|436:244|488:232,1,100,12|0,0:0|0:0,0:0:0:0:
396,336,193346,2,0,B|348:324|348:324|296:336,1,100,8|0,0:0|0:0,0:0:0:0:
152,288,193699,1,8,0:0:0:0:
152,288,193876,1,0,0:0:0:0:
256,192,194052,1,8,0:0:0:0:
256,192,194229,1,8,0:0:0:0:
256,192,194405,12,2,196876,0:0:0:0:
256,192,197229,5,4,0:0:0:0:
328,64,197582,2,0,P|380:40|440:44,1,100,8|0,0:0|0:0,0:0:0:0:
500,188,197935,2,0,P|440:176|408:152,1,100
260,108,198288,6,0,P|216:120|176:176,1,100,8|0,0:0|0:0,0:0:0:0:
252,276,198641,2,0,P|296:264|336:208,1,100
336,140,198993,1,8,0:0:0:0:
216,40,199170,1,0,0:0:0:0:
136,88,199346,2,0,P|88:104|28:80,1,100
204,212,199699,2,0,P|252:196|312:220,1,100,8|0,0:0|0:0,0:0:0:0:
298,209,200405,5,4,0:0:0:0:
128,352,200758,2,0,P|76:336|48:292,1,100,0|0,0:0|0:0,0:0:0:0:
128,268,201111,2,0,P|176:276|224:252,1,100,8|0,0:0|0:0,0:0:0:0:
320,124,201464,5,0,0:0:0:0:
298,209,201641,1,0,0:0:0:0:
364,272,201817,1,8,0:0:0:0:
224,152,201993,1,0,0:0:0:0:
384,184,202170,1,0,0:0:0:0:
268,296,202346,1,0,0:0:0:0:
268,296,202876,5,4,0:0:0:0:
72,68,203229,1,8,0:0:0:0:
156,40,203405,1,0,0:0:0:0:
224,100,203582,2,0,P|263:132|316:136,1,100
296,48,203935,2,0,P|356:32|400:40,1,100,8|0,0:0|0:0,0:0:0:0:
460,100,204288,5,0,0:0:0:0:
420,180,204464,1,0,0:0:0:0:
488,240,204641,1,8,0:0:0:0:
448,320,204817,1,0,0:0:0:0:
384,260,204993,6,0,P|336:244|284:248,1,100
140,340,205346,2,0,P|188:356|240:352,1,100,8|0,0:0|0:0,0:0:0:0:
384,260,205699,6,0,B|408:216|408:216|396:160,1,100
248,28,206052,2,0,B|199:112|199:112|227:210,1,200,8|0,0:0|0:0,0:0:0:0:
412,132,206582,1,0,0:0:0:0:
310,163,206758,2,0,B|262:179|262:179|215:163,1,100,8|2,0:0|2:0,0:0:0:0:
256,328,207288,5,2,2:0:0:0:
256,328,207641,1,2,2:0:0:0:
216,164,207817,1,8,0:0:0:0:
239,148,207905,1,0,0:0:0:0:
265,138,207993,1,8,0:0:0:0:
293,133,208082,1,0,0:0:0:0:
321,135,208170,1,8,0:0:0:0:
347,143,208258,1,8,0:0:0:0:
372,156,208346,1,8,0:0:0:0:
393,175,208435,1,8,0:0:0:0:
410,197,208523,1,4,0:0:0:0:
413,197,208876,6,0,P|467:176|471:44,1,200,8|0,0:0|0:0,0:0:0:0:
160,68,209582,1,8,0:0:0:0:
76,36,209758,1,0,0:0:0:0:
60,212,209935,6,0,P|92:172|96:120,1,100
272,152,210288,2,0,P|220:144|168:160,1,100,8|0,0:0|0:0,0:0:0:0:
60,212,210641,1,0,0:0:0:0:
156,352,210817,1,0,0:0:0:0:
107,281,210993,6,0,B|60:298|60:298|12:283,1,100,8|0,0:0|0:0,0:0:0:0:
256,314,211346,2,0,B|304:297|304:297|352:313,1,100
199,247,211699,6,0,B|290:214|290:214|349:121,1,200,8|0,0:0|0:0,0:0:0:0:
296,32,212229,1,0,0:0:0:0:
424,161,212405,1,8,0:0:0:0:
364,57,212582,1,0,0:0:0:0:
368,224,212758,6,0,P|324:252|276:252,1,100
72,156,213111,2,0,P|123:149|167:169,1,100,8|0,0:0|0:0,0:0:0:0:
216,304,213464,1,0,0:0:0:0:
216,304,213641,1,0,0:0:0:0:
300,160,213817,1,8,0:0:0:0:
300,160,213993,1,0,0:0:0:0:
196,28,214170,1,0,0:0:0:0:
276,84,214346,5,0,0:0:0:0:
276,84,214435,1,0,0:0:0:0:
276,84,214523,2,0,P|332:88|368:120,1,100,8|0,0:0|0:0,0:0:0:0:
504,248,214876,2,0,P|448:244|412:212,1,100
456,88,215229,1,8,0:0:0:0:
348,276,215405,1,0,0:0:0:0:
268,236,215582,6,0,B|220:223|220:223|159:238,1,100
32,324,215935,2,0,B|79:336|79:336|140:321,1,100,8|0,0:0|0:0,0:0:0:0:
244,360,216288,1,0,0:0:0:0:
348,276,216464,1,0,0:0:0:0:
348,276,216552,1,0,0:0:0:0:
348,276,216641,1,8,0:0:0:0:
248,152,216817,1,0,0:0:0:0:
300,80,216993,6,0,L|400:80,1,100
340,168,217346,2,0,L|440:168,1,100,8|0,0:0|0:0,0:0:0:0:
260,248,217699,2,0,L|160:248,1,100,8|0,0:0|0:0,0:0:0:0:
220,336,218052,2,0,L|120:336,1,100,8|0,0:0|0:0,0:0:0:0:
260,248,218405,5,8,0:0:0:0:
384,160,218582,1,0,0:0:0:0:
256,220,218758,1,8,0:0:0:0:
288,68,218935,1,0,0:0:0:0:
136,108,219111,1,8,0:0:0:0:
116,123,219199,1,0,0:0:0:0:
99,142,219288,1,8,0:0:0:0:
88,163,219376,1,0,0:0:0:0:
81,187,219464,1,8,0:0:0:0:
79,212,219552,1,8,0:0:0:0:
83,237,219641,1,8,0:0:0:0:
92,260,219729,1,8,0:0:0:0:
106,281,219817,1,0,0:0:0:0:
256,220,220170,5,8,0:0:0:0:
348,144,220346,1,0,0:0:0:0:
348,144,220435,1,0,0:0:0:0:
348,144,220523,1,0,0:0:0:0:
371,263,220699,1,0,0:0:0:0:
256,220,220876,2,0,P|232:172|240:112,1,100,8|0,0:0|0:0,0:0:0:0:
440,160,221229,5,0,0:0:0:0:
371,263,221405,2,0,P|342:306|294:326,1,100,0|8,0:0|0:0,0:0:0:0:
201,328,221758,1,0,0:0:0:0:
172,232,221935,1,0,0:0:0:0:
71,275,222111,1,0,0:0:0:0:
63,287,222199,1,0,0:0:0:0:
55,299,222288,1,8,0:0:0:0:
4,184,222464,1,0,0:0:0:0:
20,180,222552,1,0,0:0:0:0:
36,176,222641,1,0,0:0:0:0:
224,144,222905,5,0,0:0:0:0:
224,144,222993,2,0,P|172:148|128:108,1,100,8|0,0:0|0:0,0:0:0:0:
356,32,223346,2,0,P|404:68|420:104,1,100
396,284,223699,1,8,0:0:0:0:
336,176,223876,1,0,0:0:0:0:
472,220,224052,6,0,B|488:272|488:272|472:316,1,100
260,232,224405,1,8,0:0:0:0:
260,232,224493,1,0,0:0:0:0:
260,232,224582,2,0,B|244:180|244:180|260:136,1,100
376,24,224935,1,0,0:0:0:0:
416,168,225111,1,8,0:0:0:0:
320,292,225288,1,0,0:0:0:0:
88,244,225464,6,0,P|128:188|220:192,1,150
260,232,225817,2,0,P|232:184|232:136,1,100,8|0,0:0|0:0,0:0:0:0:
384,28,226170,2,0,P|374:83|340:114,1,100
144,80,226523,1,8,0:0:0:0:
144,80,226611,1,0,0:0:0:0:
144,80,226699,1,0,0:0:0:0:
292,36,226876,5,0,0:0:0:0:
344,188,227052,1,0,0:0:0:0:
188,240,227229,2,0,B|140:256|140:256|88:240,1,100,8|0,0:0|0:0,0:0:0:0:
360,108,227582,2,0,B|408:92|408:92|460:108,1,100
512,188,227935,5,8,0:0:0:0:
460,288,228111,1,0,0:0:0:0:
440,308,228199,1,0,0:0:0:0:
416,316,228288,2,0,P|369:299|337:244,1,100
96,316,228641,2,0,P|142:299|174:244,1,100,8|0,0:0|0:0,0:0:0:0:
392,276,228993,2,0,P|356:236|344:188,1,100,8|0,0:0|0:0,0:0:0:0:
120,276,229346,2,0,P|156:236|168:188,1,100,8|0,0:0|0:0,0:0:0:0:
256,40,229699,5,0,0:0:0:0:
252,60,229788,1,0,0:0:0:0:
248,80,229876,1,0,0:0:0:0:
244,100,229964,1,0,0:0:0:0:
248,120,230052,1,0,0:0:0:0:
252,140,230141,1,0,0:0:0:0:
256,160,230229,1,0,0:0:0:0:
260,180,230317,1,0,0:0:0:0:
256,200,230405,1,0,0:0:0:0:
252,220,230493,1,0,0:0:0:0:
248,240,230582,1,0,0:0:0:0:
244,260,230670,1,0,0:0:0:0:
248,280,230758,1,0,0:0:0:0:
252,300,230846,1,0,0:0:0:0:
256,320,230935,1,0,0:0:0:0:
260,340,231023,1,0,0:0:0:0:
264,360,231111,1,0,0:0:0:0:
256,192,231199,12,8,232346,0:0:0:0:
256,192,232699,5,8,0:0:0:0:
256,192,232876,1,8,0:0:0:0:
256,192,233229,5,2,0:0:0:0:
256,192,233582,1,2,0:0:0:0:
356,56,233935,6,0,P|412:44|460:60,1,100,4|0,0:0|0:0,0:0:0:0:
452,208,234288,2,0,P|396:220|348:204,1,100,8|0,0:0|0:0,0:0:0:0:
256,112,234641,1,0,0:0:0:0:
144,176,234817,1,0,0:0:0:0:
144,176,234905,1,0,0:0:0:0:
144,176,234993,1,8,0:0:0:0:
196,256,235170,5,2,0:0:0:0:
256,112,235346,1,0,0:0:0:0:
144,176,235523,1,2,0:0:0:0:
272,80,235699,1,8,0:0:0:0:
144,64,235876,1,2,0:0:0:0:
256,112,236052,1,0,0:0:0:0:
368,160,236229,1,2,0:0:0:0:
472,204,236405,2,0,P|470:257|434:297,1,100,8|0,0:0|0:0,0:0:0:0:
368,160,236758,6,0,P|400:113|450:92,1,100
324,336,237111,1,8,0:0:0:0:
324,336,237199,1,0,0:0:0:0:
324,336,237288,1,0,0:0:0:0:
244,168,237464,2,0,B|223:121|223:121|236:68,1,100
396,28,237817,1,8,0:0:0:0:
444,188,237993,5,2,0:0:0:0:
292,248,238170,1,0,0:0:0:0:
268,268,238258,1,0,0:0:0:0:
240,276,238346,2,0,P|176:271|142:241,1,100,2|8,0:0|0:0,0:0:0:0:
308,56,238699,1,2,0:0:0:0:
172,168,238876,6,0,L|60:180,1,100
8,28,239229,2,0,L|115:39,1,100,8|0,0:0|0:0,0:0:0:0:
308,56,239582,5,4,0:0:0:0:
236,124,239758,1,0,0:0:0:0:
236,124,239846,1,0,0:0:0:0:
236,124,239935,1,8,0:0:0:0:
392,60,240111,1,0,0:0:0:0:
312,160,240288,1,0,0:0:0:0:
312,160,240376,1,0,0:0:0:0:
312,160,240464,1,0,0:0:0:0:
472,32,240641,1,8,0:0:0:0:
396,176,240817,1,0,0:0:0:0:
308,56,240993,5,0,0:0:0:0:
476,120,241170,1,0,0:0:0:0:
340,240,241346,2,0,P|284:256|244:244,1,100,8|0,0:0|0:0,0:0:0:0:
72,120,241699,2,0,P|130:119|165:140,1,100
256,324,242052,1,8,0:0:0:0:
256,324,242229,1,0,0:0:0:0:
256,60,242405,5,4,0:0:0:0:
256,60,242935,1,14,0:0:0:0:
256,324,243288,1,14,0:0:0:0:
380,192,243641,1,14,0:0:0:0:
308,120,243817,6,0,L|204:120,1,100,2|0,0:0|0:0,0:0:0:0:
256,192,244170,2,0,L|152:192,1,100,2|0,0:0|0:0,0:0:0:0:
308,264,244523,2,0,L|204:264,1,100,0|0,0:0|0:0,0:0:0:0:
104,348,244876,1,0,0:0:0:0:
104,348,244964,1,0,0:0:0:0:
104,348,245052,1,0,0:0:0:0:
104,348,245141,1,0,0:0:0:0:
104,348,245229,6,0,B|124:304|124:304|104:248,1,100,4|0,0:0|0:0,0:0:0:0:
32,40,245582,1,8,0:0:0:0:
32,40,245670,1,0,0:0:0:0:
32,40,245758,2,0,B|12:84|12:84|32:140,1,100
108,184,246111,1,0,0:0:0:0:
192,128,246288,1,8,0:0:0:0:
240,244,246464,6,0,B|340:268|340:268|444:240,1,200,2|2,0:0|0:0,0:0:0:0:
512,124,246993,1,8,0:0:0:0:
416,28,247170,1,2,0:0:0:0:
416,28,247258,1,0,0:0:0:0:
416,28,247346,1,0,0:0:0:0:
384,256,247523,1,2,0:0:0:0:
240,244,247699,1,8,0:0:0:0:
353,119,247876,5,0,0:0:0:0:
365,143,247964,1,0,0:0:0:0:
379,165,248052,2,0,B|403:213|403:213|384:256,1,100
248,128,248405,2,0,B|224:80|224:80|244:36,1,100,8|0,0:0|0:0,0:0:0:0:
240,244,248758,2,0,B|264:292|264:292|244:336,1,100
112,368,249111,1,8,0:0:0:0:
112,368,249199,1,0,0:0:0:0:
112,368,249288,1,2,0:0:0:0:
8,264,249464,6,0,B|56:276|56:276|108:264,1,100,0|2,0:0|0:0,0:0:0:0:
304,128,249817,2,0,B|256:116|256:116|204:128,1,100,8|2,0:0|0:0,0:0:0:0:
240,244,250170,1,0,0:0:0:0:
240,244,250258,1,0,0:0:0:0:
240,244,250346,1,0,0:0:0:0:
112,128,250523,5,8,0:0:0:0:
268,40,250699,1,0,0:0:0:0:
268,40,250788,1,0,0:0:0:0:
268,40,250876,2,0,B|304:132|304:132|264:232,1,200,4|8,0:0|0:0,0:0:0:0:
372,348,251405,1,0,0:0:0:0:
436,256,251582,2,0,B|418:210|418:210|438:160,1,100
348,24,251935,2,0,B|366:70|366:70|346:120,1,100,8|0,0:0|0:0,0:0:0:0:
296,232,252288,5,0,0:0:0:0:
164,152,252464,1,0,0:0:0:0:
164,152,252552,1,0,0:0:0:0:
164,152,252641,1,8,0:0:0:0:
236,288,252817,1,0,0:0:0:0:
76,160,252993,5,0,0:0:0:0:
220,212,253170,1,0,0:0:0:0:
68,244,253346,1,8,0:0:0:0:
108,84,253523,5,0,0:0:0:0:
148,248,253699,1,0,0:0:0:0:
232,104,253876,1,0,0:0:0:0:
224,80,253964,1,0,0:0:0:0:
216,56,254052,1,8,0:0:0:0:
368,60,254229,1,0,0:0:0:0:
360,84,254317,1,0,0:0:0:0:
352,108,254405,1,8,0:0:0:0:
380,228,254582,1,0,0:0:0:0:
400,212,254670,1,0,0:0:0:0:
420,196,254758,1,8,0:0:0:0:
436,320,254935,1,8,0:0:0:0:
256,192,255111,12,4,256523,0:0:0:0:
256,192,263229,12,0,267641,0:0:0:0:
256,192,267817,5,4,0:0:0:0:
256,192,268170,2,0,B|324:208|344:176|424:196,1,150.000005722046,2|0,0:0|0:0,0:0:0:0:
484,320,268876,1,2,0:0:0:0:
336,348,269229,6,0,B|280:332|240:324|176:336,1,150.000005722046,2|0,0:0|0:0,0:0:0:0:
40,352,269935,2,0,L|72:272,1,75.0000028610231,2|0,0:0|0:0,0:0:0:0:
39,212,270288,2,0,L|67:282,1,75.0000028610231
188,333,270641,6,0,B|220:296|224:248|208:208,1,112.500004291535,2|2,0:0|0:0,0:0:0:0:
240,123,271170,2,0,B|208:160|204:208|220:248,1,112.500004291535,2|2,0:0|0:0,0:0:0:0:
418,233,271699,2,0,L|344:224,1,75.0000028610231,2|0,0:0|0:0,0:0:0:0:
476,160,272052,6,0,P|488:104|464:40,1,112.500004291535,2|2,0:0|0:0,0:0:0:0:
336,80,272582,2,0,B|280:88|272:72|212:80,1,112.500004291535,2|2,0:0|0:0,0:0:0:0:
96,40,273111,2,0,L|64:128,1,75.0000028610231,2|0,0:0|0:0,0:0:0:0:
132,156,273464,6,0,P|172:208|168:268,1,112.500004291535,4|0,0:0|0:0,0:0:0:0:
144,276,273817,2,0,B|220:256|224:296|316:276,1,150.000005722046,2|0,0:0|0:0,0:0:0:0:
436,328,274523,1,2,0:0:0:0:
492,140,274876,6,0,B|424:164|416:120|328:148,1,150.000005722046,2|0,0:0|0:0,0:0:0:0:
160,64,275582,2,0,L|212:136,1,75.0000028610231,2|0,0:0|0:0,0:0:0:0:
352,64,275935,2,0,L|300:136,1,75.0000028610231
256,180,276288,6,0,P|268:216|228:280,1,112.500004291535,2|2,0:0|0:0,0:0:0:0:
135,319,276817,2,0,P|177:284|233:277,1,112.500004291535,2|2,0:0|0:0,0:0:0:0:
356,332,277346,2,0,L|440:344,1,75.0000028610231,2|0,0:0|0:0,0:0:0:0:
472,216,277699,6,0,P|472:148|424:108,1,112.500004291535,2|2,0:0|0:0,0:0:0:0:
276,40,278229,2,0,P|276:108|324:148,1,112.500004291535,2|2,0:0|0:0,0:0:0:0:
276,40,278758,2,0,L|184:60,1,75.0000028610231,0|0,1:0|0:0,0:0:0:0:
76,172,279111,6,0,P|136:208|216:188,1,150,4|0,0:0|0:0,0:0:0:0:
244,172,279464,2,0,P|292:152|352:168,1,100,8|0,0:0|0:0,0:0:0:0:
456,232,279817,1,0,0:0:0:0:
296,240,279993,1,0,0:0:0:0:
368,92,280170,1,8,0:0:0:0:
456,232,280346,1,0,0:0:0:0:
456,232,280435,1,0,0:0:0:0:
456,232,280523,6,0,P|384:208|368:140,1,150
472,64,280876,2,0,L|440:164,1,100,8|0,0:0|0:0,0:0:0:0:
260,84,281229,1,0,0:0:0:0:
332,152,281405,1,0,0:0:0:0:
296,240,281582,2,0,P|255:275|197:277,1,100,8|0,0:0|0:0,0:0:0:0:
364,296,281935,6,0,P|422:323|446:365,1,100,4|0,0:0|0:0,0:0:0:0:
216,192,282288,2,0,P|157:164|133:122,1,100,8|0,0:0|0:0,0:0:0:0:
240,72,282641,1,0,0:0:0:0:
332,152,282817,2,0,L|380:128,1,50
396,60,282993,2,0,P|376:108|428:196,1,150,8|0,0:0|0:0,0:0:0:0:
480,228,283346,6,0,L|452:332,1,100
328,364,283699,2,0,L|312:256,1,100,8|0,0:0|0:0,0:0:0:0:
224,156,284052,5,0,0:0:0:0:
232,180,284141,1,0,0:0:0:0:
124,212,284317,1,0,0:0:0:0:
132,236,284405,1,8,0:0:0:0:
20,260,284582,1,0,0:0:0:0:
136,332,284758,5,8,0:0:0:0:
136,332,284935,1,0,0:0:0:0:
152,100,285111,1,8,0:0:0:0:
152,100,285288,1,0,0:0:0:0:
360,236,285464,1,8,0:0:0:0:
360,236,285641,1,0,0:0:0:0:
208,252,285817,5,8,0:0:0:0:
208,252,285993,1,0,0:0:0:0:
376,104,286170,1,8,0:0:0:0:
376,104,286346,1,0,0:0:0:0:
420,324,286523,1,8,0:0:0:0:
420,324,286699,1,0,0:0:0:0:
256,168,286876,5,8,0:0:0:0:
256,168,287052,1,0,0:0:0:0:
40,228,287229,1,8,0:0:0:0:
40,228,287405,1,0,0:0:0:0:
120,72,287582,6,0,L|96:128,1,50
176,140,287758,2,0,L|176:196,1,50
256,168,287935,2,0,L|292:212,1,50
340,144,288111,2,0,L|396:156,1,50
500,180,288288,6,0,L|440:208,1,50
472,292,288464,2,0,L|416:272,1,50
392,376,288641,2,0,L|360:320,1,50
268,360,288817,2,0,L|300:300,1,50
332,244,288993,1,4,0:0:0:0:
256,192,289082,12,0,290052,0:0:0:0:
72,300,290405,6,0,B|120:316|120:316|172:304,1,100,4|0,0:0|0:0,0:0:0:0:
396,264,290758,1,8,0:0:0:0:
312,92,290935,1,0,0:0:0:0:
116,164,291111,1,0,0:0:0:0:
248,312,291288,5,0,0:0:0:0:
248,312,291376,1,0,0:0:0:0:
248,312,291464,1,0,0:0:0:0:
263,109,291641,2,0,B|287:153|287:153|273:201,1,100,2|0,0:0|0:0,0:0:0:0:
105,358,291993,2,0,B|81:314|81:314|95:266,1,100,2|0,0:0|0:0,0:0:0:0:
313,269,292346,5,2,0:0:0:0:
263,109,292523,2,0,P|275:49|311:17,1,100,0|2,0:0|0:0,0:0:0:0:
500,148,292876,2,0,P|448:116|392:120,1,100,8|0,0:0|0:0,0:0:0:0:
312,272,293229,5,4,0:0:0:0:
180,152,293405,1,0,0:0:0:0:
352,192,293582,1,8,0:0:0:0:
352,192,293670,1,0,0:0:0:0:
352,192,293758,1,0,0:0:0:0:
228,324,293935,2,0,P|180:344|128:332,1,100
40,160,294288,5,8,0:0:0:0:
32,136,294376,1,0,0:0:0:0:
24,112,294464,2,0,P|72:92|124:104,1,100,2|0,0:0|0:0,0:0:0:0:
272,184,294817,1,2,0:0:0:0:
192,356,294993,1,8,0:0:0:0:
28,272,295170,1,2,0:0:0:0:
160,148,295346,6,0,P|155:199|175:241,1,100
328,356,295699,1,8,0:0:0:0:
448,168,295876,1,0,0:0:0:0:
448,168,295964,1,0,0:0:0:0:
448,168,296052,2,0,P|399:124|307:130,1,150,4|0,0:0|0:0,0:0:0:0:
272,184,296405,2,0,L|152:216,1,100,8|0,0:0|0:0,0:0:0:0:
32,128,296758,5,0,0:0:0:0:
204,32,296935,1,0,0:0:0:0:
204,32,297023,1,0,0:0:0:0:
204,32,297111,1,8,0:0:0:0:
344,152,297288,1,8,0:0:0:0:
352,176,297376,1,0,0:0:0:0:
360,200,297464,2,0,B|376:252|376:252|356:308,1,100
188,376,297817,5,8,0:0:0:0:
104,208,297993,1,0,0:0:0:0:
268,128,298170,1,8,0:0:0:0:
356,304,298346,2,0,B|408:316|408:316|456:304,1,100,0|8,0:0|0:0,0:0:0:0:
512,216,298699,1,0,0:0:0:0:
364,44,298876,5,4,0:0:0:0:
256,340,299405,1,6,0:0:0:0:
256,340,299758,1,6,0:0:0:0:
256,44,300111,1,6,0:0:0:0:
180,108,300288,6,0,P|152:156|156:208,1,100,2|0,0:0|0:0,0:0:0:0:
332,108,300641,2,0,P|360:156|356:208,1,100,2|0,0:0|0:0,0:0:0:0:
256,340,300993,1,4,0:0:0:0:
256,340,301346,1,2,0:0:0:0:
256,340,301699,6,0,P|196:352|152:332,1,100,4|0,0:0|0:0,0:0:0:0:
40,144,302052,2,0,P|100:132|144:152,1,100,8|0,0:0|0:0,0:0:0:0:
272,208,302405,1,0,0:0:0:0:
88,296,302582,1,0,0:0:0:0:
220,125,302758,5,8,0:0:0:0:
245,119,302846,1,0,0:0:0:0:
269,112,302935,2,0,B|316:100|316:100|368:116,1,100,2|0,0:0|0:0,0:0:0:0:
512,256,303288,2,0,B|465:268|465:268|413:252,1,100,2|8,0:0|0:0,0:0:0:0:
272,208,303641,1,2,0:0:0:0:
448,144,303817,1,0,0:0:0:0:
448,144,303905,1,0,0:0:0:0:
448,144,303993,1,2,0:0:0:0:
412,336,304170,1,8,0:0:0:0:
412,336,304258,1,0,0:0:0:0:
412,336,304346,1,0,0:0:0:0:
256,352,304523,6,0,P|204:340|168:296,1,100,0|0,0:0|0:0,0:0:0:0:
270,114,304876,2,0,P|286:162|272:208,1,100,8|0,0:0|0:0,0:0:0:0:
56,260,305229,1,0,0:0:0:0:
148,140,305405,1,0,0:0:0:0:
148,140,305493,1,0,0:0:0:0:
148,140,305582,1,8,0:0:0:0:
272,232,305758,1,2,0:0:0:0:
176,356,305935,1,0,0:0:0:0:
64,152,306111,6,0,B|47:106|47:106|69:48,2,100,2|8|2,0:0|0:0|0:0,0:0:0:0:
176,356,306641,2,0,B|192:310|192:310|170:252,1,100,8|0,0:0|0:0,0:0:0:0:
56,244,306993,1,8,0:0:0:0:
152,80,307170,1,0,0:0:0:0:
152,80,307258,1,0,0:0:0:0:
152,80,307346,1,4,0:0:0:0:
328,172,307523,1,0,0:0:0:0:
244,344,307699,6,0,P|236:288|256:248,1,100,8|0,0:0|0:0,0:0:0:0:
464,356,308052,2,0,P|412:344|376:312,1,100
444,72,308405,2,0,P|476:124|468:180,1,100,8|0,0:0|0:0,0:0:0:0:
392,232,308758,1,0,0:0:0:0:
220,120,308935,5,0,0:0:0:0:
220,120,309023,1,0,0:0:0:0:
220,120,309111,1,8,0:0:0:0:
372,24,309288,1,0,0:0:0:0:
388,140,309464,5,8,0:0:0:0:
388,140,309552,1,0,0:0:0:0:
388,140,309641,1,0,0:0:0:0:
304,232,309817,1,8,0:0:0:0:
236,36,309993,1,0,0:0:0:0:
392,232,310170,5,8,0:0:0:0:
392,232,310258,1,0,0:0:0:0:
392,232,310346,1,0,0:0:0:0:
156,264,310523,1,8,0:0:0:0:
156,264,310699,1,0,0:0:0:0:
88,48,310876,1,8,0:0:0:0:
88,48,310964,1,0,0:0:0:0:
88,48,311052,1,0,0:0:0:0:
316,100,311229,1,8,0:0:0:0:
316,100,311405,1,0,0:0:0:0:
256,192,311582,12,4,312993,0:0:0:0:
103,342,313170,5,0,0:0:0:0:
103,342,313346,2,0,L|215:336,1,100,8|0,0:0|0:0,0:0:0:0:
409,342,313699,2,0,L|297:336,1,100
256,252,314052,2,0,B|250:212|250:212|260:192|260:192|256:144,1,100,8|0,0:0|0:0,0:0:0:0:
340,212,314405,6,0,L|456:200,1,100
172,212,314758,2,0,L|56:200,1,100,8|0,0:0|0:0,0:0:0:0:
256,252,315111,1,0,0:0:0:0:
256,352,315288,1,0,0:0:0:0:
256,352,315376,1,0,0:0:0:0:
309,35,315817,6,0,P|324:86|304:140,1,100,4|0,0:0|0:0,0:0:0:0:
204,180,316170,2,0,P|188:128|208:75,1,100,8|0,0:0|0:0,0:0:0:0:
311,130,316523,2,0,P|326:181|306:234,1,100
206,274,316876,2,0,P|190:222|210:169,1,100,8|0,0:0|0:0,0:0:0:0:
412,241,317229,6,0,L|313:224,1,100
107,290,317582,2,0,L|205:273,1,100,8|0,0:0|0:0,0:0:0:0:
256,72,317935,1,0,0:0:0:0:
256,172,318111,1,0,0:0:0:0:
256,172,318199,1,0,0:0:0:0:
256,340,318464,5,0,0:0:0:0:
256,340,318552,1,0,0:0:0:0:
256,340,318641,2,0,L|368:328,1,100,4|0,0:0|0:0,0:0:0:0:
256,340,318993,2,0,L|144:328,1,100,8|0,0:0|0:0,0:0:0:0:
395,242,319346,2,0,P|363:280|355:329,1,100
116,242,319699,2,0,P|148:280|156:329,1,100,8|0,0:0|0:0,0:0:0:0:
256,220,320052,6,0,L|256:96,1,100
204,36,320405,1,8,0:0:0:0:
308,36,320582,1,0,0:0:0:0:
256,220,320758,1,0,0:0:0:0:
256,220,321111,1,2,2:0:0:0:
256,220,321288,1,2,2:0:0:0:
332,284,321464,6,0,B|380:296|380:296|420:340,1,100,4|0,0:0|0:0,0:0:0:0:
472,192,321817,2,0,B|424:204|420:180|372:192,1,100,8|0,0:0|0:0,0:0:0:0:
332,100,322170,2,0,B|380:88|380:88|420:44,1,100
236,140,322523,2,0,L|124:128,1,100,8|0,0:0|0:0,0:0:0:0:
136,254,322876,6,0,L|235:243,1,100
64,192,323229,1,2,2:0:0:0:
320,192,323582,5,0,0:0:0:0:
64,192,323758,1,0,0:0:0:0:
64,192,323846,1,0,0:0:0:0:
64,192,323935,1,0,0:0:0:0:
320,192,324111,1,0,0:0:0:0:
320,192,324199,1,0,0:0:0:0:
320,192,324288,6,0,P|328:232|292:296,1,100,4|0,0:0|0:0,0:0:0:0:
396,324,324641,2,0,L|508:344,1,100,8|0,0:0|0:0,0:0:0:0:
116,324,324993,2,0,L|4:344,1,100
206,284,325346,2,0,L|224:160,1,100,8|0,0:0|0:0,0:0:0:0:
12,176,325699,6,0,P|56:196|84:252,1,100
220,185,326052,2,0,P|176:165|148:109,1,100,8|0,0:0|0:0,0:0:0:0:
200,36,326405,1,0,0:0:0:0:
300,56,326582,1,0,0:0:0:0:
300,56,326670,1,0,0:0:0:0:
388,292,327111,6,0,B|416:252|416:252|484:240,1,100,4|0,0:0|0:0,0:0:0:0:
466,140,327464,2,0,B|416:132|416:132|388:92,1,100,8|0,0:0|0:0,0:0:0:0:
308,192,327817,2,0,L|220:248,1,100
179,337,328170,2,0,P|131:293|123:257,1,100,8|0,0:0|0:0,0:0:0:0:
179,47,328523,6,0,P|131:91|123:127,1,100
256,100,328876,2,0,L|354:85,1,100,8|0,0:0|0:0,0:0:0:0:
354,298,329229,2,0,L|256:284,1,100
256,284,329493,1,0,0:0:0:0:
256,284,329582,1,0,0:0:0:0:
256,284,329670,1,0,0:0:0:0:
256,284,329758,1,0,0:0:0:0:
440,192,329935,6,0,L|461:93,1,100,4|0,0:0|0:0,0:0:0:0:
232,172,330288,2,0,B|264:176|264:176|292:164|292:164|340:168,1,100,8|0,0:0|0:0,0:0:0:0:
64,128,330641,2,0,L|92:232,1,100
329,167,330993,2,0,P|340:108|320:60,1,100,8|0,0:0|0:0,0:0:0:0:
192,336,331346,6,0,L|328:348,1,100
488,272,331699,2,0,L|384:284,1,100,8|0,0:0|0:0,0:0:0:0:
256,232,332052,1,0,0:0:0:0:
256,232,332405,5,2,2:0:0:0:
256,232,332582,1,2,2:0:0:0:
208,68,332758,5,4,0:0:0:0:
304,68,332935,1,2,0:0:0:0:
208,68,333288,1,2,0:0:0:0:
304,68,333641,1,2,0:0:0:0:
208,68,333993,1,2,0:0:0:0:
304,68,334346,1,2,0:0:0:0:
256,320,334699,1,2,0:0:0:0:
256,188,334876,5,0,0:0:0:0:
256,188,334964,1,0,0:0:0:0:
256,188,335052,2,0,L|256:240,6,50,0|0|0|0|0|0|4,0:0|0:0|0:0|0:0|0:0|0:0|0:0,0:0:0:0:
4,84,335935,6,0,L|204:116,1,200,8|0,0:0|0:0,0:0:0:0:
508,84,336641,2,0,L|308:116,1,200,8|0,0:0|0:0,0:0:0:0:
256,364,337346,6,0,B|248:300|248:300|264:240|264:240|256:168,1,200,8|0,0:0|0:0,0:0:0:0:
80,264,338052,2,0,L|196:232,1,100,8|0,0:0|0:0,0:0:0:0:
432,264,338405,6,0,L|316:232,1,100
256,166,338758,2,0,L|256:54,1,100,8|0,0:0|0:0,0:0:0:0:
352,156,339111,2,0,P|344:216|216:252,1,200,0|8,0:0|0:0,0:0:0:0:
136,208,339641,2,0,L|164:112,1,100
376,208,340170,6,0,L|348:112,1,100,8|0,0:0|0:0,0:0:0:0:
192,296,340523,1,2,2:0:0:0:
320,296,340699,1,0,2:0:0:0:
192,296,340876,1,2,2:0:0:0:
320,296,341052,1,0,2:0:0:0:
120,336,341229,6,0,P|112:276|232:220,1,200,0|8,0:0|0:0,0:0:0:0:
392,48,341935,2,0,P|400:108|280:164,1,200,0|8,0:0|0:0,0:0:0:0:
256,76,342464,2,0,L|152:76,1,100
256,308,342993,6,0,L|360:308,1,100,8|0,0:0|0:0,0:0:0:0:
248,224,343346,2,0,P|204:240|172:288,1,100
336,216,343699,2,0,L|300:68,1,150,8|0,0:0|2:0,0:0:0:0:
300,70,344052,6,0,B|352:80|352:80|400:68,1,100
512,196,344405,2,0,B|460:186|460:186|412:198,1,100,8|0,0:0|0:0,0:0:0:0:
340,348,344758,2,0,P|284:316|304:196,1,200,0|8,0:0|0:0,0:0:0:0:
236,120,345288,2,0,L|120:120,1,100
64,192,345641,5,2,2:0:0:0:
200,336,345993,1,2,2:0:0:0:
288,292,346170,2,0,L|408:292,1,100,2|0,2:0|2:0,0:0:0:0:
480,332,346523,2,0,L|360:332,1,100,2|0,2:0|2:0,0:0:0:0:
200,336,346876,1,4,0:0:0:0:
