osu file format v14

[General]
AudioFilename: audio.mp3
AudioLeadIn: 0
PreviewTime: 82634
Countdown: 0
SampleSet: Soft
StackLeniency: 0.8
Mode: 0
LetterboxInBreaks: 0
WidescreenStoryboard: 0

[Editor]
DistanceSpacing: 0.8
BeatDivisor: 4
GridSize: 8
TimelineZoom: 1.8

[Metadata]
Title:Fade Into Darkness
TitleUnicode:Fade Into Darkness
Artist:Mizutani Runa
ArtistUnicode:水谷瑠奈
Creator:ponbot
Version:Curse
Source:
Tags:japanese rock 六年二組の学級閉鎖 pixelbee jrock j-rock 塚越雄一朗 Yuichiro Tsukagoshi luna
BeatmapID:3856468
BeatmapSetID:1874140

[Difficulty]
HPDrainRate:5
CircleSize:4
OverallDifficulty:8.7
ApproachRate:9.3
SliderMultiplier:1.6
SliderTickRate:1

[Events]
//Background and Video events
0,0,"aaa.jpg",0,0
//Break Periods
2,117689,122484
2,182891,187686
//Storyboard Layer 0 (Background)
//Storyboard Layer 1 (Fail)
//Storyboard Layer 2 (Pass)
//Storyboard Layer 3 (Foreground)
//Storyboard Layer 4 (Overlay)
//Storyboard Sound Samples

[TimingPoints]
530,428.571428571429,3,2,1,30,1,0
530,-500,3,2,1,30,0,0
12101,-500,3,2,1,25,0,0
13387,-500,3,2,1,20,0,0
14672,-500,3,2,1,15,0,0
18101,-500,3,2,1,5,0,0
18299,346.820809248555,4,2,1,40,1,0
18299,-125,4,2,1,40,0,0
23848,-111.111111111111,4,2,1,50,0,0
28183,-66.6666666666667,4,2,1,60,0,0
34079,-58.8235294117647,4,2,1,65,0,0
40495,-100,4,2,1,50,0,0
50379,-100,4,2,1,40,0,0
51246,-66.6666666666667,4,2,1,50,0,0
51593,-71.4285714285714,4,2,1,60,0,0
52114,-100,4,2,1,60,0,0
57142,-62.5,4,2,1,60,0,0
59917,-83.3333333333333,4,2,1,60,0,0
61651,-55.5555555555556,4,2,1,60,0,0
61998,-66.6666666666667,4,2,1,60,0,0
62692,-50,4,2,1,60,0,0
63212,-83.3333333333333,4,2,1,60,0,0
72923,-55.5555555555556,4,2,1,60,0,0
73790,-66.6666666666667,4,2,1,60,0,0
76738,-66.6666666666667,4,2,1,40,0,0
76911,-66.6666666666667,4,2,1,60,0,0
77778,-55.5555555555556,4,2,1,60,0,0
78472,-47.6190476190476,4,2,1,60,0,0
78905,-66.6666666666667,4,2,1,60,0,0
79339,-47.6190476190476,4,2,1,60,0,0
82114,-100,4,2,1,60,0,0
82807,346.820809248555,4,2,1,80,1,0
82807,-50,4,2,1,80,0,1
83327,-66.6666666666667,4,2,1,80,0,1
86795,-58.8235294117647,4,2,1,80,0,1
87315,-66.6666666666667,4,2,1,80,0,1
89570,-58.8235294117647,4,2,1,80,0,1
90090,-66.6666666666667,4,2,1,80,0,1
92864,-66.6666666666667,4,2,2,80,0,1
93905,-100,4,2,1,70,0,1
94425,-50,4,2,1,80,0,1
94945,-66.6666666666667,4,2,1,80,0,1
97893,-58.8235294117647,4,2,1,80,0,1
98413,-66.6666666666667,4,2,1,80,0,1
102228,-58.8235294117647,4,2,1,80,0,1
105003,-83.3333333333333,4,2,1,60,0,0
108905,-83.3333333333333,4,2,1,5,0,0
108991,-83.3333333333333,4,2,1,60,0,0
109078,-83.3333333333333,4,2,1,5,0,0
109165,-83.3333333333333,4,2,1,60,0,0
110552,-66.6666666666667,4,2,1,60,0,0
111939,-83.3333333333333,4,2,1,60,0,0
114714,-66.6666666666667,4,2,1,60,0,0
115061,-100,4,2,1,60,0,0
115581,-66.6666666666667,4,2,1,60,0,0
116101,-55.5555555555556,4,2,1,70,0,0
116795,-71.4285714285714,4,2,1,70,0,0
117402,-71.4285714285714,4,2,1,5,0,0
117489,-55.5555555555556,4,2,1,30,0,0
123038,-100,4,2,1,35,0,0
125812,-100,4,2,1,40,0,0
126679,-100,4,2,1,50,0,0
127200,-125,4,2,1,60,0,0
128587,-55.5555555555556,4,2,1,50,0,0
129107,-100,4,2,1,40,0,0
130668,-100,4,2,2,40,0,0
131015,-100,4,2,1,40,0,0
132575,-100,4,2,1,50,0,0
134136,-83.3333333333333,4,2,1,60,0,0
135350,-66.6666666666667,4,2,1,60,0,0
136911,-83.3333333333333,4,2,1,60,0,0
138645,-55.5555555555556,4,2,1,60,0,0
138991,-66.6666666666667,4,2,1,60,0,0
139685,-50,4,2,1,60,0,0
140205,-83.3333333333333,4,2,1,60,0,0
144020,-83.3333333333333,4,2,2,60,0,0
144194,-83.3333333333333,4,2,1,60,0,0
149916,-55.5555555555556,4,2,1,60,0,0
150783,-66.6666666666667,4,2,1,60,0,0
153731,-100,4,2,1,60,0,0
154078,-55.5555555555556,4,2,1,60,0,0
156333,-45.4545454545455,4,2,1,60,0,0
158413,-66.6666666666667,4,2,1,60,0,0
158760,-100,4,2,1,60,0,0
159107,-40,4,2,1,80,0,1
159454,-50,4,2,1,80,0,1
162749,-83.3333333333333,4,2,1,80,0,1
163096,-50,4,2,1,80,0,1
169165,-50,4,2,2,80,0,1
169512,-66.6666666666667,4,2,2,80,0,1
169859,-100,4,2,2,80,0,1
170205,-100,4,2,1,70,0,1
170726,-50,4,2,1,80,0,1
181304,-50,4,2,1,80,0,1
182344,-50,4,2,1,40,0,0
182691,-50,4,2,1,30,0,0
188240,-50,4,2,1,45,0,0
191015,-66.6666666666667,4,2,1,60,0,0
193789,-58.8235294117647,4,2,1,70,0,0
194483,-66.6666666666667,4,2,1,70,0,0
198991,-55.5555555555556,4,2,1,70,0,0
199338,-60.6060606060606,4,2,1,70,0,0
199685,-66.6666666666667,4,2,1,70,0,0
202113,-100,4,2,1,70,0,0
203500,-66.6666666666667,4,2,1,70,0,0
204887,-100,4,2,1,60,0,0
214598,-80,4,2,1,60,0,0
214945,346.820809248555,4,2,1,60,1,0
214945,-66.6666666666667,4,2,1,60,0,0
215291,-45.4545454545455,4,2,1,60,0,0
215638,-66.6666666666667,4,2,1,60,0,0
217719,-50,4,2,1,60,0,0
218586,-66.6666666666667,4,2,1,60,0,0
220147,-58.8235294117647,4,2,1,60,0,0
220494,-45.4545454545455,4,2,1,60,0,0
220840,-55.5555555555556,4,2,1,60,0,0
221187,-62.5,4,2,1,60,0,0
223788,-55.5555555555556,4,2,1,60,0,0
226043,-66.6666666666667,4,2,1,60,0,0
226563,-83.3333333333333,4,2,1,60,0,0
236274,-55.5555555555556,4,2,1,60,0,0
237141,-66.6666666666667,4,2,1,60,0,0
241823,-55.5555555555556,4,2,1,60,0,0
242517,-45.4545454545455,4,2,1,60,0,0
243037,-50,4,2,1,65,0,0
243557,-33.3333333333333,4,2,1,65,0,0
244077,-33.3333333333333,4,2,1,70,0,0
245985,-40,4,2,1,70,0,0
248586,-55.5555555555556,4,2,1,70,0,0
249627,-100,4,2,1,70,0,0
251014,-33.3333333333333,4,2,1,80,0,1
251534,-45.4545454545455,4,2,1,80,0,1
254309,-40,4,2,1,80,0,1
254655,-100,4,2,1,80,0,1
255002,-35.7142857142857,4,2,1,80,0,1
256563,-45.4545454545455,4,2,1,80,0,1
257777,-35.7142857142857,4,2,1,80,0,1
259338,-45.4545454545455,4,2,1,80,0,1
259858,-35.7142857142857,4,2,1,80,0,1
261072,-35.7142857142857,4,2,2,80,0,1
262112,-100,4,2,1,70,0,1
262632,-40,4,2,1,80,0,1
263326,-45.4545454545455,4,2,1,80,0,1
266101,-40,4,2,1,80,0,1
266621,-45.4545454545455,4,2,1,80,0,1
268875,-40,4,2,1,80,0,1
270436,-35.7142857142857,4,2,1,80,0,1
271650,-33.3333333333333,4,2,1,80,0,1
272170,-45.4545454545455,4,2,1,80,0,1
273210,-40,4,2,1,80,0,1
273731,-45.4545454545455,4,2,1,80,0,1
277199,-40,4,2,1,80,0,1
278066,-50,4,2,1,80,0,1
282748,-66.6666666666667,4,2,1,80,0,1
283095,-66.6666666666667,4,2,1,5,0,1
283268,-50,4,2,2,80,0,1
284135,-40,4,2,1,80,0,1
285523,-45.4545454545455,4,2,1,80,0,1
288297,-40,4,2,1,80,0,1
289858,-35.7142857142857,4,2,1,80,0,1
291592,-45.4545454545455,4,2,1,80,0,1
293153,-40,4,2,1,80,0,1
293846,-35.7142857142857,4,2,1,80,0,1
295407,-200,4,2,1,80,0,0
298181,-66.6666666666667,4,2,1,60,0,0
302864,-58.8235294117647,4,2,1,65,0,0
307892,-58.8235294117647,4,2,1,70,0,0
308586,-133.333333333333,4,2,1,70,0,0
309020,-58.8235294117647,4,2,1,50,0,0

[Colours]
Combo1 : 180,180,180
Combo2 : 186,133,133
Combo3 : 145,90,165
Combo4 : 196,81,81

[HitObjects]
45,294,530,6,0,L|38:258,2,32,2|2|2,0:0|0:0|0:0,0:0:0:0:
116,326,1815,2,0,L|109:357,2,32,2|2|2,0:0|0:0|0:0,0:0:0:0:
184,290,3101,2,0,L|220:297,2,32,2|2|2,0:0|0:0|0:0,0:0:0:0:
142,227,4387,2,0,L|148:194,1,32,2|2,0:0|0:0,0:0:0:0:
147,195,5244,1,2,0:0:0:0:
71,55,5672,6,0,L|39:44,2,32,2|2|2,0:0|0:0|0:0,0:0:0:0:
128,108,6958,2,0,L|129:140,2,32,2|2|2,0:0|0:0|0:0,0:0:0:0:
183,53,8244,2,0,L|192:17,2,32,2|2|2,0:0|0:0|0:0,0:0:0:0:
242,103,9530,2,0,L|280:108,1,32,2|2,0:0|0:0,0:0:0:0:
273,107,10387,1,2,0:0:0:0:
457,65,10815,6,0,L|476:39,2,32,2|2|2,0:0|0:0|0:0,0:0:0:0:
384,92,12101,2,0,L|352:86,2,32,2|2|2,0:0|0:0|0:0,0:0:0:0:
444,141,13387,2,0,L|449:174,1,32,2|2,0:0|0:0,0:0:0:0:
448,172,14244,1,2,0:0:0:0:
408,238,14672,2,0,L|400:272,2,32,2|2|2,0:0|0:0|0:0,0:0:0:0:
256,192,15958,12,0,18101,0:0:0:0:
41,281,18299,6,0,B|57:311|39:342|39:342|57:311|93:311,1,128,4|0,3:0|3:0,0:0:0:0:
174,355,18819,2,0,B|159:322|197:334|182:294,1,64,0|0,0:0|3:0,0:0:0:0:
135,175,19166,2,0,B|150:208|112:196|127:236,1,64,0|0,0:0|3:0,0:0:0:0:
126,233,19512,1,0,0:0:0:0:
182,296,19686,6,0,L|257:303,1,64,0|0,3:0|0:0,0:0:0:0:
135,175,20033,2,0,L|60:182,1,64,0|0,3:0|0:0,0:0:0:0:
245,94,20379,2,0,B|268:171|207:143|229:218,1,128,0|0,3:0|3:0,0:0:0:0:
227,214,20900,1,0,0:0:0:0:
164,72,21073,6,0,P|204:14|265:13,1,128,0|0,3:0|3:0,0:0:0:0:
303,111,21593,2,0,P|271:93|245:93,1,64,0|0,0:0|3:0,0:0:0:0:
184,152,21940,1,0,0:0:0:0:
370,163,22114,2,0,P|388:131|388:105,1,64,0|0,3:0|0:0,0:0:0:0:
294,201,22460,6,0,L|307:279,1,64,0|0,3:0|0:0,0:0:0:0:
304,264,22807,1,0,3:0:0:0:
387,104,22981,2,0,L|374:26,1,64,0|0,0:0|3:0,0:0:0:0:
214,240,23327,1,8,0:0:0:0:
128,131,23501,1,0,0:0:0:0:
389,253,23674,1,8,0:0:0:0:
168,348,23848,6,0,B|203:312|260:324|260:324|292:280,1,143.999995605469,4|0,3:0|3:0,0:0:0:0:
202,168,24368,2,0,P|210:209|214:247,1,71.9999978027344,0|0,0:0|3:0,0:0:0:0:
213,239,24715,1,0,0:0:0:0:
365,341,24888,2,0,P|369:305|376:269,1,71.9999978027344,0|0,3:0|0:0,0:0:0:0:
372,259,25148,1,0,0:0:0:0:
367,248,25235,5,0,3:0:0:0:
286,288,25408,1,0,0:0:0:0:
392,159,25582,2,0,L|320:168,1,71.9999978027344,0|0,3:0|0:0,0:0:0:0:
454,229,25929,2,0,L|497:236,3,35.9999989013672,0|0|0|0,3:0|0:0|0:0|0:0,0:0:0:0:
450,98,26275,2,0,L|465:15,1,71.9999978027344,0|0,3:0|0:0,0:0:0:0:
453,21,26535,1,8,0:3:0:0:
444,14,26622,5,0,3:0:0:0:
363,29,26796,1,0,3:0:0:0:
324,138,26969,1,8,0:0:0:0:
404,255,27142,1,8,0:0:0:0:
247,384,27316,1,8,0:0:0:0:
34,264,27489,1,8,0:0:0:0:
141,19,27663,1,0,3:0:0:0:
141,19,27749,1,0,3:0:0:0:
141,19,27836,1,12,0:0:0:0:
141,19,28183,6,0,P|132:45|155:90,1,60.0000022888184,8|0,0:0|0:0,0:0:0:0:
283,247,28356,2,0,P|310:241|337:199,1,60.0000022888184,8|0,3:2|0:0,0:0:0:0:
83,148,28530,2,0,P|104:164|154:156,1,60.0000022888184,4|0,3:0|0:0,0:0:0:0:
409,200,28703,5,2,3:2:0:0:
424,181,28819,5,2,3:2:0:0:
400,177,28934,5,2,3:2:0:0:
427,104,29050,5,6,3:2:0:0:
331,218,29166,1,2,3:2:0:0:
476,246,29281,1,2,3:2:0:0:
393,32,29397,6,0,B|326:-3|256:28|248:109,1,180.000006866455,4|0,1:2|0:0,0:0:0:0:
262,105,29744,1,10,0:0:0:0:
101,240,29917,2,0,P|25:213|13:178,1,120.000004577637,0|2,3:0|0:0,0:0:0:0:
62,115,30264,1,0,3:0:0:0:
292,186,30437,1,10,0:0:0:0:
115,345,30611,5,0,0:0:0:0:
115,345,30697,1,0,0:0:0:0:
115,345,30784,2,0,B|163:314|226:335|226:335|240:376|302:386,1,180.000006866455,2|0,3:2|0:0,0:0:0:0:
301,302,31131,2,0,B|334:299|334:299|360:262,1,60.0000022888184,10|0,0:0|0:0,0:0:0:0:
269,108,31304,6,0,P|188:104|230:175,1,180.000006866455,0|0,3:0|0:0,0:0:0:0:
210,171,31651,1,0,3:0:0:0:
320,15,31825,1,10,0:0:0:0:
488,122,31998,5,0,3:0:0:0:
488,122,32085,1,0,3:0:0:0:
488,122,32171,2,0,B|472:194|472:194|451:218|451:218|435:294,1,180.000006866455,2|0,3:2|0:0,0:0:0:0:
482,356,32518,2,0,B|510:364|510:364|502:334,1,60.0000022888184,10|0,0:0|0:0,0:0:0:0:
486,221,32692,2,0,B|470:148|470:148|449:124|449:124|433:52,1,180.000006866455,0|0,3:0|0:0,0:0:0:0:
441,42,33038,1,0,3:0:0:0:
317,163,33212,1,2,0:0:0:0:
219,23,33385,5,8,0:3:0:0:
213,41,33472,1,8,0:3:0:0:
231,37,33559,1,4,0:3:0:0:
134,28,33732,5,4,3:0:0:0:
145,87,33819,5,4,3:0:0:0:
192,123,33905,5,8,0:0:0:0:
252,118,33992,5,8,0:0:0:0:
299,81,34079,6,0,P|224:68|175:176,1,204.000003890991,12|0,0:0|0:0,0:0:0:0:
230,215,34426,1,8,0:0:0:0:
202,283,34512,1,8,0:0:0:0:
127,279,34599,1,8,0:3:0:0:
106,206,34686,1,8,0:3:0:0:
31,206,34772,1,4,0:3:0:0:
2,275,34859,1,4,0:3:0:0:
54,329,34946,6,0,P|160:317|313:315,1,204.000003890991,4|0,3:2|0:0,0:0:0:0:
270,324,35293,1,10,0:0:0:0:
455,133,35466,2,0,P|353:129|251:117,1,204.000003890991,0|0,3:0|0:0,0:0:0:0:
251,117,35813,2,0,P|248:74|240:29,1,68.0000012969971,0|0,3:0|0:0,0:0:0:0:
208,215,35986,2,0,P|203:248|201:282,1,68.0000012969971,10|0,0:0|0:0,0:0:0:0:
484,353,36160,5,8,0:3:0:0:
494,348,36246,1,8,0:3:0:0:
503,343,36333,2,0,B|510:307|510:307|480:280,1,68.0000012969971,2|0,3:2|0:0,0:0:0:0:
471,76,36507,2,0,B|448:97|448:97|455:133,1,68.0000012969971,0|0,3:0|0:0,0:0:0:0:
436,218,36680,2,0,L|368:211,1,68.0000012969971,10|0,0:0|0:0,0:0:0:0:
179,25,36853,6,0,P|279:31|401:43,1,204.000003890991,0|0,3:0|0:0,0:0:0:0:
484,63,37200,1,0,3:0:0:0:
280,192,37374,2,0,P|188:201|123:212,1,136.000002593994,10|0,0:0|3:0,0:0:0:0:
16,201,37634,5,0,3:0:0:0:
5,192,37720,2,0,P|9:95|117:60,1,204.000003890991,2|0,3:2|0:0,0:0:0:0:
196,29,38067,2,0,P|180:106|177:128,1,68.0000012969971,10|0,0:0|0:0,0:0:0:0:
368,236,38241,6,0,P|364:139|256:104,1,204.000003890991,4|8,3:2|0:0,0:0:0:0:
199,127,38588,1,8,0:0:0:0:
202,208,38674,1,8,0:0:0:0:
283,216,38761,1,8,0:3:0:0:
310,293,38848,1,8,0:3:0:0:
242,338,38934,1,4,0:3:0:0:
228,334,39021,1,4,0:3:0:0:
214,330,39108,6,0,P|175:298|136:279,1,90.6666683959961,10|0,0:3|0:0,0:0:0:0:
396,159,39339,2,0,P|388:209|391:252,1,90.6666683959961,10|0,0:3|0:0,0:0:0:0:
157,86,39570,2,0,P|204:68|240:44,1,90.6666683959961,6|0,0:3|0:0,0:0:0:0:
310,293,39801,6,0,P|303:218|291:140,1,136.000002593994,6|0,0:3|0:0,0:0:0:0:
310,83,40033,1,0,3:0:0:0:
315,84,40090,1,0,3:0:0:0:
320,85,40148,1,8,0:0:0:0:
470,41,40495,5,4,3:2:0:0:
470,41,40668,2,0,P|435:59|393:84,1,80,2|8,0:0|0:0,0:0:0:0:
320,85,41015,2,0,B|296:74|275:58|275:58|213:70|163:30,1,160,2|2,3:2|3:2,0:0:0:0:
172,37,41535,1,8,0:0:0:0:
206,229,41709,6,0,P|205:157|276:164,1,160,2|0,3:2|3:0,0:0:0:0:
320,85,42229,1,8,0:0:0:0:
172,37,42403,2,0,P|104:49|68:53,1,80,0|0,3:0|0:0,0:0:0:0:
47,124,42749,2,0,L|-5:131,2,40,0|0|8,3:0|3:0|0:0,0:0:0:0:
112,173,43096,1,4,0:3:0:0:
236,112,43270,6,0,P|223:196|214:299,1,160,2|10,3:2|0:0,0:0:0:0:
305,228,43790,2,0,P|313:186|319:136,1,80,2|0,3:2|0:0,0:0:0:0:
134,297,44137,1,2,0:0:0:0:
204,361,44310,1,8,0:0:0:0:
330,313,44483,6,0,B|385:283|444:301|444:301|475:273,1,160,2|0,3:2|0:0,0:0:0:0:
475,272,45004,1,10,0:0:0:0:
418,159,45177,1,2,0:0:0:0:
400,377,45351,5,2,3:0:0:0:
263,251,45524,1,0,3:0:0:0:
264,243,45611,1,0,3:0:0:0:
266,235,45697,1,8,0:0:0:0:
433,42,45871,2,0,B|422:49|422:49|440:89,1,40,2|0,0:0|3:0,0:0:0:0:
500,158,46044,6,0,B|486:137|486:137|325:92,1,160,0|10,3:2|0:0,0:0:0:0:
205,177,46564,2,0,L|242:332,1,160,2|0,3:2|3:0,0:0:0:0:
149,288,47085,1,8,0:0:0:0:
166,371,47258,5,2,0:0:0:0:
376,169,47431,2,0,P|388:78|320:41,1,160,2|10,3:2|0:0,0:0:0:0:
328,273,47952,2,0,P|405:261|489:255,1,160,2|0,3:2|3:0,0:0:0:0:
486,255,48385,1,0,3:0:0:0:
486,255,48472,1,8,0:0:0:0:
282,190,48645,5,2,0:0:0:0:
170,364,48819,2,0,P|117:350|69:344,1,80,2|0,3:2|0:0,0:0:0:0:
26,284,49166,1,10,0:0:0:0:
252,330,49339,2,0,L|270:277,1,40,2|0,3:2|0:0,0:0:0:0:
195,175,49512,5,0,3:0:0:0:
152,197,49599,1,0,3:0:0:0:
104,190,49686,1,8,0:3:0:0:
62,166,49772,1,8,0:3:0:0:
42,121,49859,1,8,0:0:0:0:
49,73,49946,1,8,0:0:0:0:
80,36,50033,1,8,0:0:0:0:
62,42,50379,5,8,0:3:0:0:
91,48,50466,1,8,0:3:0:0:
66,59,50552,1,8,0:3:0:0:
81,63,50639,1,8,0:3:0:0:
66,74,50726,1,8,0:3:0:0:
68,90,50813,1,8,0:3:0:0:
61,108,50900,5,4,0:3:0:0:
103,98,50986,1,4,0:3:0:0:
144,113,51073,1,4,0:3:0:0:
169,149,51160,1,4,0:3:0:0:
167,192,51246,2,0,P|224:212|312:117,1,180.000006866455,2|0,3:0|0:0,0:0:0:0:
360,75,51593,6,0,B|330:67|304:46|304:46|344:116|326:202,1,223.999993164063,6|10,3:2|0:0,0:0:0:0:
326,201,52114,2,0,P|325:248|328:317,1,80,2|0,3:2|0:0,0:0:0:0:
401,313,52460,1,2,3:2:0:0:
473,272,52634,1,8,0:0:0:0:
241,244,52807,6,0,P|177:255|151:353,1,160,2|0,3:2|0:0,0:0:0:0:
219,384,53327,1,8,0:0:0:0:
321,314,53501,2,0,P|359:310|400:313,1,80,0|0,3:0|0:0,0:0:0:0:
358,222,53848,1,0,3:0:0:0:
345,222,53934,1,0,3:0:0:0:
333,224,54021,1,10,0:0:0:0:
388,142,54194,2,0,L|314:134,1,40,2|0,0:0|0:0,0:0:0:0:
252,84,54368,6,0,P|244:163|240:243,1,160,2|10,3:2|0:0,0:0:0:0:
177,44,54888,2,0,B|138:58|138:58|101:48,1,80,2|0,3:2|0:0,0:0:0:0:
27,113,55235,1,2,3:2:0:0:
170,137,55408,1,8,0:0:0:0:
46,295,55582,6,0,P|33:222|105:208,1,160,2|0,3:2|3:0,0:0:0:0:
170,137,56102,2,0,P|176:162|181:195,1,40,10|0,0:0|0:0,0:0:0:0:
227,250,56275,2,0,P|212:309|209:354,1,80,2|0,3:2|0:0,0:0:0:0:
132,365,56622,1,0,3:0:0:0:
120,362,56709,1,0,3:0:0:0:
108,359,56796,1,8,0:0:0:0:
271,176,56969,2,0,L|332:163,1,40,0|8,3:0|0:0,0:0:0:0:
499,312,57142,6,0,P|448:235|356:245,1,192,6|0,3:2|0:0,0:0:0:0:
357,254,57489,1,10,0:0:0:0:
13,72,57663,2,0,P|63:148|155:138,1,191.999994140625,6|0,3:2|0:0,0:0:0:0:
155,130,58009,1,0,3:0:0:0:
46,295,58183,1,8,0:0:0:0:
320,372,58356,5,0,3:0:0:0:
320,372,58443,1,0,3:0:0:0:
320,372,58530,2,0,P|329:277|348:168,1,192,2|0,3:2|0:0,0:0:0:0:
355,178,58877,1,10,0:0:0:0:
192,12,59050,2,0,P|183:107|164:216,1,191.999994140625,6|0,3:2|0:0,0:0:0:0:
157,206,59397,1,0,3:0:0:0:
442,177,59570,1,8,0:0:0:0:
497,117,59744,5,0,3:0:0:0:
492,103,59830,1,0,3:0:0:0:
487,89,59917,2,0,L|385:93,1,95.9999970703126,6|0,3:2|0:0,0:0:0:0:
256,224,60264,1,8,0:0:0:0:
71,197,60437,2,0,L|171:202,1,95.9999970703126,0|0,3:0|0:0,0:0:0:0:
332,278,60784,5,0,3:0:0:0:
332,278,60871,1,0,3:0:0:0:
332,278,60957,1,10,0:0:0:0:
275,251,61044,1,8,0:0:0:0:
213,259,61131,1,10,0:0:0:0:
167,301,61218,1,8,0:0:0:0:
157,362,61304,1,0,3:0:0:0:
164,370,61651,6,0,L|130:122,1,215.999993408203,6|0,3:2|0:0,0:0:0:0:
143,144,61998,2,0,B|115:157|115:157|86:149,1,60.0000022888184,8|8,0:3|0:3,0:0:0:0:
235,50,62171,5,8,0:0:0:0:
313,24,62258,1,8,0:0:0:0:
374,55,62345,1,8,0:0:0:0:
382,116,62431,1,8,0:0:0:0:
416,146,62518,1,8,0:3:0:0:
456,145,62605,1,4,0:3:0:0:
482,133,62692,6,0,P|380:141|348:262,1,240,4|0,3:1|0:0,0:0:0:0:
359,268,63038,1,8,0:0:0:0:
442,373,63212,2,0,P|444:305|445:217,1,143.999995605469,0|0,3:0|0:0,0:0:0:0:
455,221,63559,1,0,3:0:0:0:
279,126,63732,2,0,B|231:147|231:147|153:130,1,95.9999970703126,8|0,0:0|3:0,0:0:0:0:
181,130,63992,1,0,3:0:0:0:
174,123,64079,6,0,L|368:148,1,191.999994140625,0|10,3:0|0:0,0:0:0:0:
352,259,64599,1,0,3:0:0:0:
128,339,64772,2,0,L|-47:316,1,95.9999970703126,2|0,0:0|3:0,0:0:0:0:
33,327,65119,2,0,P|33:252|27:209,1,95.9999970703126,10|2,0:0|3:2,0:0:0:0:
36,224,65379,1,0,3:0:0:0:
42,216,65466,6,0,P|117:208|134:103,1,191.999994140625,0|8,3:0|0:0,0:0:0:0:
42,21,65986,2,0,P|34:86|30:150,1,95.9999970703126,0|0,3:0|0:0,0:0:0:0:
214,228,66333,1,0,3:0:0:0:
280,160,66507,2,0,P|341:158|403:146,1,95.9999970703126,8|0,0:0|3:0,0:0:0:0:
384,149,66767,1,0,3:0:0:0:
392,145,66853,6,0,P|310:147|189:151,1,191.999994140625,0|10,3:0|0:0,0:0:0:0:
384,32,67374,1,0,3:0:0:0:
504,184,67547,2,0,P|498:231|468:268,1,95.9999970703126,2|0,0:0|3:0,0:0:0:0:
432,344,67894,1,10,0:0:0:0:
304,296,68067,5,2,3:2:0:0:
294,294,68154,1,0,3:0:0:0:
284,292,68241,2,0,L|98:305,1,143.999995605469,0|0,3:0|0:0,0:0:0:0:
131,313,68588,1,8,0:0:0:0:
0,168,68761,2,0,L|186:181,1,143.999995605469,0|0,3:0|0:0,0:0:0:0:
153,189,69108,1,0,3:0:0:0:
258,78,69281,1,8,0:0:0:0:
396,149,69455,1,0,3:0:0:0:
291,261,69628,6,0,P|289:209|292:147,1,95.9999970703126,0|0,3:0|0:0,0:0:0:0:
342,86,69975,1,10,0:0:0:0:
200,16,70148,2,0,L|95:31,1,95.9999970703126,0|2,3:0|0:0,0:0:0:0:
48,97,70495,5,0,3:0:0:0:
211,145,70668,1,10,0:0:0:0:
149,301,70842,1,2,0:0:0:0:
124,174,71015,5,0,3:0:0:0:
207,224,71189,1,2,0:0:0:0:
149,301,71362,1,10,0:0:0:0:
65,252,71535,2,0,L|278:274,1,191.999994140625,0|0,3:0|3:0,0:0:0:0:
322,329,72056,1,8,0:0:0:0:
401,296,72229,1,0,3:0:0:0:
352,64,72403,5,2,3:0:0:0:
349,68,72489,1,0,3:0:0:0:
355,68,72576,1,8,0:0:0:0:
356,61,72663,1,8,0:0:0:0:
349,61,72749,1,8,0:0:0:0:
470,235,72923,6,0,P|410:111|273:108,1,287.999991210938,6|0,3:0|3:0,0:0:0:0:
150,155,73356,1,0,3:0:0:0:
136,147,73443,2,0,P|128:73|195:49,1,143.999995605469,8|0,0:0|0:0,0:0:0:0:
272,0,73790,6,0,P|253:118|238:237,1,240.000009155274,6|8,3:2|0:0,0:0:0:0:
64,302,74310,5,2,3:2:0:0:
35,203,74483,1,0,0:0:0:0:
350,151,74657,5,2,3:2:0:0:
325,293,74830,1,10,0:0:0:0:
196,375,75004,5,2,3:2:0:0:
196,375,75351,1,2,3:2:0:0:
174,74,75524,1,10,0:0:0:0:
438,290,75697,6,0,B|384:311|384:311|324:292,1,120.000004577637,2|0,3:2|0:0,0:0:0:0:
269,211,76044,1,2,3:2:0:0:
64,302,76218,1,14,0:0:0:0:
174,74,76391,1,0,3:0:0:0:
169,62,76478,1,8,0:0:0:0:
164,50,76564,1,4,0:3:0:0:
32,213,76738,6,0,P|63:214|93:213,1,60.0000022888184,10|8,0:0|0:0,0:0:0:0:
254,307,76911,1,10,0:0:0:0:
504,116,77085,6,0,P|385:104|266:113,1,240.000009155274,4|0,3:1|3:0,0:0:0:0:
253,314,77605,1,8,0:0:0:0:
504,116,77778,6,0,P|362:90|218:87,1,287.999991210938,4|0,3:2|3:0,0:0:0:0:
253,320,78299,1,8,0:0:0:0:
504,116,78472,6,0,P|341:71|174:53,1,335.999989746094,4|0,3:1|3:0,0:0:0:0:
17,159,78905,1,0,3:0:0:0:
17,159,78992,2,0,P|10:248|11:289,1,120.000004577637,8|0,0:0|0:0,0:0:0:0:
43,363,79339,6,0,P|48:195|43:27,2,335.999989746094,12|8|4,0:0|0:0|3:2,0:0:0:0:
464,344,80206,1,0,3:2:0:0:
129,303,80379,1,8,0:0:0:0:
505,280,80553,1,4,3:2:0:0:
505,280,80900,6,0,L|393:270,1,83.9999974365235,8|8,0:0|0:0,0:0:0:0:
102,224,81073,2,0,L|214:214,1,83.9999974365235,8|0,0:0|0:0,0:0:0:0:
485,190,81246,2,0,L|373:180,1,83.9999974365235,8|0,0:0|0:0,0:0:0:0:
152,117,81420,5,8,0:3:0:0:
150,107,81507,1,8,0:3:0:0:
143,99,81593,1,8,0:3:0:0:
185,58,81680,1,8,0:3:0:0:
243,61,81767,1,4,0:3:0:0:
274,110,81853,1,4,0:3:0:0:
330,127,81940,1,4,0:3:0:0:
382,100,82027,1,4,0:3:0:0:
396,37,82114,6,0,L|381:-6,3,40,8|8|4|4,0:3|0:3|0:3|0:3,0:0:0:0:
281,192,82460,1,12,0:0:0:0:
504,368,82807,6,0,P|472:275|340:257,1,240,4|0,1:0|0:0,0:0:0:0:
344,254,83153,1,10,0:0:0:0:
406,96,83327,2,0,P|310:95|255:88,1,120.000004577637,0|2,1:0|0:0,0:0:0:0:
227,32,83674,1,0,1:0:0:0:
71,156,83847,5,8,0:0:0:0:
59,152,83934,1,0,3:0:0:0:
47,148,84020,2,0,P|54:64|136:47,1,180.000006866455,0|0,1:0|0:0,0:0:0:0:
136,47,84367,1,0,1:0:0:0:
216,288,84541,1,10,0:0:0:0:
26,285,84714,2,0,P|78:255|135:238,1,120.000004577637,0|2,1:0|0:0,0:0:0:0:
302,96,85061,2,0,P|249:125|192:142,1,120.000004577637,0|10,1:0|0:0,0:0:0:0:
293,362,85408,5,0,3:0:0:0:
293,362,85494,1,0,3:0:0:0:
293,362,85581,1,0,1:0:0:0:
135,238,85754,1,0,3:0:0:0:
306,129,85928,1,10,0:0:0:0:
462,255,86101,2,0,L|489:53,1,180.000006866455,0|0,1:0|0:0,0:0:0:0:
485,76,86448,1,0,1:0:0:0:
203,155,86622,1,10,0:0:0:0:
383,381,86795,6,0,L|319:96,1,272.000005187988,4|0,1:2|1:0,0:0:0:0:
383,54,87315,1,10,0:0:0:0:
267,289,87489,1,0,3:0:0:0:
37,163,87662,1,2,1:2:0:0:
357,184,87835,5,0,3:0:0:0:
133,272,88009,1,10,0:0:0:0:
31,56,88182,1,0,0:0:0:0:
232,0,88356,5,4,1:0:0:0:
283,90,88529,1,0,3:0:0:0:
279,101,88616,1,0,3:0:0:0:
275,112,88702,1,10,0:0:0:0:
56,185,88876,6,0,P|42:268|40:331,1,120.000004577637,0|2,1:0|0:0,0:0:0:0:
192,378,89223,1,0,1:0:0:0:
283,317,89396,1,10,0:0:0:0:
187,264,89570,6,0,P|267:284|381:221,1,204.000003890991,4|0,1:2|0:0,0:0:0:0:
372,232,89916,1,0,3:0:0:0:
115,328,90090,1,10,0:0:0:0:
268,99,90263,1,0,3:0:0:0:
40,144,90437,5,2,1:2:0:0:
251,193,90610,1,0,3:0:0:0:
45,256,90783,1,10,0:0:0:0:
256,305,90957,1,0,3:0:0:0:
267,302,91043,1,0,3:0:0:0:
278,299,91130,1,0,1:0:0:0:
489,173,91304,5,8,0:0:0:0:
468,228,91390,1,8,0:0:0:0:
416,258,91477,1,8,0:0:0:0:
356,251,91564,1,8,0:0:0:0:
312,210,91650,2,0,P|248:209|163:198,1,120.000004577637,4|8,1:2|0:3,0:0:0:0:
118,235,91911,1,8,0:3:0:0:
112,248,91997,5,8,0:3:0:0:
190,216,92084,5,8,0:3:0:0:
273,228,92171,5,4,0:3:0:0:
344,271,92257,5,4,0:3:0:0:
390,341,92344,5,8,0:0:0:0:
390,341,92864,5,6,3:0:0:0:
450,273,92951,1,0,3:0:0:0:
430,192,93038,1,0,3:0:0:0:
361,166,93124,1,0,3:0:0:0:
305,189,93211,1,6,3:0:0:0:
286,233,93298,1,0,3:0:0:0:
299,273,93385,1,0,3:0:0:0:
333,285,93471,1,0,3:0:0:0:
360,271,93558,1,6,3:0:0:0:
364,251,93645,1,0,3:0:0:0:
356,238,93731,1,0,3:0:0:0:
345,236,93818,1,0,3:0:0:0:
340,242,93905,6,0,L|289:247,3,40,8|8|8|8,0:3|0:3|0:3|0:3,0:0:0:0:
283,248,94252,1,8,0:0:0:0:
439,50,94425,6,0,B|293:14|350:110|207:70,1,240,4|0,1:0|0:0,0:0:0:0:
197,77,94772,1,0,1:0:0:0:
73,231,94945,5,10,0:0:0:0:
61,226,95032,1,0,3:0:0:0:
49,222,95119,2,0,B|8:184|41:132|41:132|87:149|117:113,1,180.000006866455,0|0,1:0|0:0,0:0:0:0:
63,54,95465,1,0,1:0:0:0:
157,224,95639,2,0,P|153:254|136:295,1,60.0000022888184,10|0,0:0|0:0,0:0:0:0:
36,375,95812,6,0,P|96:311|183:316,1,180.000006866455,0|0,1:0|0:0,0:0:0:0:
238,371,96159,1,0,1:0:0:0:
338,253,96333,2,0,P|321:172|308:123,1,120.000004577637,10|0,0:0|3:0,0:0:0:0:
302,127,96593,1,0,3:0:0:0:
293,118,96679,1,2,1:2:0:0:
230,255,96853,1,0,3:0:0:0:
412,321,97026,1,10,0:0:0:0:
489,96,97200,6,0,B|391:99|333:18,1,180.000006866455,0|0,1:0|0:0,0:0:0:0:
337,7,97546,1,0,1:0:0:0:
205,163,97720,1,10,0:0:0:0:
10,106,97893,6,0,B|33:6|152:-25|225:57,1,272.000005187988,4|0,1:0|3:0,0:0:0:0:
156,252,98413,1,8,0:0:0:0:
318,23,98587,1,0,3:0:0:0:
329,77,98673,1,0,3:0:0:0:
293,118,98760,1,0,1:0:0:0:
60,199,98934,5,0,3:0:0:0:
114,160,99020,1,8,0:0:0:0:
182,157,99107,1,8,0:3:0:0:
240,192,99194,1,8,0:3:0:0:
264,255,99280,1,4,0:3:0:0:
259,315,99367,1,0,0:0:0:0:
216,358,99454,6,0,B|146:342|146:342|108:354|108:354|34:336,1,180.000006866455,4|0,1:2|0:0,0:0:0:0:
52,351,99801,1,8,0:0:0:0:
296,272,99974,6,0,B|366:256|366:256|404:268|404:268|478:250,1,180.000006866455,4|0,1:0|0:0,0:0:0:0:
460,265,100321,1,0,1:0:0:0:
209,179,100494,1,8,0:0:0:0:
477,26,100668,6,0,B|487:57|487:57|414:97|410:177,1,180.000006866455,4|0,1:2|0:0,0:0:0:0:
410,175,101015,1,0,3:0:0:0:
358,355,101188,1,8,0:0:0:0:
311,140,101361,1,0,3:0:0:0:
311,140,101448,1,0,3:0:0:0:
311,140,101535,1,0,1:0:0:0:
258,319,101708,1,0,3:0:0:0:
279,276,101795,1,0,3:0:0:0:
269,228,101882,1,8,0:0:0:0:
233,196,101968,1,0,3:0:0:0:
185,186,102055,1,8,0:3:0:0:
142,208,102142,1,4,0:3:0:0:
119,256,102228,6,0,B|101:170|101:170|107:131|107:131|91:56,1,204.000003890991,4|0,1:1|0:0,0:0:0:0:
76,45,102575,1,8,0:0:0:0:
393,256,102749,6,0,B|410:170|410:170|404:131|404:131|421:56,1,204.000003890991,4|0,1:2|0:0,0:0:0:0:
436,45,103096,1,0,3:0:0:0:
256,288,103269,1,8,0:0:0:0:
8,205,103442,6,0,B|10:105|158:66|210:152,1,272.000005187988,4|0,1:0|3:0,0:0:0:0:
209,151,103876,1,0,3:0:0:0:
209,151,103963,5,12,0:0:0:0:
168,233,104078,5,0,3:0:0:0:
207,313,104194,5,0,3:0:0:0:
295,321,104309,5,12,0:0:0:0:
346,246,104425,5,0,3:0:0:0:
305,165,104541,5,0,3:0:0:0:
257,240,104656,5,12,0:0:0:0:
486,167,104830,1,0,3:0:0:0:
296,21,105003,1,8,0:0:0:0:
0,384,106043,5,4,0:3:0:0:
0,384,106390,6,0,P|71:376|143:378,1,143.999995605469,4|0,3:1|0:0,0:0:0:0:
157,384,106737,1,10,0:0:0:0:
256,256,106911,2,0,P|253:208|245:160,1,95.9999970703126,0|2,3:0|0:0,0:0:0:0:
312,112,107257,1,0,3:0:0:0:
178,59,107431,2,0,L|46:76,1,95.9999970703126,10|0,0:0|3:0,0:0:0:0:
0,128,107691,5,0,3:0:0:0:
8,136,107778,2,0,P|5:207|6:279,1,143.999995605469,2|0,3:2|0:0,0:0:0:0:
55,318,108124,5,10,0:0:0:0:
117,304,108240,5,2,0:0:0:0:
172,336,108356,5,2,0:0:0:0:
235,344,108471,5,2,3:2:0:0:
294,320,108587,5,2,0:0:0:0:
354,338,108702,5,2,0:0:0:0:
418,339,108818,6,0,P|423:304|428:278,1,47.9999985351563,10|0,0:0|0:0,0:0:0:0:
361,235,108991,2,0,P|356:200|351:174,1,47.9999985351563,2|0,0:0|0:0,0:0:0:0:
441,110,109165,6,0,P|388:155|321:142,1,143.999995605469,2|0,3:2|0:0,0:0:0:0:
310,132,109512,1,10,0:0:0:0:
249,280,109685,2,0,P|183:255|124:291,1,143.999995605469,0|0,3:0|0:0,0:0:0:0:
117,302,110032,1,0,3:0:0:0:
85,163,110205,2,0,P|37:162|-1:135,1,95.9999970703126,10|0,0:0|0:0,0:0:0:0:
251,34,110552,6,0,P|227:120|212:209,1,180.000006866455,4|0,3:2|0:0,0:0:0:0:
249,280,110899,1,8,0:0:0:0:
34,341,111072,2,0,B|106:316|166:359|166:359|214:343,1,180.000006866455,4|0,3:1|0:0,0:0:0:0:
249,280,111419,2,0,L|339:253,1,60.0000022888184,0|0,3:0|3:0,0:0:0:0:
424,344,111593,5,8,0:3:0:0:
435,347,111679,1,8,0:3:0:0:
446,350,111766,1,4,0:3:0:0:
457,352,111853,1,4,0:3:0:0:
466,354,111939,2,0,P|501:256|470:210,1,143.999995605469,4|0,3:1|0:0,0:0:0:0:
475,215,112286,1,10,0:0:0:0:
265,185,112460,6,0,P|250:252|249:305,1,95.9999970703126,0|2,3:0|0:0,0:0:0:0:
319,334,112807,1,0,3:0:0:0:
475,215,112980,2,0,P|490:148|491:95,1,95.9999970703126,10|0,0:0|0:0,0:0:0:0:
352,24,113327,6,0,P|304:22|256:25,1,95.9999970703126,2|0,3:2|0:0,0:0:0:0:
252,34,113587,1,0,3:0:0:0:
248,43,113674,1,10,0:0:0:0:
47,51,113847,2,0,P|44:78|43:104,1,47.9999985351563,0|0,3:0|0:0,0:0:0:0:
112,146,114020,5,2,3:2:0:0:
383,130,114280,1,2,3:2:0:0:
383,130,114367,2,0,P|378:179|376:238,1,95.9999970703126,8|0,0:0|0:0,0:0:0:0:
265,347,114714,6,0,P|269:209|267:141,1,180.000006866455,4|0,3:2|0:0,0:0:0:0:
280,156,115061,6,0,P|282:195|283:235,1,80,8|0,0:0|0:0,0:0:0:0:
199,245,115321,2,0,P|196:205|195:165,1,80,8|0,0:3|0:0,0:0:0:0:
297,135,115581,6,0,P|315:193|309:251,1,120.000004577637,4|0,0:3|0:0,0:0:0:0:
182,266,115841,2,0,P|163:207|169:149,1,120.000004577637,4|0,0:3|0:0,0:0:0:0:
298,51,116101,6,0,P|338:84|377:103,1,95.9999970703126,10|0,0:3|0:0,0:0:0:0:
356,299,116333,2,0,P|308:317|272:342,1,95.9999970703126,10|0,0:3|0:0,0:0:0:0:
113,225,116564,2,0,P|122:174|118:131,1,95.9999970703126,6|0,0:3|0:0,0:0:0:0:
217,5,116795,6,0,B|164:221|315:169|235:384,1,391.99998803711,6|0,0:3|0:0,0:0:0:0:
235,383,117489,1,4,3:2:0:0:
80,48,123038,6,0,P|63:126|48:204,1,160,6|2,3:2|3:2,0:0:0:0:
220,93,123558,2,0,P|141:76|63:61,1,160,2|0,0:0|0:0,0:0:0:0:
175,233,124078,2,0,P|207:219|212:173,1,80,0|0,3:0|0:0,0:0:0:0:
175,233,124425,6,0,P|153:283|243:334,1,160,2|2,3:2|3:2,0:0:0:0:
290,281,124945,2,0,P|377:269|442:296,1,160,2|0,0:0|0:0,3:2:0:0:
496,366,125465,1,0,3:0:0:0:
415,376,125639,5,2,0:0:0:0:
342,187,125812,1,2,3:2:0:0:
342,187,126159,1,0,3:0:0:0:
295,260,126333,1,0,3:0:0:0:
384,262,126506,1,0,3:0:0:0:
283,173,126679,5,0,3:0:0:0:
306,317,126853,1,0,3:0:0:0:
424,229,127026,1,0,3:0:0:0:
219,229,127200,5,0,3:0:0:0:
419,329,127373,1,0,3:0:0:0:
360,113,127546,1,8,0:0:0:0:
115,58,127720,5,8,0:0:0:0:
84,349,127893,1,8,0:0:0:0:
84,349,127980,1,0,3:0:0:0:
84,349,128067,1,0,3:0:0:0:
84,349,128153,1,0,3:0:0:0:
84,349,128240,2,0,P|106:287|105:254,1,96,12|0,0:0|0:0,0:0:0:0:
67,189,128587,6,0,B|48:165|25:163|25:163|-5:90|57:33|125:24|125:24|104:46|125:78,1,287.999991210938,4|8,3:1|0:0,0:0:0:0:
195,65,129107,2,0,P|228:91|204:160,1,120,2|0,0:0|0:0,0:0:0:0:
208,157,129454,1,2,0:0:0:0:
284,223,129627,1,8,0:0:0:0:
118,271,129801,6,0,P|206:275|227:336,1,160,2|0,3:2|3:0,0:0:0:0:
299,377,130321,1,8,0:0:0:0:
359,319,130494,1,0,3:0:0:0:
433,359,130668,6,0,L|465:354,3,26.6666666666667,2|2|2|2,0:0|0:0|0:0|0:0,0:0:0:0:
284,260,131015,1,10,0:0:0:0:
284,260,131188,1,2,0:0:0:0:
319,174,131361,6,0,P|316:74|267:46,1,160,2|10,3:2|0:0,0:0:0:0:
211,0,131882,2,0,L|114:17,1,80,2|0,0:0|0:0,0:0:0:0:
44,97,132228,2,0,P|83:113|132:147,1,80,2|8,0:0|0:0,0:0:0:0:
114,133,132575,2,0,P|71:187|82:300,1,160,2|0,3:2|3:0,0:0:0:0:
74,282,133009,1,0,3:0:0:0:
78,288,133096,1,14,0:0:0:0:
208,248,133269,1,2,3:2:0:0:
173,360,133442,5,0,3:0:0:0:
255,159,133616,1,0,3:0:0:0:
441,283,133789,2,0,P|410:309|362:312,1,80,12|2,0:2|0:0,0:0:0:0:
45,250,134136,6,0,P|116:243|188:238,1,143.999995605469,6|0,3:2|0:0,0:0:0:0:
208,248,134483,1,10,0:0:0:0:
467,134,134656,2,0,P|395:140|323:145,1,143.999995605469,6|0,3:2|0:0,0:0:0:0:
304,136,135003,1,0,3:0:0:0:
235,341,135176,1,8,0:0:0:0:
51,153,135350,5,0,3:0:0:0:
51,153,135437,1,0,3:0:0:0:
51,153,135523,2,0,P|87:70|167:42,1,180.000006866455,2|0,3:2|0:0,0:0:0:0:
179,51,135870,1,10,0:0:0:0:
461,231,136043,2,0,P|425:314|345:342,1,180.000006866455,6|0,3:2|0:0,0:0:0:0:
333,333,136390,1,0,3:0:0:0:
109,231,136564,5,8,0:0:0:0:
145,144,136737,1,2,3:2:0:0:
156,141,136824,1,0,3:0:0:0:
167,138,136911,2,0,P|226:146|278:154,1,95.9999970703126,4|0,3:1|0:0,0:0:0:0:
373,199,137257,1,8,0:0:0:0:
481,145,137431,2,0,L|466:36,1,95.9999970703126,0|0,3:0|0:0,0:0:0:0:
392,0,137778,5,0,3:0:0:0:
392,0,137864,1,0,3:0:0:0:
392,0,137951,1,10,0:0:0:0:
385,47,138038,1,8,0:0:0:0:
379,94,138124,1,10,0:0:0:0:
373,141,138211,1,8,0:0:0:0:
367,188,138298,1,0,3:0:0:0:
373,199,138645,6,0,P|254:182|156:172,1,215.999993408203,4|0,3:2|0:0,0:0:0:0:
88,215,138991,1,8,0:3:0:0:
0,48,139165,2,0,P|53:37|90:34,1,60.0000022888184,8|8,0:0|0:0,0:0:0:0:
257,43,139338,5,8,0:3:0:0:
220,88,139425,1,8,0:3:0:0:
233,125,139512,1,4,0:3:0:0:
218,136,139598,1,4,0:3:0:0:
220,147,139685,6,0,B|174:200|201:271|201:271|261:282|270:348,1,240,6|0,3:2|0:0,0:0:0:0:
269,359,140032,1,8,0:0:0:0:
3,349,140205,6,0,B|156:314|37:389|189:354,1,191.999994140625,0|0,3:0|3:0,0:0:0:0:
284,210,140726,2,0,P|347:213|406:218,1,95.9999970703126,8|0,0:0|0:0,0:0:0:0:
502,313,141072,6,0,P|401:313|362:372,1,143.999995605469,0|0,3:0|0:0,0:0:0:0:
371,353,141419,1,10,0:0:0:0:
180,248,141593,2,0,P|181:189|190:133,1,95.9999970703126,0|2,3:0|0:0,0:0:0:0:
260,110,141939,1,0,3:0:0:0:
184,8,142113,1,10,0:0:0:0:
32,80,142286,5,2,3:2:0:0:
32,80,142373,1,0,3:0:0:0:
32,80,142460,2,0,P|31:164|32:245,1,143.999995605469,0|0,3:0|0:0,0:0:0:0:
41,235,142807,1,8,0:0:0:0:
168,357,142980,2,0,P|226:340|287:333,1,95.9999970703126,0|0,3:0|0:0,0:0:0:0:
308,246,143327,2,0,P|366:263|427:270,1,95.9999970703126,0|8,3:0|0:0,0:0:0:0:
480,312,143674,1,0,0:0:0:0:
261,334,143847,5,0,3:0:0:0:
233,177,144020,1,2,0:0:0:0:
233,177,144107,1,2,0:0:0:0:
233,177,144194,2,0,P|239:120|240:57,1,95.9999970703126,10|0,0:0|0:0,0:0:0:0:
157,21,144541,2,0,P|153:92|144:160,1,95.9999970703126,2|0,3:2|0:0,0:0:0:0:
327,148,144887,1,10,0:0:0:0:
330,28,145061,1,2,0:0:0:0:
463,36,145234,6,0,P|469:89|456:189,1,143.999995605469,0|0,3:0|0:0,0:0:0:0:
458,178,145581,1,8,0:0:0:0:
503,273,145754,2,0,B|386:251|425:313|305:290,1,191.999994140625,0|0,3:0|3:0,0:0:0:0:
254,236,146275,1,8,0:0:0:0:
160,364,146448,1,0,0:0:0:0:
11,306,146622,6,0,P|82:277|158:283,1,143.999995605469,0|0,3:0|0:0,0:0:0:0:
148,280,146968,1,10,0:0:0:0:
248,152,147142,2,0,P|241:83|231:24,1,95.9999970703126,0|2,3:0|0:0,0:0:0:0:
165,17,147489,1,0,3:0:0:0:
0,80,147662,2,0,P|7:149|17:208,1,95.9999970703126,10|2,0:0|3:2,0:0:0:0:
23,182,147922,1,0,3:0:0:0:
35,189,148009,6,0,B|107:198|107:198|153:116,1,143.999995605469,0|0,3:0|0:0,0:0:0:0:
141,122,148356,1,10,0:0:0:0:
336,88,148529,2,0,P|391:96|449:104,1,95.9999970703126,2|0,3:2|0:0,0:0:0:0:
347,200,148876,1,0,3:0:0:0:
234,23,149049,2,0,P|242:103|253:184,1,143.999995605469,8|0,0:0|0:0,0:0:0:0:
272,248,149396,5,2,3:0:0:0:
267,253,149483,1,0,3:0:0:0:
268,260,149570,1,8,0:0:0:0:
268,267,149656,1,8,0:0:0:0:
264,273,149743,1,8,0:0:0:0:
158,353,149916,6,0,B|168:328|168:328|254:305|254:305|299:320|299:320|388:295|388:295|400:266,1,287.999991210938,6|0,3:0|3:0,0:0:0:0:
477,135,150350,1,0,3:0:0:0:
473,127,150437,2,0,B|433:98|378:96|378:96|328:126,1,143.999995605469,8|0,0:0|0:0,0:0:0:0:
254,305,150783,6,0,B|270:217|270:217|241:150|241:150|258:73,1,240.000009155274,2|10,3:2|0:0,0:0:0:0:
341,117,151304,1,2,3:2:0:0:
163,243,151477,1,0,0:0:0:0:
375,218,151650,1,2,3:2:0:0:
129,142,151824,1,10,0:0:0:0:
95,316,151997,1,2,3:2:0:0:
95,316,152344,5,2,3:2:0:0:
257,74,152517,1,10,0:0:0:0:
106,24,152691,2,0,P|122:96|130:156,1,120.000004577637,2|0,3:2|0:0,0:0:0:0:
180,215,153038,1,2,3:2:0:0:
446,235,153211,2,0,P|480:181|464:122,1,120.000004577637,14|8,0:0|0:3,0:0:0:0:
401,88,153471,1,8,0:3:0:0:
324,105,153558,5,2,3:2:0:0:
316,113,153645,1,0,3:0:0:0:
324,123,153731,2,0,P|317:146|314:167,1,40,0|0,3:0|3:0,0:0:0:0:
251,349,153905,1,10,0:0:0:0:
400,312,154078,6,0,B|309:263|212:267|212:267|180:318|113:306,1,287.999991210938,6|0,3:2|3:0,0:0:0:0:
229,185,154598,1,8,0:0:0:0:
102,5,154772,6,0,B|42:28|48:96|48:96|60:114|60:114|132:132|162:185|135:219,1,287.999991210938,6|0,3:2|3:0,3:0:0:0:
70,375,155292,1,8,0:0:0:0:
0,270,155465,6,0,P|142:250|285:230,1,287.999991210938,6|0,3:2|3:0,0:0:0:0:
439,294,155899,1,0,3:0:0:0:
448,288,155986,2,0,P|479:214|456:138,1,143.999995605469,8|0,0:0|0:0,0:0:0:0:
217,38,156333,6,0,B|182:86|193:151|193:151|230:186|233:233|206:267|206:267|149:296|157:355,2,352.000010742188,8|8|4,0:0|0:0|3:2,0:0:0:0:
277,101,157200,1,0,3:0:0:0:
85,150,157373,1,8,0:0:0:0:
398,214,157546,1,4,3:1:0:0:
64,290,157893,5,0,3:0:0:0:
64,284,157980,1,0,3:0:0:0:
69,280,158067,1,8,0:0:0:0:
110,250,158153,1,8,0:0:0:0:
163,250,158240,1,8,0:0:0:0:
195,270,158327,1,8,0:0:0:0:
204,285,158413,6,0,P|237:304|255:267,2,80.0000030517579,0|8|8,3:0|0:0|0:0,0:0:0:0:
193,141,158760,2,0,P|171:131|171:157,2,53.3333333333333,0|8|4,3:0|0:3|0:3,0:0:0:0:
47,183,159107,6,0,B|105:150|169:181|169:181|205:147|260:151|260:151|228:119|190:143,1,300,4|0,1:0|0:0,0:0:0:0:
109,246,159453,1,10,0:0:0:0:
325,355,159627,2,0,B|387:340|387:340|419:344|419:344|481:329,1,160,0|2,1:0|0:0,0:0:0:0:
512,240,159974,1,0,1:0:0:0:
320,96,160148,5,10,0:2:0:0:
320,96,160234,1,0,3:0:0:0:
320,96,160320,2,0,B|261:105|207:138|207:138|236:197|247:280,1,240,0|0,1:0|0:0,0:0:0:0:
177,305,160667,1,0,1:0:0:0:
316,185,160841,2,0,P|354:182|388:158,1,80,10|0,0:0|0:0,0:0:0:0:
436,62,161015,5,0,1:0:0:0:
323,269,161187,1,2,0:2:0:0:
129,131,161361,1,0,1:0:0:0:
10,151,161534,1,10,0:0:0:0:
229,180,161708,2,0,P|271:159|321:148,1,80,0|0,3:0|0:0,0:0:0:0:
257,48,161882,6,0,P|142:31|129:132,1,240,2|0,1:2|0:0,0:0:0:0:
347,79,162228,1,10,0:0:0:0:
235,287,162402,2,0,B|156:269|156:269|82:297|82:297|3:276,1,240,0|0,1:0|0:0,0:0:0:0:
18,295,162749,2,0,P|38:303|56:323,1,47.9999985351563,0|0,1:0|0:0,0:0:0:0:
143,384,162922,2,0,P|158:366|205:358,1,47.9999985351563,10|0,0:0|0:0,0:0:0:0:
304,192,163096,6,0,P|427:212|455:316,1,240,4|0,1:2|0:0,0:0:0:0:
419,377,163442,1,0,3:0:0:0:
333,94,163615,5,10,0:0:0:0:
418,117,163789,1,0,1:0:0:0:
192,311,163962,1,2,3:2:0:0:
175,225,164135,5,0,1:0:0:0:
282,347,164309,1,10,0:0:0:0:
124,377,164482,1,0,3:0:0:0:
109,371,164569,1,0,3:0:0:0:
123,364,164656,1,4,1:0:0:0:
197,130,164830,5,0,3:0:0:0:
94,97,165003,1,10,0:0:0:0:
65,202,165176,2,0,B|111:269|183:230|183:230|188:165|254:152,1,240,0|0,1:0|0:0,0:0:0:0:
335,131,165523,1,0,1:0:0:0:
491,199,165697,1,10,0:0:0:0:
392,30,165870,6,0,P|371:148|354:267,1,240,4|0,1:2|0:0,0:0:0:0:
361,279,166217,1,0,1:0:0:0:
483,94,166390,1,10,0:0:0:0:
261,161,166564,1,0,3:0:0:0:
452,295,166737,2,0,P|419:366|342:372,1,160,0|0,1:0|0:0,0:0:0:0:
230,377,167084,1,10,0:0:0:0:
218,265,167257,5,0,3:0:0:0:
222,258,167344,1,0,3:0:0:0:
227,251,167431,2,0,P|215:172|190:88,1,160,4|8,1:0|0:0,0:0:0:0:
159,40,167691,1,8,0:0:0:0:
94,34,167778,1,8,0:0:0:0:
30,29,167864,1,8,0:0:0:0:
2,87,167951,6,0,P|79:105|155:130,1,160,4|8,1:2|0:3,0:0:0:0:
175,191,168211,1,8,0:3:0:0:
191,253,168298,1,8,0:3:0:0:
205,315,168385,1,8,0:3:0:0:
173,370,168471,5,4,0:3:0:0:
97,361,168558,1,4,0:3:0:0:
17,351,168645,1,8,0:0:0:0:
17,351,169165,5,6,3:0:0:0:
17,351,169252,1,0,3:0:0:0:
16,350,169338,2,0,P|24:312|53:284,1,80,0|0,3:0|3:0,0:0:0:0:
93,81,169512,5,6,3:0:0:0:
93,81,169598,1,0,3:0:0:0:
93,80,169685,2,0,P|121:76|147:90,1,60.0000022888184,0|0,3:0|3:0,0:0:0:0:
285,51,169859,5,6,3:0:0:0:
285,51,169946,1,0,3:0:0:0:
285,50,170032,2,0,P|293:67|289:86,1,40,0|0,3:0|3:0,0:0:0:0:
414,196,170205,6,0,L|456:187,3,40,0|0|0|0,3:0|3:0|3:0|3:0,0:0:0:0:
499,116,170552,1,8,0:0:0:0:
265,25,170726,6,0,P|252:144|243:263,1,240,4|0,1:0|0:0,0:0:0:0:
300,323,171072,1,0,1:0:0:0:
136,376,171246,2,0,P|91:358|82:321,1,80,10|0,0:0|0:0,0:0:0:0:
0,246,171419,6,0,B|55:195|134:223|134:223|186:197|164:143,1,240,0|0,1:0|0:0,0:0:0:0:
172,130,171766,1,0,1:0:0:0:
80,38,171939,2,0,P|68:76|62:115,1,80,10|0,0:0|0:0,0:0:0:0:
257,233,172113,2,0,P|279:156|291:77,1,160,0|2,1:0|0:0,0:0:0:0:
198,13,172460,1,0,1:0:0:0:
135,227,172633,1,10,0:0:0:0:
366,295,172807,5,0,3:0:0:0:
381,290,172893,1,0,3:0:0:0:
396,285,172980,1,2,1:2:0:0:
362,151,173153,1,0,3:0:0:0:
498,122,173327,1,10,0:0:0:0:
359,384,173500,6,0,B|277:369|278:288|278:288|212:257|172:307,1,240,0|0,1:0|0:0,0:0:0:0:
107,260,173847,1,0,1:0:0:0:
268,112,174020,1,10,0:0:0:0:
29,206,174194,6,0,B|31:256|-2:282|-2:282|29:374|121:342,1,240,4|0,1:2|0:0,0:0:0:0:
127,350,174541,1,0,1:0:0:0:
48,120,174714,1,10,0:0:0:0:
209,376,174887,1,0,3:0:0:0:
216,378,174974,1,8,0:0:0:0:
223,380,175061,1,0,1:0:0:0:
452,255,175234,5,8,0:3:0:0:
406,260,175321,1,8,0:3:0:0:
360,265,175408,1,8,0:3:0:0:
306,282,175494,1,4,0:3:0:0:
274,276,175581,1,4,0:3:0:0:
241,271,175668,1,4,0:3:0:0:
198,285,175754,6,0,B|116:232|170:108|266:131,1,240,4|0,1:0|0:0,0:0:0:0:
310,200,176101,1,0,1:0:0:0:
506,60,176275,2,0,B|453:-22|329:32|351:125,1,240,4|0,1:2|0:0,0:0:0:0:
310,200,176622,1,0,1:0:0:0:
54,169,176795,1,8,0:0:0:0:
156,376,176968,6,0,B|226:344|226:344|315:343|315:343|386:311,1,240,4|0,1:0|0:0,0:0:0:0:
452,271,177315,1,0,1:0:0:0:
351,124,177489,2,0,L|168:99,1,160,8|0,0:0|3:0,0:0:0:0:
176,99,177749,1,0,3:0:0:0:
160,96,177835,1,0,1:0:0:0:
38,290,178009,5,0,3:0:0:0:
108,250,178095,1,0,3:0:0:0:
174,278,178182,1,8,0:0:0:0:
202,320,178269,1,0,3:0:0:0:
245,332,178356,1,8,0:3:0:0:
274,313,178442,1,4,0:3:0:0:
278,295,178529,6,0,B|285:232|362:217|362:217|397:276|462:254,1,240,4|0,1:0|0:0,0:0:0:0:
512,192,178876,1,8,0:0:0:0:
234,12,179049,6,0,B|232:90|249:183|249:183|227:147|187:144,1,240,4|0,1:2|0:0,0:0:0:0:
180,225,179396,1,0,1:0:0:0:
443,54,179570,2,0,B|428:49|419:36|419:36|391:40|366:56,1,80,8|0,0:0|0:0,0:0:0:0:
123,89,179743,6,0,B|74:241|196:184|141:376,1,240,4|0,1:0|0:0,0:0:0:0:
55,367,180090,1,0,3:0:0:0:
47,363,180176,1,0,3:0:0:0:
39,359,180263,2,0,P|88:295|158:325,1,160,8|0,0:0|3:0,0:0:0:0:
241,356,180523,1,0,3:0:0:0:
332,325,180610,2,0,P|365:250|315:179,1,160,8|0,0:0|3:0,0:0:0:0:
327,90,180870,1,0,3:0:0:0:
420,65,180957,6,0,P|463:61|510:64,1,80,12|0,0:0|0:0,0:0:0:0:
188,210,181130,5,0,3:0:0:0:
102,166,181217,1,0,3:0:0:0:
7,183,181304,1,12,0:0:0:0:
488,24,182344,1,10,0:0:0:0:
412,0,182691,5,4,3:2:0:0:
41,361,188240,5,4,3:2:0:0:
41,361,188587,1,0,3:0:0:0:
41,361,188934,1,0,3:0:0:0:
41,361,189280,1,0,3:0:0:0:
41,361,189627,1,0,3:0:0:0:
41,361,189974,1,0,3:0:0:0:
41,361,190321,1,4,3:2:0:0:
331,319,190494,5,0,3:0:0:0:
324,321,190581,1,0,3:0:0:0:
317,323,190668,1,8,0:0:0:0:
280,303,190754,1,8,0:0:0:0:
272,244,190841,1,8,0:0:0:0:
317,188,190928,1,8,0:0:0:0:
394,201,191015,6,0,P|451:215|499:176,1,120.000004577637,8|8,3:0|0:0,0:0:0:0:
477,67,191275,1,8,0:0:0:0:
468,57,191361,1,8,3:2:0:0:
453,59,191448,1,8,0:0:0:0:
449,48,191535,2,0,P|356:55|266:72,1,180.000006866455,4|0,3:1|0:0,0:0:0:0:
187,57,191882,6,0,B|172:79|172:79|187:124,1,60.0000022888184,8|8,0:3|0:3,0:0:0:0:
212,339,192055,1,4,0:3:0:0:
192,351,192142,1,4,0:3:0:0:
195,373,192228,2,0,P|87:357|3:345,1,180.000006866455,4|0,3:2|0:0,0:0:0:0:
13,342,192575,6,0,P|42:334|72:329,1,60.0000022888184,4|4,0:3|0:3,0:0:0:0:
195,197,192749,2,0,P|224:204|254:210,1,60.0000022888184,4|4,0:3|0:3,0:0:0:0:
455,355,192922,6,0,B|418:242|510:236|464:121,1,240.000009155274,4|0,3:1|3:0,0:0:0:0:
384,40,193356,1,0,3:0:0:0:
384,40,193442,2,0,B|329:61|329:61|268:45,1,120.000004577637,8|0,0:0|3:0,0:0:0:0:
177,23,193702,1,0,3:0:0:0:
83,56,193789,6,0,B|34:79|17:144|17:144|49:190|13:241,1,204.000003890991,4|0,3:1|0:0,0:0:0:0:
40,311,194136,6,0,B|12:327|23:355|23:355|50:316|98:317,1,136.000002593994,8|0,0:0|3:0,0:0:0:0:
148,218,194396,1,0,3:0:0:0:
148,217,194483,2,0,P|140:177|125:142,1,60.0000022888184,0|0,3:0|0:0,0:0:0:0:
224,304,194656,2,0,P|264:296|299:281,1,60.0000022888184,0|0,3:0|0:0,0:0:0:0:
307,265,194830,2,0,P|220:271|181:350,1,180.000006866455,8|0,0:0|0:0,0:0:0:0:
185,371,195176,5,0,3:0:0:0:
377,211,195350,1,0,3:0:0:0:
228,128,195523,2,0,P|249:160|291:170,2,80.0000030517579,10|2|2,0:0|0:0|0:0,0:0:0:0:
307,265,195870,6,0,P|302:295|301:330,1,60.0000022888184,0|0,3:0|0:0,0:0:0:0:
462,187,196043,2,0,P|467:157|468:122,1,60.0000022888184,0|0,3:0|0:0,0:0:0:0:
211,30,196217,6,0,B|158:58|158:58|88:44,1,120.000004577637,8|0,0:0|0:0,0:0:0:0:
0,232,196564,2,0,B|31:215|67:221|67:221|112:186|105:137|56:132,1,180.000006866455,0|0,3:0|0:0,0:0:0:0:
58,144,196911,2,0,P|52:172|57:214,1,60.0000022888184,8|0,0:0|0:0,0:0:0:0:
160,336,197084,5,2,0:0:0:0:
169,343,197171,1,2,0:0:0:0:
179,336,197257,2,0,B|127:288|55:318|55:318|84:328|87:350,1,180.000006866455,2|0,3:2|0:0,0:0:0:0:
40,320,197604,1,8,0:0:0:0:
256,376,197778,2,0,B|277:372|277:372|292:376|292:376|330:370,1,60.0000022888184,0|0,3:0|0:0,0:0:0:0:
461,192,197951,1,0,0:0:0:0:
410,337,198124,6,0,B|421:303|421:303|398:266,1,60.0000022888184,0|0,3:0|0:0,0:0:0:0:
450,198,198298,2,0,B|417:172|417:172|378:183,2,80.0000030517579,10|2|2,0:0|0:0|0:0,0:0:0:0:
304,128,198645,6,0,P|297:159|292:186,1,60.0000022888184,0|0,3:0|0:0,0:0:0:0:
389,90,198818,2,0,P|396:58|400:31,1,60.0000022888184,0|0,3:0|0:0,0:0:0:0:
200,199,198991,2,0,B|211:278|294:278|294:278|251:305|223:267,1,215.999993408203,12|0,0:0|0:0,0:0:0:0:
206,101,199338,6,0,B|155:-5|42:35|42:35|93:26|123:84,1,264.0000025177,4|8,3:1|0:0,0:0:0:0:
304,128,199859,1,2,0:0:0:0:
313,120,199945,1,2,0:0:0:0:
313,108,200032,1,2,3:2:0:0:
140,282,200205,2,0,B|121:306|121:306|131:332,1,60.0000022888184,0|0,3:0|0:0,0:0:0:0:
199,378,200379,6,0,P|105:354|-17:330,1,180.000006866455,8|0,0:0|0:0,0:0:0:0:
10,255,200726,2,0,P|39:251|68:243,1,60.0000022888184,0|0,3:0|0:0,0:0:0:0:
190,134,200899,1,0,3:0:0:0:
68,242,201072,6,0,P|27:217|32:171,2,80.0000030517579,10|2|2,0:0|0:0|0:0,0:0:0:0:
123,94,201419,5,2,3:2:0:0:
191,126,201535,5,2,0:0:0:0:
257,90,201650,5,2,0:0:0:0:
332,90,201766,5,8,0:0:0:0:
362,158,201882,5,2,0:0:0:0:
425,197,201997,5,2,0:0:0:0:
501,179,202113,6,0,B|518:154|518:154|501:127,2,53.3333333333333,2|2|2,3:2|0:0|0:0,0:0:0:0:
406,276,202460,2,0,B|389:301|389:301|401:320,2,53.3333333333333,10|2|2,0:0|0:0|0:0,0:0:0:0:
324,354,202807,5,2,3:2:0:0:
324,354,202922,2,0,P|297:349|261:346,1,53.3333333333333,2|2,0:0|0:0,0:0:0:0:
173,248,203153,5,10,0:0:0:0:
173,248,203268,2,0,P|146:252|110:255,1,53.3333333333333,2|2,0:0|0:0,0:0:0:0:
6,324,203500,6,0,P|93:337|141:347,1,120.000004577637,2|2,3:2|0:0,0:0:0:0:
267,254,203760,1,2,0:0:0:0:
272,248,203847,2,0,P|268:211|261:162,1,60.0000022888184,8|0,0:0|0:0,0:0:0:0:
319,66,204020,1,4,3:2:0:0:
86,7,204194,5,8,0:0:0:0:
23,52,204280,1,8,0:0:0:0:
23,114,204367,1,8,0:0:0:0:
69,145,204454,1,8,0:0:0:0:
107,163,204541,1,8,0:3:0:0:
116,193,204627,1,8,0:3:0:0:
105,211,204714,1,4,0:3:0:0:
107,222,204801,1,4,0:3:0:0:
114,226,204887,6,0,B|176:261|147:323|147:323|118:325|111:352,1,160,4|0,3:1|0:0,0:0:0:0:
112,346,205408,1,0,3:0:0:0:
380,196,205581,2,0,B|488:175|488:175|447:211,1,160,12|0,0:2|0:0,0:0:0:0:
450,207,206101,2,0,B|378:196|378:196|362:197|362:197|270:183,1,160,0|0,3:0|3:0,0:0:0:0:
222,231,206622,1,8,0:3:0:0:
136,219,206795,1,4,0:3:0:0:
48,46,206968,5,14,0:0:0:0:
56,47,207055,1,2,0:0:0:0:
64,51,207142,1,2,0:0:0:0:
70,58,207228,1,2,0:0:0:0:
72,66,207315,2,0,B|134:107|187:57|187:57|241:73,1,160,4|0,3:1|0:0,0:0:0:0:
301,41,207835,1,0,3:0:0:0:
228,191,208009,6,0,P|213:269|212:349,1,160,12|0,0:0|0:0,0:0:0:0:
212,349,208529,1,0,3:0:0:0:
80,320,208702,6,0,P|77:265|71:222,1,80,4|0,0:0|3:0,0:0:0:0:
68,234,208963,1,0,3:0:0:0:
55,215,209049,1,8,0:0:0:0:
49,157,209136,1,8,0:0:0:0:
92,100,209223,1,8,0:0:0:0:
169,102,209309,1,8,0:0:0:0:
200,173,209396,1,8,0:3:0:0:
177,205,209483,1,8,0:3:0:0:
147,205,209570,1,4,0:3:0:0:
136,193,209656,1,4,0:3:0:0:
140,184,209743,6,0,P|222:190|309:239,1,160,4|0,3:1|0:0,0:0:0:0:
320,313,210263,1,0,3:0:0:0:
512,139,210437,2,0,P|432:170|357:166,1,160,4|0,3:2|0:0,0:0:0:0:
266,65,210957,6,0,P|277:140|295:250,1,160,0|0,3:0|0:0,0:0:0:0:
162,130,211477,1,0,3:0:0:0:
184,14,211650,1,0,3:0:0:0:
7,83,211824,2,0,P|40:61|79:60,1,80,12|0,0:0|0:0,0:0:0:0:
200,219,212171,6,2,B|186:262|186:262|190:295|190:295|180:339,1,120,4|0,3:1|0:0,0:0:0:0:
103,365,212517,1,4,3:2:0:0:
34,304,212633,1,2,0:0:0:0:
105,247,212749,1,2,0:0:0:0:
37,187,212864,2,0,P|81:220|125:147,1,160,10|0,0:0|0:0,0:0:0:0:
87,74,213385,6,0,B|117:62|117:62|202:80,1,120,0|0,3:0|0:0,0:0:0:0:
282,101,213731,1,8,0:0:0:0:
480,32,213905,2,0,P|484:83|481:125,1,80,8|0,0:0|0:0,0:0:0:0:
430,180,214252,1,8,0:3:0:0:
427,191,214338,1,8,0:3:0:0:
424,202,214425,1,4,0:3:0:0:
422,214,214512,1,4,0:3:0:0:
468,279,214598,6,0,P|430:247|378:240,1,100,4|0,3:2|0:0,0:0:0:0:
195,338,214945,6,0,B|150:360|118:316|123:306|128:297|88:254|43:277,1,180.000006866455,4|0,3:1|0:0,0:0:0:0:
12,354,215291,6,0,B|84:391|131:323|98:307|138:219|223:258,1,264.000008056641,12|0,0:0|0:0,0:0:0:0:
296,219,215638,5,2,3:2:0:0:
230,159,215754,5,2,3:2:0:0:
293,99,215869,5,2,3:2:0:0:
359,157,215985,6,0,P|274:145|161:119,1,180.000006866455,10|0,0:0|0:0,0:0:0:0:
144,16,216332,2,0,P|87:38|21:61,1,120.000004577637,0|0,3:0|3:0,0:0:0:0:
5,229,216679,5,10,3:2:0:0:
28,235,216794,5,2,3:2:0:0:
48,222,216910,5,2,3:2:0:0:
74,88,217025,5,2,3:2:0:0:
31,57,217141,2,0,P|23:91|14:144,1,80.0000030517579,2|2,3:2|3:2,0:0:0:0:
144,196,217372,5,10,3:2:0:0:
220,156,217488,2,0,P|228:122|237:69,1,80.0000030517579,2|2,3:2|3:2,0:0:0:0:
145,278,217719,6,2,B|190:280|218:241|218:241|295:323|214:373,1,240,2|0,3:2|0:0,0:0:0:0:
208,366,218066,2,0,B|213:336|213:336|221:328|220:325|228:280,1,80,8|0,0:0|0:0,0:0:0:0:
305,218,218239,1,0,3:0:0:0:
303,210,218326,1,0,3:0:0:0:
301,202,218413,1,0,3:0:0:0:
231,12,218586,2,0,L|218:77,1,60.0000022888184,2|0,3:2|0:0,0:0:0:0:
220,156,218760,5,10,3:2:0:0:
227,154,218846,1,2,3:2:0:0:
234,152,218933,1,2,3:2:0:0:
241,150,219020,1,2,3:2:0:0:
260,136,219106,5,2,3:2:0:0:
308,100,219193,1,2,3:2:0:0:
367,109,219280,1,2,3:2:0:0:
394,162,219366,1,2,3:2:0:0:
376,220,219453,1,10,3:2:0:0:
318,239,219540,1,2,3:2:0:0:
285,289,219627,1,2,3:2:0:0:
301,346,219713,1,2,3:2:0:0:
356,373,219800,5,8,3:0:0:0:
364,350,219887,1,8,3:0:0:0:
391,369,219973,5,4,3:0:0:0:
399,346,220060,1,4,3:0:0:0:
422,367,220147,6,0,B|431:324|475:308|475:308|499:242|447:196,1,204.000003890991,12|0,3:2|0:0,0:0:0:0:
293,28,220494,6,0,B|206:36|207:108|207:108|261:39|355:81,1,264.000008056641,4|0,3:1|0:0,0:0:0:0:
452,29,220840,6,0,P|486:101|418:60,1,215.999993408203,12|0,0:0|0:0,0:0:0:0:
449,198,221187,6,0,P|447:224|447:271,1,64,8|0,0:0|0:0,0:0:0:0:
228,296,221361,1,0,3:0:0:0:
324,69,221534,2,0,P|326:100|326:132,1,64,8|0,0:0|0:0,0:0:0:0:
341,305,221708,5,0,3:0:0:0:
335,324,221794,1,0,3:0:0:0:
327,344,221881,2,0,P|327:320|331:281,1,64,8|0,0:0|0:0,0:0:0:0:
173,123,222054,1,2,3:2:0:0:
173,123,222141,1,2,3:2:0:0:
173,123,222228,1,10,3:2:0:0:
124,162,222314,1,2,3:2:0:0:
64,149,222401,1,2,3:2:0:0:
35,95,222488,1,2,3:2:0:0:
59,37,222575,1,10,3:2:0:0:
126,5,222661,1,2,3:2:0:0:
197,30,222748,1,2,3:2:0:0:
229,97,222835,1,2,3:2:0:0:
205,168,222921,1,10,3:2:0:0:
137,212,223007,1,2,3:2:0:0:
58,199,223094,1,2,3:2:0:0:
9,136,223181,1,2,3:2:0:0:
14,55,223268,6,0,P|32:164|33:263,1,192,4|0,3:2|0:0,0:0:0:0:
0,384,223615,5,8,3:2:0:0:
8,376,223702,1,8,3:2:0:0:
16,368,223788,2,0,P|124:349|249:335,1,215.999993408203,4|0,3:1|0:0,0:0:0:0:
241,345,224135,1,0,3:0:0:0:
496,168,224309,2,0,P|388:187|263:201,1,215.999993408203,4|0,3:2|0:0,0:0:0:0:
271,191,224656,1,0,3:0:0:0:
12,31,224829,2,0,P|120:12|245:-2,1,215.999993408203,4|0,3:1|0:0,0:0:0:0:
233,9,225176,1,0,3:0:0:0:
441,287,225349,6,0,B|387:266|342:291|342:291|302:280,1,143.999995605469,6|8,3:2|0:3,0:0:0:0:
239,263,225609,1,8,0:3:0:0:
211,321,225696,1,8,0:3:0:0:
155,354,225783,1,8,0:3:0:0:
91,345,225869,1,4,0:3:0:0:
42,301,225956,1,4,0:3:0:0:
35,235,226043,6,0,B|85:236|122:187|122:187|175:263|101:326,1,240.000009155274,4|8,3:1|0:0,0:0:0:0:
40,145,226563,6,0,B|76:68|76:68|55:44|36:16,1,143.999995605469,0|0,3:0|0:0,0:0:0:0:
22,14,226910,1,0,3:0:0:0:
214,153,227083,2,0,L|344:132,1,95.9999970703126,8|0,0:0|0:0,0:0:0:0:
308,137,227430,1,0,3:0:0:0:
254,28,227603,6,0,P|195:37|176:90,1,95.9999970703126,0|10,3:0|0:0,0:0:0:0:
366,238,227950,2,0,P|424:188|396:69,1,191.999994140625,0|0,3:0|3:0,0:0:0:0:
276,238,228471,2,0,P|285:292|292:360,1,95.9999970703126,10|2,0:0|0:0,0:0:0:0:
493,383,228817,6,0,P|502:285|517:162,1,191.999994140625,0|8,3:0|0:0,0:0:0:0:
512,192,229338,2,0,P|452:214|411:206,1,95.9999970703126,0|0,3:0|0:0,0:0:0:0:
380,350,229684,2,0,P|320:328|279:336,1,95.9999970703126,0|8,3:0|0:0,0:0:0:0:
192,256,230031,6,0,B|229:141|114:198|152:80,1,191.999994140625,0|0,3:0|3:0,0:0:0:0:
170,67,230465,1,0,3:0:0:0:
170,67,230551,2,0,P|217:59|280:47,1,95.9999970703126,10|0,0:0|0:0,0:0:0:0:
459,107,230898,2,0,P|349:126|337:179,1,143.999995605469,2|0,3:2|0:0,0:0:0:0:
329,152,231245,2,0,P|340:212|346:254,1,95.9999970703126,10|2,0:0|0:0,0:0:0:0:
216,366,231592,6,0,B|144:366|100:309|100:309|40:335,1,191.999994140625,0|8,3:0|0:0,0:0:0:0:
47,331,232112,2,0,P|26:284|2:243,1,95.9999970703126,0|0,3:0|0:0,0:0:0:0:
147,175,232459,1,0,3:0:0:0:
147,175,232632,2,0,P|168:222|192:263,1,95.9999970703126,8|0,0:0|0:0,0:0:0:0:
189,260,232979,6,0,B|203:154|273:191|283:87,1,191.999994140625,0|10,3:0|0:0,0:0:0:0:
214,17,233499,2,0,B|162:26|163:27|114:36,1,95.9999970703126,0|2,3:0|0:0,0:0:0:0:
97,145,233846,1,0,3:0:0:0:
3,118,234020,2,0,P|-3:163|-7:214,1,95.9999970703126,10|2,0:0|0:0,0:0:0:0:
80,326,234366,6,0,B|215:299|215:299|261:339,1,191.999994140625,0|8,3:0|0:0,0:0:0:0:
288,216,234887,2,0,P|269:168|284:125,1,95.9999970703126,0|0,3:0|0:0,0:0:0:0:
424,296,235234,1,0,3:0:0:0:
351,345,235407,2,0,L|241:332,1,95.9999970703126,8|0,0:0|0:0,0:0:0:0:
160,64,235754,5,2,3:0:0:0:
163,68,235840,1,0,3:0:0:0:
157,68,235927,1,8,0:0:0:0:
156,61,236014,1,8,0:0:0:0:
163,61,236100,1,8,0:0:0:0:
42,235,236274,6,0,P|102:111|239:108,1,287.999991210938,6|0,3:0|3:0,0:0:0:0:
362,155,236708,1,0,3:0:0:0:
376,147,236795,2,0,P|384:73|317:49,1,143.999995605469,8|0,0:0|0:0,0:0:0:0:
240,0,237142,6,0,P|259:118|274:237,1,240.000009155274,6|8,3:2|0:0,0:0:0:0:
175,194,237661,1,2,3:2:0:0:
290,321,237835,1,0,0:0:0:0:
370,116,238008,1,2,3:2:0:0:
290,321,238181,1,10,0:2:0:0:
78,207,238355,1,2,3:2:0:0:
78,207,238702,5,2,3:2:0:0:
290,321,238875,1,10,0:0:0:0:
285,15,239049,2,0,P|267:117|265:151,1,120.000004577637,2|0,3:2|0:0,0:0:0:0:
324,229,239395,1,2,3:2:0:0:
180,361,239569,2,0,P|82:347|23:342,1,120.000004577637,14|0,0:0|3:0,0:0:0:0:
39,325,239829,5,8,0:0:0:0:
39,325,239916,2,0,L|125:310,1,60.0000022888184,8|8,0:3|0:3,0:0:0:0:
212,205,240089,1,8,3:2:0:0:
229,210,240176,1,8,3:2:0:0:
246,214,240262,1,8,0:0:0:0:
488,360,240436,6,0,B|428:319|354:349|354:349|295:302,1,180.000006866455,4|0,3:1|0:0,0:0:0:0:
243,305,240783,1,0,3:0:0:0:
243,305,240956,1,8,0:0:0:0:
24,24,241129,6,0,B|84:65|158:35|158:35|217:82,1,180.000006866455,4|0,3:1|0:0,0:0:0:0:
269,79,241476,1,0,3:0:0:0:
269,79,241649,1,8,0:0:0:0:
70,363,241823,6,0,B|-19:320|36:188|36:188|52:240|104:253,1,287.999991210938,4|0,3:1|3:0,0:0:0:0:
93,249,242257,1,0,3:0:0:0:
93,249,242343,1,8,0:0:0:0:
264,32,242517,6,0,B|246:137|246:137|270:182|270:182|252:298,1,264.000008056641,4|0,3:1|0:0,0:0:0:0:
248,303,242864,1,2,3:2:0:0:
356,143,243037,6,0,B|368:105|368:105|360:107|360:107|339:136,1,80,10|0,0:0|0:0,0:0:0:0:
163,129,243210,6,0,B|124:138|124:138|130:144|130:144|166:148,1,80,2|0,3:2|0:0,0:0:0:0:
248,303,243384,6,0,B|275:332|275:332|277:324|277:324|262:291,1,80,10|0,0:0|0:0,0:0:0:0:
258,61,243557,5,2,3:2:0:0:
258,61,243644,1,2,0:0:0:0:
258,61,243731,2,0,B|247:8|247:8|240:3|240:3|233:41|233:41|261:67,1,120.000004577637,10|0,0:0|0:0,0:0:0:0:
141,255,243904,5,2,3:2:0:0:
141,255,243991,1,2,0:0:0:0:
141,255,244078,2,0,B|101:291|101:291|100:299|100:299|136:286|136:286|145:249,1,120.000004577637,10|0,0:0|0:0,0:0:0:0:
368,259,244251,5,2,3:2:0:0:
368,259,244338,1,2,0:0:0:0:
368,259,244425,2,0,B|419:276|419:276|426:273|426:273|397:248|397:248|360:258,1,120.000004577637,10|0,0:0|0:0,0:0:0:0:
84,179,244598,5,2,3:2:0:0:
84,179,244684,1,2,0:0:0:0:
84,179,244771,2,0,B|75:131|75:131|63:113|63:113|50:54,1,120.000004577637,10|0,0:0|0:0,0:0:0:0:
428,179,244945,5,2,3:2:0:0:
428,179,245031,1,2,0:0:0:0:
428,179,245118,2,0,B|437:131|437:131|449:113|449:113|462:54,1,120.000004577637,10|0,0:0|0:0,0:0:0:0:
246,332,245291,5,2,3:2:0:0:
239,334,245378,1,2,3:2:0:0:
245,338,245465,1,14,0:0:0:0:
222,270,245551,1,10,0:0:0:0:
261,209,245638,1,8,3:0:0:0:
298,147,245725,1,8,3:0:0:0:
273,79,245811,1,4,3:0:0:0:
62,355,245985,6,0,P|63:239|142:325,1,300,4|0,3:1|0:0,0:0:0:0:
142,325,246332,2,0,L|247:313,1,100,0|0,3:0|3:0,0:0:0:0:
449,28,246505,6,0,P|448:144|369:58,1,300,4|0,3:2|0:0,0:0:0:0:
369,56,246852,2,0,L|268:68,1,100,0|0,3:0|3:0,0:0:0:0:
400,384,247025,6,0,B|397:307|475:280|475:280|499:212,1,200,4|0,3:1|0:0,0:0:0:0:
203,18,247372,5,0,3:0:0:0:
195,15,247459,1,0,3:0:0:0:
188,13,247546,2,0,B|171:82|171:82|201:130|201:130|210:210,1,200,4|0,3:2|3:0,0:0:0:0:
160,284,247806,1,0,3:0:0:0:
227,350,247892,6,0,B|276:320|328:337|328:337|387:290|373:204|290:187,1,300,12|0,0:0|0:0,0:0:0:0:
286,197,248239,1,8,0:3:0:0:
80,302,248413,5,0,3:0:0:0:
80,302,248499,1,0,3:0:0:0:
80,302,248586,2,0,L|52:184,1,71.9999978027344,8|8,0:0|0:0,0:0:0:0:
192,131,248760,2,0,L|220:249,1,71.9999978027344,8|8,0:3|0:3,0:0:0:0:
28,33,248933,5,8,0:3:0:0:
20,67,249019,1,8,0:3:0:0:
33,100,249106,1,4,0:3:0:0:
62,121,249193,1,4,0:3:0:0:
97,121,249279,1,8,3:0:0:0:
103,118,249366,1,8,3:0:0:0:
109,114,249453,6,0,P|116:77|129:45,1,71.9999978027344,4|0,3:0|0:0,0:0:0:0:
286,197,249627,6,0,P|283:224|274:249,2,53.3333333333333,8|8|8,0:0|0:0|0:0,0:0:0:0:
148,296,249973,6,0,P|172:285|199:280,2,53.3333333333333,8|8|8,0:3|0:3|0:3,0:0:0:0:
303,367,250320,6,0,P|281:350|263:330,2,53.3333333333333,4|4|4,0:3|0:3|0:3,0:0:0:0:
374,162,250667,5,4,3:0:0:0:
374,162,251014,6,0,B|330:152|295:174|295:174|271:135|294:74|294:74|284:59|284:59|242:53|210:97|210:97|199:132|211:168,1,360.000013732911,4|0,1:0|0:0,0:0:0:0:
215,177,251361,1,10,0:0:0:0:
383,79,251534,6,0,B|349:154|342:226|342:226|271:260|287:340,1,264.000008056641,0|0,1:0|0:0,0:0:0:0:
292,325,251881,1,0,1:0:0:0:
114,196,252054,1,10,0:0:0:0:
8,376,252228,6,0,B|75:368|75:368|119:344|119:344|212:336,1,176.000005371094,0|2,1:0|0:0,0:0:0:0:
197,247,252575,1,0,1:0:0:0:
30,58,252748,2,0,P|1:92|-5:135,1,88.000002685547,10|0,0:0|0:0,0:0:0:0:
63,220,252921,2,0,P|141:188|159:105,1,176.000005371094,0|2,1:0|0:0,0:0:0:0:
116,30,253268,1,0,1:0:0:0:
280,0,253442,6,0,B|249:34|254:91|254:91|291:119|281:173,1,176.000005371094,10|0,0:0|3:0,0:0:0:0:
224,227,253702,1,0,3:0:0:0:
224,227,253788,2,0,B|317:197|317:197|355:208|391:237,1,176.000005371094,0|0,1:0|3:0,0:0:0:0:
465,246,254049,1,0,3:0:0:0:
511,182,254135,2,0,B|523:143|523:143|503:93,1,88.000002685547,10|0,0:0|0:0,0:0:0:0:
363,59,254309,6,0,B|387:184|387:184|382:213|382:213|413:376,1,300,0|0,1:0|0:0,0:0:0:0:
313,372,254655,2,0,P|313:352|317:332,1,40,0|0,1:0|0:0,0:0:0:0:
138,240,254829,2,0,P|146:222|163:210,1,40,10|0,0:0|0:0,0:0:0:0:
432,180,255002,6,0,B|407:168|387:137|387:137|340:146|302:115|302:115|259:128|237:165|237:165|193:108|122:137,1,335.999989746094,4|0,1:2|0:0,0:0:0:0:
73,172,255349,1,0,1:0:0:0:
363,59,255523,1,10,0:0:0:0:
239,249,255696,1,0,1:0:0:0:
74,82,255869,5,2,1:2:0:0:
184,319,256043,1,0,1:0:0:0:
226,19,256216,1,10,0:0:0:0:
11,258,256390,5,0,3:0:0:0:
11,258,256476,1,0,3:0:0:0:
11,258,256563,2,0,B|45:235|91:245|91:245|110:262|110:262|119:302|176:308,1,176.000005371094,4|0,1:0|3:0,0:0:0:0:
227,358,256823,1,0,3:0:0:0:
312,334,256910,2,0,B|324:303|324:303|321:265|301:233,1,88.000002685547,8|0,0:0|0:0,0:0:0:0:
216,188,257083,6,0,B|274:265|359:188|359:188|412:183|453:224,1,264.000008056641,0|0,1:0|0:0,0:0:0:0:
450,237,257430,1,0,1:0:0:0:
130,171,257603,1,8,0:0:0:0:
460,120,257777,6,0,B|410:125|384:90|384:90|336:105|327:151|327:151|363:175|350:224|350:224|305:235|295:280,1,335.999989746094,4|0,1:2|0:0,0:0:0:0:
312,355,258124,1,0,1:0:0:0:
457,32,258297,1,10,0:0:0:0:
360,4,258471,1,0,1:0:0:0:
392,299,258644,1,2,1:2:0:0:
211,249,258817,5,0,1:0:0:0:
269,56,258991,1,8,0:0:0:0:
57,28,259164,1,0,3:0:0:0:
57,28,259251,1,0,3:0:0:0:
57,28,259338,2,0,B|71:52|65:97|65:97|81:124|81:124|121:111|149:151,1,176.000005371094,0|8,1:0|0:0,0:0:0:0:
141,166,259598,1,8,0:0:0:0:
135,185,259684,1,8,0:0:0:0:
131,206,259771,1,8,0:0:0:0:
125,227,259858,6,0,B|40:227|13:309|13:309|51:315|69:352|69:352|100:310|128:318|128:318|159:323|170:284,1,335.999989746094,4|0,1:0|0:0,0:0:0:0:
211,237,260205,5,8,0:3:0:0:
236,227,260291,1,8,0:3:0:0:
264,232,260378,1,4,0:3:0:0:
285,250,260465,1,4,0:3:0:0:
294,276,260551,1,4,0:3:0:0:
294,276,261072,5,6,3:0:0:0:
285,250,261158,1,0,3:0:0:0:
264,232,261245,1,0,3:0:0:0:
236,227,261332,1,0,3:0:0:0:
211,237,261419,1,6,3:0:0:0:
180,282,261505,1,0,3:0:0:0:
188,336,261592,1,0,3:0:0:0:
231,369,261679,1,0,3:0:0:0:
286,364,261765,1,6,3:0:0:0:
331,314,261852,1,0,3:0:0:0:
310,238,261939,1,0,3:0:0:0:
353,173,262025,1,0,3:0:0:0:
434,172,262112,6,0,L|494:188,3,40,8|8|8|8,0:3|0:3|0:3|0:3,0:0:0:0:
486,188,262459,1,8,0:0:0:0:
244,23,262632,6,0,P|271:170|290:319,1,300,4|0,1:0|0:0,0:0:0:0:
280,332,262979,2,0,B|230:350|230:350|194:313,1,100,0|0,1:0|0:0,0:0:0:0:
300,141,263153,2,0,B|328:136|350:111|350:111|356:138|330:158,1,100,10|0,0:0|0:0,0:0:0:0:
386,221,263326,6,0,B|346:167|257:163|257:163|206:213|145:181,1,264.000008056641,0|0,1:0|0:0,0:0:0:0:
138,171,263673,1,0,1:0:0:0:
244,23,263846,1,10,0:0:0:0:
25,130,264020,2,0,B|-4:173|15:221|15:221|60:229|82:268,1,176.000005371094,0|2,1:0|0:0,0:0:0:0:
110,369,264366,1,0,1:0:0:0:
240,245,264540,2,0,B|279:226|322:266|322:266|337:213|403:222,1,176.000005371094,10|0,0:0|3:0,0:0:0:0:
468,252,264800,1,0,3:0:0:0:
480,339,264887,6,0,B|428:334|406:378|406:378|370:329|404:293,1,176.000005371094,0|0,1:0|3:0,0:0:0:0:
462,163,265147,1,0,3:0:0:0:
462,163,265234,2,0,B|483:147|470:114|470:114|466:135|449:143,1,88.000002685547,10|0,0:0|0:0,0:0:0:0:
365,65,265407,6,0,B|341:81|349:117|349:117|422:126|474:205|474:205|463:222|467:251,1,264.000008056641,0|0,1:0|0:0,0:0:0:0:
480,339,265754,2,0,B|449:350|421:330|421:330|399:336|391:356,1,88.000002685547,0|0,1:0|0:0,0:0:0:0:
328,384,265927,1,10,0:0:0:0:
97,210,266101,6,0,B|132:185|169:228|169:228|183:180|218:167|218:167|246:197|286:183|286:183|311:219|360:192,1,300,4|0,1:2|0:0,0:0:0:0:
365,206,266447,1,0,1:0:0:0:
106,355,266621,2,0,B|88:304|30:315|30:315|-22:280|16:208,1,176.000005371094,10|0,0:0|3:0,0:0:0:0:
19,156,266881,1,0,3:0:0:0:
105,129,266968,2,0,P|115:170|96:209,1,88.000002685547,8|0,0:3|0:0,0:0:0:0:
34,49,267141,5,8,0:0:0:0:
93,22,267227,1,8,0:0:0:0:
156,36,267314,1,8,0:3:0:0:
200,84,267401,1,8,0:3:0:0:
206,148,267488,1,4,0:3:0:0:
248,195,267574,1,4,0:3:0:0:
310,192,267661,6,0,B|318:112|398:103|398:103|438:37|371:-7,1,264.000008056641,4|0,1:0|0:0,0:0:0:0:
360,0,268008,1,8,0:0:0:0:
350,280,268181,6,0,B|276:313|228:248|228:248|151:246|147:326,1,264.000008056641,4|0,1:2|0:0,0:0:0:0:
158,332,268528,1,0,1:0:0:0:
407,202,268702,1,8,0:0:0:0:
268,37,268875,6,0,P|253:176|240:341,1,300,4|0,1:0|0:0,0:0:0:0:
239,354,269222,1,0,1:0:0:0:
352,106,269395,1,8,0:0:0:0:
53,197,269569,1,0,1:0:0:0:
142,115,269742,5,0,1:0:0:0:
44,331,269915,1,0,1:0:0:0:
322,288,270089,1,8,0:0:0:0:
363,300,270176,1,8,0:3:0:0:
404,313,270262,1,4,0:3:0:0:
446,326,270349,1,4,0:3:0:0:
488,339,270436,6,0,B|466:287|496:239|496:239|451:212|459:159|459:159|531:109|487:37,1,335.999989746094,4|0,1:0|0:0,0:0:0:0:
416,0,270783,1,8,0:0:0:0:
146,51,270956,6,0,B|233:24|285:105|285:105|333:69|388:85|388:85|369:58|326:67,1,335.999989746094,4|0,1:2|0:0,0:0:0:0:
188,137,271303,1,0,1:0:0:0:
489,41,271476,1,8,0:0:0:0:
189,232,271650,6,0,B|107:226|89:149|89:149|24:122|-17:163|-17:163|13:160|77:184|80:241,1,360.000013732911,4|0,1:0|0:0,0:0:0:0:
74,297,271997,1,0,3:0:0:0:
82,297,272083,1,0,3:0:0:0:
84,305,272170,2,0,B|146:315|176:261|176:261|211:243|246:265,1,176.000005371094,8|0,0:0|3:0,0:0:0:0:
327,250,272430,1,0,3:0:0:0:
365,329,272517,6,0,B|398:367|444:354,1,88.000002685547,0|0,3:0|0:0,0:0:0:0:
512,72,272690,5,8,0:0:0:0:
452,30,272777,1,8,0:0:0:0:
401,49,272864,1,8,0:3:0:0:
395,83,272950,1,8,0:3:0:0:
408,96,273037,1,4,0:3:0:0:
420,95,273124,1,4,0:3:0:0:
421,87,273210,6,0,P|336:73|116:44,1,300,4|0,1:0|0:0,0:0:0:0:
41,34,273557,1,10,0:0:0:0:
240,192,273731,2,0,B|246:254|191:304|191:304|152:292|126:325,1,176.000005371094,0|2,1:0|0:0,0:0:0:0:
94,373,274077,1,0,1:0:0:0:
321,238,274251,1,10,0:0:0:0:
25,149,274424,6,0,B|47:147|65:131|65:131|89:136|114:153|114:153|116:192|151:219,1,176.000005371094,0|0,1:0|0:0,0:0:0:0:
276,342,274771,2,0,P|311:320|359:317,1,88.000002685547,0|0,1:0|0:0,0:0:0:0:
456,238,274945,1,10,0:0:0:0:
478,380,275118,6,0,P|449:297|406:219,1,176.000005371094,0|2,1:0|0:0,0:0:0:0:
457,117,275465,1,0,1:0:0:0:
232,55,275638,1,10,0:0:0:0:
294,155,275812,1,0,3:0:0:0:
336,163,275898,1,0,3:0:0:0:
369,133,275985,1,0,1:0:0:0:
365,10,276158,6,0,B|355:27|332:26|332:26|314:48|319:89,1,88.000002685547,0|0,3:0|0:0,0:0:0:0:
195,147,276332,2,0,B|175:200|222:245,1,88.000002685547,10|0,0:0|0:0,0:0:0:0:
307,273,276505,6,0,P|228:253|186:324,1,176.000005371094,0|2,1:0|0:2,0:0:0:0:
41,364,276852,1,0,3:0:0:0:
25,355,276939,1,0,3:0:0:0:
25,337,277025,1,10,0:0:0:0:
320,288,277199,6,0,P|281:153|142:152,1,300,0|2,1:0|0:2,0:0:0:0:
70,110,277546,1,0,1:0:0:0:
132,278,277719,6,0,P|175:254|222:236,1,100,10|0,0:0|0:0,0:0:0:0:
463,62,277892,2,0,P|419:85|372:103,1,100,0|0,3:0|0:0,0:0:0:0:
142,152,278066,6,0,P|181:149|220:152,1,80,0|0,1:0|0:0,0:0:0:0:
453,188,278239,2,0,P|413:190|374:187,1,80,0|0,1:0|0:0,0:0:0:0:
281,61,278413,1,10,0:0:0:0:
320,288,278586,5,0,3:0:0:0:
320,288,278673,1,0,3:0:0:0:
320,288,278760,2,0,B|269:254|223:305|223:305|239:333|199:404|145:370,1,240,4|0,1:0|0:0,0:0:0:0:
142,358,279106,1,10,0:0:0:0:
367,212,279280,2,0,B|400:234|446:235|446:235|484:277|448:323,1,160,0|2,1:0|0:0,0:0:0:0:
512,384,279627,1,0,3:0:0:0:
512,384,279713,1,0,3:0:0:0:
512,384,279800,1,10,0:0:0:0:
280,192,279973,6,0,B|259:159|279:122|279:122|289:124|289:124|313:83|293:47,1,160,4|2,1:2|0:0,0:0:0:0:
366,7,280320,1,0,1:0:0:0:
188,180,280494,1,10,0:0:0:0:
26,27,280667,1,0,1:0:0:0:
127,49,280840,1,2,1:2:0:0:
100,149,281014,1,0,1:0:0:0:
0,126,281187,1,10,0:0:0:0:
115,243,281361,5,0,3:0:0:0:
115,243,281447,1,0,3:0:0:0:
115,243,281534,2,0,B|116:270|94:284|94:284|90:317|124:326,1,80,4|0,1:2|0:0,0:0:0:0:
191,359,281708,1,8,0:0:0:0:
244,346,281794,1,8,0:0:0:0:
267,294,281881,1,8,0:0:0:0:
246,241,281968,1,8,0:0:0:0:
281,197,282054,2,0,B|346:169|391:237|391:237|416:245|416:245|475:237|474:180,1,240,4|0,1:0|0:0,0:0:0:0:
504,138,282401,5,8,0:3:0:0:
459,91,282488,1,8,0:3:0:0:
417,99,282575,1,4,0:3:0:0:
407,125,282661,1,4,0:3:0:0:
411,135,282748,2,0,B|352:167|282:112|282:112|288:93|288:93|228:37|152:68,1,300.000011444092,0|0,3:0|0:0,0:0:0:0:
128,39,283268,6,0,P|120:94|114:146,1,80,6|0,3:0|3:0,0:0:0:0:
432,166,283442,5,0,3:0:0:0:
432,166,283528,1,0,3:0:0:0:
432,166,283615,2,0,P|440:221|446:273,1,80,6|0,3:0|3:0,0:0:0:0:
79,238,283788,5,0,3:0:0:0:
79,238,283874,1,0,3:0:0:0:
79,238,283961,2,0,P|71:293|65:345,1,80,6|0,3:0|3:0,0:0:0:0:
473,357,284135,5,0,3:0:0:0:
473,357,284222,1,0,3:0:0:0:
473,357,284309,1,8,0:3:0:0:
424,316,284395,1,8,0:3:0:0:
360,305,284482,1,8,0:3:0:0:
299,327,284569,1,8,0:3:0:0:
262,379,284655,1,8,0:0:0:0:
39,275,284829,6,0,B|93:321|154:264|154:264|186:302|243:286|243:286|263:338|337:324,1,300,4|0,1:0|0:0,0:0:0:0:
366,384,285176,1,0,1:0:0:0:
467,235,285349,2,0,B|489:228|490:203|490:203|463:229|428:224,1,100,10|0,0:0|0:0,0:0:0:0:
265,14,285523,6,0,B|243:59|261:117|261:117|237:136|216:206|216:206|201:169|226:138,1,264.000008056641,0|0,1:0|0:0,0:0:0:0:
340,68,285869,1,0,1:0:0:0:
125,199,286043,1,10,0:0:0:0:
300,353,286216,6,0,B|302:308|339:285|339:285|349:231|301:187,1,176.000005371094,0|2,1:0|0:0,0:0:0:0:
51,111,286563,2,0,B|28:122|28:151|28:151|47:169|46:207,1,88.000002685547,0|0,1:0|0:0,0:0:0:0:
0,273,286736,1,10,0:0:0:0:
164,352,286910,1,0,3:0:0:0:
181,348,286997,1,0,3:0:0:0:
198,344,287083,1,0,1:0:0:0:
312,198,287257,5,0,1:0:0:0:
159,158,287430,1,10,0:0:0:0:
102,304,287603,2,0,B|161:280|200:333|200:333|239:303|294:308|294:308|319:334|356:330,1,264.000008056641,0|0,1:0|0:0,0:0:0:0:
408,379,287950,1,0,1:0:0:0:
512,250,288124,1,10,0:0:0:0:
425,66,288297,6,0,B|373:73|354:129|354:129|379:162|376:200|376:200|416:216|416:216|404:266|431:316,1,300,4|0,1:2|0:0,0:0:0:0:
491,353,288644,1,0,1:0:0:0:
288,192,288817,1,8,0:0:0:0:
170,279,288991,1,8,0:3:0:0:
170,279,289078,1,8,0:3:0:0:
170,279,289164,1,4,0:3:0:0:
421,294,289338,6,0,B|396:338|396:338|362:301,1,100,8|8,0:0|0:0,0:0:0:0:
191,183,289511,1,8,0:3:0:0:
191,183,289598,1,8,0:3:0:0:
191,183,289684,1,4,0:3:0:0:
191,183,289771,1,4,0:3:0:0:
191,183,289858,6,0,B|231:147|204:106|204:106|228:87|260:95|260:95|277:62|319:64|319:64|268:11|205:-2|161:63,1,335.999989746094,4|0,1:0|0:0,0:0:0:0:
199,26,290205,1,8,0:0:0:0:
97,201,290378,6,0,B|95:260|150:277|150:277|147:285|147:285|199:294|240:279|260:247|260:247|264:308|225:284|200:318,1,335.999989746094,4|0,1:2|0:0,0:0:0:0:
199,325,290725,1,0,1:0:0:0:
108,117,290898,1,8,0:0:0:0:
14,354,291072,6,0,B|88:321|172:379|172:379|186:377|186:377|246:329|246:329|276:357|327:356,1,335.999989746094,4|0,1:0|0:0,0:0:0:0:
399,334,291418,1,0,1:0:0:0:
275,96,291592,6,0,B|235:113|195:101|195:101|147:154|198:188,1,176.000005371094,8|0,0:0|3:0,1:0:0:0:
190,182,291852,1,0,3:0:0:0:
190,182,291939,1,0,1:0:0:0:
315,24,292112,2,0,B|331:42|357:46|357:46|376:30|411:36,1,88.000002685547,0|0,1:0|0:0,0:0:0:0:
471,69,292286,1,8,0:3:0:0:
476,75,292372,1,8,0:3:0:0:
479,83,292459,1,4,0:3:0:0:
480,91,292546,1,4,0:3:0:0:
481,99,292632,6,0,B|415:144|411:226|411:226|470:268|442:337,1,264.000008056641,4|0,1:0|0:0,0:0:0:0:
390,384,292979,1,8,0:0:0:0:
81,300,293153,6,0,B|58:291|32:307|32:307|90:257|122:269|166:301|166:301|161:307|161:307|196:350|252:321,1,300,4|0,1:2|0:0,0:0:0:0:
318,274,293499,1,0,3:0:0:0:
327,272,293586,1,0,3:0:0:0:
336,270,293673,1,8,0:0:0:0:
478,134,293846,6,0,B|458:125|447:107|447:107|410:131|351:136|351:136|338:168|338:168|276:174|231:206|231:206|217:185|193:175,1,335.999989746094,4|0,1:0|0:0,0:0:0:0:
117,202,294193,5,0,3:0:0:0:
87,168,294280,1,0,3:0:0:0:
43,175,294366,1,12,0:0:0:0:
183,78,294540,5,0,3:0:0:0:
163,132,294627,1,0,3:0:0:0:
199,178,294713,1,12,0:0:0:0:
8,93,294887,5,0,3:0:0:0:
81,80,294974,1,0,3:0:0:0:
110,9,295060,1,12,0:0:0:0:
120,300,295234,1,0,3:0:0:0:
311,82,295407,1,4,1:0:0:0:
311,82,296101,6,0,B|342:174|283:144|315:242,1,160,4|2,1:2|0:0,0:0:0:0:
322,239,297141,1,2,0:0:0:0:
329,240,297488,1,2,0:0:0:0:
335,241,297835,1,2,0:0:0:0:
496,304,298181,6,0,P|413:289|381:366,1,180.000006866455,4|0,3:1|0:0,0:0:0:0:
392,376,298528,1,10,0:0:0:0:
168,320,298702,2,0,P|176:258|187:202,1,120.000004577637,0|2,3:0|0:0,0:0:0:0:
280,152,299049,1,0,3:0:0:0:
232,0,299222,1,10,0:0:0:0:
24,40,299395,5,0,3:0:0:0:
24,40,299482,1,0,3:0:0:0:
24,40,299569,2,0,P|12:98|-5:227,1,180.000006866455,2|0,3:2|0:0,0:0:0:0:
56,272,299916,2,0,B|81:256|81:256|111:265,1,60.0000022888184,10|0,0:0|0:0,0:0:0:0:
273,139,300089,6,0,B|221:146|186:118|186:118|131:145|141:197,1,180.000006866455,0|0,3:0|0:0,0:0:0:0:
149,198,300436,1,0,3:0:0:0:
256,360,300609,1,10,0:0:0:0:
442,286,300783,5,0,3:0:0:0:
442,286,300869,1,0,3:0:0:0:
442,286,300956,2,0,B|446:219|491:172|491:172|480:117,1,180.000006866455,2|0,3:2|0:0,0:0:0:0:
396,87,301303,2,0,P|393:116|400:145,1,60.0000022888184,10|0,0:0|0:0,0:0:0:0:
469,28,301476,6,0,P|385:58|300:34,1,180.000006866455,0|0,3:0|0:0,0:0:0:0:
290,26,301823,1,0,3:0:0:0:
169,160,301997,1,8,0:0:0:0:
22,76,302170,1,0,3:0:0:0:
22,76,302257,1,0,3:0:0:0:
22,75,302343,2,0,P|62:60|99:60,1,60.0000022888184,4|0,3:2|0:0,0:0:0:0:
257,174,302517,5,4,3:0:0:0:
229,226,302604,5,4,3:0:0:0:
175,250,302690,5,8,0:0:0:0:
118,230,302777,5,8,0:0:0:0:
81,181,302864,6,0,P|41:260|87:362,1,204.000003890991,12|0,0:0|0:0,0:0:0:0:
158,365,303210,1,8,0:0:0:0:
214,315,303297,1,8,0:0:0:0:
175,250,303384,1,8,0:3:0:0:
211,184,303471,1,8,0:3:0:0:
284,193,303557,1,4,0:3:0:0:
311,263,303644,1,4,0:3:0:0:
384,280,303731,6,0,P|468:255|469:145,1,204.000003890991,4|0,3:2|0:0,0:0:0:0:
463,150,304077,1,10,0:0:0:0:
242,52,304251,2,0,P|217:140|208:207,1,136.000002593994,0|2,3:2|0:0,0:0:0:0:
277,277,304598,1,0,3:0:0:0:
143,381,304771,1,10,0:0:0:0:
2,303,304945,5,0,3:0:0:0:
2,303,305031,1,0,3:0:0:0:
2,303,305118,2,0,B|30:317|30:317|66:307,1,68.0000012969971,2|0,3:2|0:0,0:0:0:0:
73,134,305291,2,0,B|45:120|45:120|8:129,1,68.0000012969971,0|0,3:2|0:0,0:0:0:0:
37,220,305465,2,0,L|126:225,1,68.0000012969971,10|0,0:0|0:0,0:0:0:0:
277,277,305638,6,0,P|211:260|141:367,1,204.000003890991,0|0,3:0|0:0,0:0:0:0:
143,381,305985,1,0,3:0:0:0:
272,176,306158,6,0,B|291:148|291:148|249:30,1,136.000002593994,8|0,0:0|3:0,0:0:0:0:
251,47,306418,1,0,3:0:0:0:
245,42,306505,1,4,3:2:0:0:
213,261,306679,6,0,P|243:276|277:277,1,68.0000012969971,8|0,0:3|0:3,0:3:0:0:
399,180,306852,1,4,0:3:0:0:
399,180,306939,1,4,0:3:0:0:
399,180,307025,2,0,P|370:198|353:227,1,68.0000012969971,4|0,0:3|0:3,0:3:0:0:
376,381,307199,2,0,P|374:347|357:317,1,68.0000012969971,8|0,0:3|0:0,0:3:0:0:
213,261,307372,6,0,P|243:276|277:277,1,68.0000012969971,4|0,0:3|0:3,0:3:0:0:
391,98,307546,5,4,0:3:0:0:
391,98,307632,2,0,P|359:175|353:236,1,136.000002593994,4|0,0:3|0:3,0:3:0:0:
357,317,307892,6,0,P|399:302|444:296,1,90.6666683959961,2|0,3:0|0:0,0:0:0:0:
155,67,308124,2,0,P|112:81|67:87,1,90.6666683959961,2|0,3:0|0:0,0:0:0:0:
399,180,308355,6,0,P|436:154|478:137,1,90.6666683959961,2|0,3:0|0:0,0:0:0:0:
113,204,308586,2,0,P|75:229|33:246,1,90.0000034332277,2|0,3:0|0:0,0:0:0:0:
33,245,308933,5,4,3:2:0:0:
256,192,309020,12,8,312228,0:3:0:0:
296,232,312488,5,8,3:0:0:0:
