osu file format v14

[General]
AudioFilename: audio.mp3
AudioLeadIn: 0
PreviewTime: 101926
Countdown: 0
SampleSet: Soft
StackLeniency: 0.5
Mode: 0
LetterboxInBreaks: 0
WidescreenStoryboard: 0

[Editor]
DistanceSpacing: 0.5
BeatDivisor: 4
GridSize: 32
TimelineZoom: 3.699998

[Metadata]
Title:Yami no Kanata e
TitleUnicode:闇の彼方へ
Artist:Mizutani Runa (NanosizeMir)
ArtistUnicode:水谷瑠奈(NanosizeMir)
Creator:fnayR
Version:Darkness
Source:Rewrite
Tags:key vn visual novel video game ed ending VisualArts Visual Arts リライト female vocal j pop jpop j-pop japanese pop
BeatmapID:4440463
BeatmapSetID:2114653

[Difficulty]
HPDrainRate:6
CircleSize:4
OverallDifficulty:8
ApproachRate:8
SliderMultiplier:3
SliderTickRate:1

[Events]
//Background and Video events
0,0,"bg.jpg",0,0
//Break Periods
2,200648,207880
//Storyboard Layer 0 (Background)
//Storyboard Layer 1 (Fail)
//Storyboard Layer 2 (Pass)
//Storyboard Layer 3 (Foreground)
//Storyboard Layer 4 (Overlay)
//Storyboard Sound Samples

[TimingPoints]
579,779.220779220779,4,2,1,45,1,0
1358,681.818181818182,4,2,1,45,1,0
6642,-100,4,2,1,50,0,0
10210,674.157303370787,4,2,1,60,1,0
10210,-333.333333333333,4,2,1,60,0,0
10884,-166.666666666667,4,2,1,65,0,0
11558,-76.9230769230769,4,2,1,70,0,0
12267,681.818181818182,4,2,1,75,1,0
12267,-90.9090909090909,4,2,1,75,0,0
33573,-166.666666666667,4,2,1,75,0,0
34085,-90.9090909090909,4,2,1,65,0,0
52494,714.285714285714,4,2,1,65,1,0
53252,714.285714285714,4,2,1,65,1,0
53858,681.818181818182,4,2,1,65,1,0
53858,-90.9090909090909,4,2,1,65,0,0
54539,-90.9090909090909,4,2,1,60,0,0
55221,-90.9090909090909,4,2,1,55,0,0
55903,681.818181818182,4,2,1,65,1,0
55903,-100,4,2,1,45,0,0
58630,-166.666666666667,4,2,1,50,0,0
77721,-125,4,2,1,55,0,0
79937,-166.666666666667,4,2,1,55,0,0
80448,-125,4,2,1,60,0,0
90846,-166.666666666667,4,2,1,60,0,0
91357,-100,4,2,1,70,0,0
102267,-90.9090909090909,4,2,1,75,0,0
123573,-166.666666666667,4,2,1,75,0,0
124085,-90.9090909090909,4,2,1,65,0,0
132267,-90.9090909090909,4,2,1,60,0,0
134312,-90.9090909090909,4,2,1,55,0,0
134994,-166.666666666667,4,2,1,50,0,0
145903,-142.857142857143,4,2,1,55,0,0
154085,-111.111111111111,4,2,1,55,0,0
156301,-166.666666666666,4,2,1,55,0,0
156812,-125,4,2,1,60,0,0
167210,-166.666666666667,4,2,1,60,0,0
167721,-100,4,2,1,70,0,0
176585,-166.666666666667,4,2,1,70,0,0
177267,-90.9090909090909,4,2,1,70,0,0
177948,-76.9230769230769,4,2,1,70,0,0
178630,-90.9090909090909,4,2,1,75,0,0
209738,-90.9090909090909,4,2,1,5,0,0
209823,-90.9090909090909,4,2,1,75,0,0
210505,-76.9230769230769,4,2,1,75,0,0
211357,-166.666666666667,4,2,1,50,0,0
216812,-166.666666666667,4,2,1,55,0,0
219539,-166.666666666667,4,2,1,60,0,0
220903,-100,4,2,1,65,0,0
222267,-83.3333333333333,4,2,1,75,0,0
232153,767.754318618042,4,2,1,75,1,0
232153,-83.3333333333333,4,2,1,75,0,0
233176,681.818181818182,4,2,1,75,1,0
233176,-83.3333333333333,4,2,1,75,0,0
238630,-90.9090909090909,4,2,1,75,0,0
241016,-76.9230769230769,4,2,1,75,0,0
244085,-90.9090909090909,4,2,1,75,0,0
245448,-83.3333333333333,4,2,1,75,0,0
246812,-90.9090909090909,4,2,1,75,0,0
268119,-166.666666666667,4,2,1,75,0,0
268630,-90.9090909090909,4,2,1,75,0,0
287728,681.818181818182,4,2,1,70,1,0
288409,769.23076923077,4,2,1,65,1,0
289178,-100,4,2,1,60,0,0
289722,769.23076923077,4,2,1,55,1,0
290290,833.333333333334,4,2,1,55,1,0
290498,952.380952380953,4,2,1,55,1,0
290736,779.220779220779,4,2,1,45,1,0
290736,-142.857142857143,4,2,1,45,0,0
291515,685.714285714286,4,2,1,45,1,0
293572,681.818181818182,4,2,1,45,1,0
296307,697.674418604651,4,2,1,45,1,0
297004,666.666666666667,4,2,1,45,1,0
297170,705.882352941176,4,2,1,45,1,0
297522,714.285714285714,4,2,1,45,1,0
297879,689.655172413793,4,2,1,45,1,0
298223,824.742268041237,4,2,1,45,1,0
299150,769.230769230769,4,2,1,50,1,0
299919,819.672131147541,4,2,1,50,1,0
300738,823.045267489712,4,2,1,50,1,0
301561,1287.55364806867,4,2,1,50,1,0
302848,689.655172413793,4,2,1,50,1,0
309744,-100,4,2,1,25,0,0

[Colours]
Combo1 : 155,166,191
Combo2 : 93,98,121
Combo3 : 216,183,151
Combo4 : 84,60,39

[HitObjects]
469,21,1260,6,0,L|492:34,2,18.75,2|2|6,0:0|0:0|3:2,0:0:0:0:
301,54,1698,1,2,0:0:0:0:
405,99,2039,1,0,0:0:0:0:
359,118,2210,1,2,0:0:0:0:
194,23,2494,6,0,L|203:-4,2,25,2|2|2,0:0|0:0|0:0,0:0:0:0:
148,86,2892,1,2,0:0:0:0:
44,171,3233,5,0,0:0:0:0:
80,147,3403,1,2,0:0:0:0:
104,152,3573,1,0,0:0:0:0:
224,256,3744,2,0,L|272:239,3,37.5,2|2|2|2,0:0|0:0|0:0|0:0,0:0:0:0:
278,256,4085,5,2,3:2:0:0:
219,384,4426,1,2,0:0:0:0:
399,303,4767,1,0,0:0:0:0:
424,347,4937,1,2,0:0:0:0:
499,213,5164,6,0,L|508:187,2,25,2|2|2,0:0|0:0|0:0,0:0:0:0:
444,143,5619,1,2,0:0:0:0:
512,50,5960,1,2,0:0:0:0:
301,0,6301,1,2,0:0:0:0:
391,203,6642,1,2,3:2:0:0:
391,203,6727,1,2,3:2:0:0:
391,203,6812,1,6,3:2:0:0:
256,192,6983,12,4,9539,3:2:0:0:
0,0,10210,6,0,L|20:84,1,67.4999979400635,6|0,3:1|0:0,0:0:0:0:
256,64,10884,6,0,L|224:195,1,134.999995880127,6|0,3:1|0:0,0:0:0:0:
128,384,11558,6,0,B|206:298|115:227|106:260|34:189|114:106,1,292.499986610413,6|0,3:1|0:0,0:0:0:0:
329,283,12267,6,0,P|405:312|524:343,1,165.000005035401,6|0,3:1|3:0,0:0:0:0:
314,368,12778,1,0,3:0:0:0:
162,179,12948,2,0,P|84:208|5:230,1,165.000005035401,8|8,0:0|0:1,0:0:0:0:
5,229,13460,1,8,0:1:0:0:
182,101,13630,6,0,B|201:58|201:58|188:22,1,82.5000025177003,8|0,3:0|3:0,0:0:0:0:
320,128,13971,1,4,3:0:0:0:
320,128,14056,1,0,0:0:0:0:
320,128,14142,1,2,0:0:0:0:
480,64,14312,2,0,P|440:76|400:86,1,82.5000025177003,8|0,0:0|3:0,0:0:0:0:
320,256,14653,1,0,3:0:0:0:
238,160,14823,1,8,0:0:0:0:
400,86,14994,6,0,B|428:198|432:143|463:236,1,165.000005035401,4|0,3:2|0:0,0:0:0:0:
320,128,15505,1,4,3:0:0:0:
320,128,15590,1,0,3:0:0:0:
320,128,15676,1,8,0:0:0:0:
224,31,15846,2,0,P|263:20|298:0,1,82.5000025177003,0|8,3:0|0:1,0:0:0:0:
389,70,16187,1,0,3:0:0:0:
226,176,16357,2,0,P|155:133|78:105,1,165.000005035401,0|8,3:0|3:0,0:0:0:0:
0,256,16869,5,0,3:0:0:0:
0,256,16954,1,0,3:0:0:0:
0,256,17039,1,8,0:0:0:0:
91,222,17210,1,0,3:0:0:0:
138,302,17380,2,0,P|125:333|109:393,1,82.5000025177003,4|8,3:0|0:1,0:0:0:0:
376,315,17721,6,0,P|363:267|246:246,1,165.000005035401,4|0,3:2|3:0,0:0:0:0:
450,109,18232,1,8,3:0:0:0:
502,170,18403,2,0,P|475:201|465:241,1,82.5000025177003,8|0,0:0|0:0,0:0:0:0:
380,338,18744,5,0,3:0:0:0:
262,236,18914,1,0,3:0:0:0:
372,130,19085,2,0,P|361:90|336:59,1,82.5000025177003,8|8,0:1|0:1,0:0:0:0:
122,30,19426,1,4,3:0:0:0:
152,102,19596,2,0,B|196:149|258:155|258:155|290:144|305:105,1,165.000005035401,2|0,0:0|3:0,0:0:0:0:
135,212,20107,2,0,P|94:219|59:240,1,82.5000025177003,2|8,3:2|0:0,0:0:0:0:
224,384,20448,6,0,P|267:338|224:224,1,165.000005035401,6|0,3:2|3:0,0:0:0:0:
135,212,20960,1,8,3:0:0:0:
290,343,21130,2,0,P|317:374|372:367,1,82.5000025177003,8|0,0:0|3:0,0:0:0:0:
512,192,21471,5,8,0:0:0:0:
352,299,21642,1,8,0:0:0:0:
310,136,21812,2,0,P|317:176|328:216,1,82.5000025177003,6|0,3:1|0:0,0:0:0:0:
512,64,22153,2,0,B|489:23|440:20|440:20|415:32|396:54,1,123.75000377655,8|0,3:0|0:0,0:0:0:0:
410,39,22494,6,0,P|386:26|371:23,1,41.2500012588501,10|2,0:0|0:0,0:0:0:0:
218,130,22664,2,0,P|233:107|236:93,1,41.2500012588501,6|2,3:1|0:0,0:0:0:0:
64,0,22835,2,0,P|85:16|98:22,1,41.2500012588501,2|2,0:0|0:0,0:0:0:0:
160,192,23005,1,10,0:0:0:0:
160,192,23090,1,2,0:0:0:0:
160,192,23176,6,0,B|210:231|203:288|203:288|180:314|167:348,1,165.000005035401,6|0,3:1|3:0,0:0:0:0:
97,384,23687,1,8,3:0:0:0:
37,128,23857,2,0,B|-13:167|-6:224|-6:224|17:250|30:284,1,165.000005035401,8|0,0:0|3:0,0:0:0:0:
157,85,24369,1,8,3:0:0:0:
157,85,24454,1,0,3:0:0:0:
157,85,24539,2,0,P|122:69|75:56,1,82.5000025177003,8|8,0:1|0:0,0:0:0:0:
246,239,24880,2,0,P|266:202|280:164,1,82.5000025177003,4|0,3:0|0:0,0:0:0:0:
455,0,25221,5,8,0:0:0:0:
512,75,25392,1,0,3:0:0:0:
444,144,25562,2,0,B|401:155|401:155|361:123,1,82.5000025177003,8|0,3:0|0:0,0:0:0:0:
218,20,25903,1,4,3:2:0:0:
218,20,26244,5,2,3:2:0:0:
264,125,26414,1,2,3:2:0:0:
219,233,26585,1,10,0:0:0:0:
244,283,26755,1,2,3:2:0:0:
228,315,26926,1,2,0:0:0:0:
235,329,27096,1,2,3:2:0:0:
307,191,27267,6,0,P|346:179|384:164,1,82.5000025177003,2|8,3:2|0:0,0:0:0:0:
264,125,27607,1,4,3:0:0:0:
385,251,27778,2,0,P|423:266|462:277,1,82.5000025177003,2|8,0:0|0:0,0:0:0:0:
297,384,28119,1,2,3:2:0:0:
211,251,28289,2,0,P|225:292|239:354,1,82.5000025177003,2|0,3:2|0:2,0:2:0:0:
462,277,28630,6,0,P|481:196|507:118,1,165.000005035401,4|2,3:2|3:2,0:0:0:0:
288,32,29142,2,0,P|336:27|365:5,1,82.5000025177003,2|8,3:2|0:0,0:0:0:0:
192,128,29482,2,0,B|118:109|105:41|105:41|110:17|145:-15,1,165.000005035401,2|0,3:2|3:0,0:0:0:0:
120,10,29994,1,2,0:0:0:0:
285,119,30164,2,0,P|310:153|321:193,1,82.5000025177003,10|8,0:1|3:0,0:0:0:0:
160,320,30505,2,0,P|171:280|195:247,1,82.5000025177003,2|8,0:1|0:0,0:0:0:0:
0,85,30846,2,0,B|27:183|28:135|72:267,1,165.000005035401,2|0,3:1|3:0,0:0:0:0:
288,384,31357,6,0,P|330:306|282:225,1,165.000005035401,6|2,3:1|0:0,0:0:0:0:
512,96,31869,1,4,3:0:0:0:
512,96,31954,1,0,3:0:0:0:
512,96,32039,2,0,P|479:123|396:133,1,82.5000025177003,10|0,3:2|0:0,0:0:0:0:
232,205,32380,5,2,3:2:0:0:
322,140,32551,1,8,0:1:0:0:
161,0,32721,2,0,P|174:19|178:37,1,41.2500012588501,8|0,0:1|0:0,0:0:0:0:
362,67,32892,5,6,3:1:0:0:
178,118,33062,2,0,P|138:106|104:83,1,82.5000025177003,2|0,3:2|3:0,0:0:0:0:
214,241,33403,6,0,P|219:221|231:204,1,41.2500012588501,10|0,0:0|0:0,0:0:0:0:
357,262,33573,2,0,P|389:307|406:361,1,112.499996566773,6|0,3:1|0:0,0:0:0:0:
407,362,34085,6,0,B|431:257|451:298|474:203,1,165.000005035401,6|0,3:1|3:0,0:0:0:0:
381,9,34596,1,4,3:0:0:0:
512,85,34767,2,0,P|473:71|433:61,1,82.5000025177003,10|2,0:0|3:2,0:0:0:0:
255,152,35107,1,0,3:0:0:0:
209,90,35278,2,0,P|229:16|305:23,1,165.000005035401,8|0,3:0|3:0,0:0:0:0:
393,235,35789,6,0,P|431:221|471:211,1,82.5000025177003,8|0,3:0|0:0,0:0:0:0:
188,303,36130,2,0,P|198:342|204:383,1,82.5000025177003,10|8,0:0|3:0,0:0:0:0:
129,253,36471,1,0,3:0:0:0:
324,166,36642,5,10,0:0:0:0:
324,166,36727,1,10,0:0:0:0:
324,166,36812,2,0,P|261:84|181:108,1,165.000005035401,2|0,3:2|3:0,0:0:0:0:
32,192,37323,1,4,3:0:0:0:
128,252,37494,2,0,B|147:211|147:211|124:173,1,82.5000025177003,10|2,0:0|3:2,0:0:0:0:
0,63,37835,1,0,3:0:0:0:
128,180,38005,2,0,B|237:197|183:211|301:236,1,165.000005035401,8|0,3:0|3:0,0:0:0:0:
457,384,38517,6,0,P|470:342|490:303,1,82.5000025177003,8|0,3:0|0:0,0:0:0:0:
309,150,38857,2,0,P|266:140|225:124,1,82.5000025177003,10|8,0:0|3:0,0:0:0:0:
356,91,39198,1,0,3:0:0:0:
512,0,39369,5,10,0:0:0:0:
512,0,39454,1,10,0:0:0:0:
512,0,39539,2,0,B|492:108|469:53|450:163,1,165.000005035401,2|0,3:2|3:0,0:0:0:0:
316,323,40051,1,4,3:0:0:0:
440,363,40221,2,0,P|390:371|348:393,1,82.5000025177003,10|2,0:0|3:2,0:0:0:0:
160,352,40562,1,0,3:0:0:0:
316,323,40732,2,0,P|352:215|328:177,1,165.000005035401,8|0,3:0|3:0,0:0:0:0:
183,80,41244,6,0,P|191:39|202:0,1,82.5000025177003,8|0,3:0|0:0,0:0:0:0:
411,190,41585,2,0,P|369:185|329:178,1,82.5000025177003,10|8,0:0|3:0,0:0:0:0:
454,118,41926,1,0,3:0:0:0:
280,241,42096,5,10,0:0:0:0:
280,241,42181,1,8,0:0:0:0:
280,241,42267,2,0,P|290:280|299:321,1,82.5000025177003,6|0,3:2|0:0,0:0:0:0:
183,80,42607,1,2,3:2:0:0:
72,186,42778,5,2,3:2:0:0:
72,186,42863,1,2,0:0:0:0:
72,186,42948,2,0,P|95:188|133:202,1,41.2500012588501,10|2,0:0|0:0,0:0:0:0:
199,335,43119,1,2,0:0:0:0:
299,321,43289,2,0,P|342:319|366:270,1,82.5000025177003,8|8,0:1|0:0,0:0:0:0:
98,384,43630,5,4,3:0:0:0:
0,226,43801,1,0,3:0:0:0:
67,110,43971,2,0,B|86:149|86:149|69:190,1,82.5000025177003,8|0,0:0|3:0,0:0:0:0:
237,362,44312,5,10,0:0:0:0:
237,362,44397,1,2,0:0:0:0:
237,362,44482,2,0,L|283:378,1,41.2500012588501,6|2,3:1|0:0,0:0:0:0:
386,276,44653,1,2,0:0:0:0:
386,276,44738,1,2,0:0:0:0:
386,276,44823,2,0,L|397:228,1,41.2500012588501,10|2,0:0|0:0,0:0:0:0:
256,160,44994,6,0,B|235:66|224:113|201:4,1,165.000005035401,6|0,3:1|3:0,0:0:0:0:
465,26,45505,1,4,3:0:0:0:
400,76,45676,2,0,P|359:85|322:102,1,82.5000025177003,10|2,0:0|3:2,0:0:0:0:
244,236,46017,1,0,3:0:0:0:
174,153,46187,2,0,P|90:197|114:261,1,165.000005035401,8|0,3:0|3:0,0:0:0:0:
256,384,46698,6,0,P|269:331|286:291,1,82.5000025177003,8|0,3:0|0:0,0:0:0:0:
512,192,47039,2,0,P|458:183|416:170,1,82.5000025177003,10|8,0:0|3:0,0:0:0:0:
350,211,47380,1,0,3:0:0:0:
236,28,47551,5,10,0:0:0:0:
236,28,47636,1,10,0:0:0:0:
236,28,47721,2,0,B|124:53|187:67|67:93,1,165.000005035401,2|0,3:2|3:0,0:0:0:0:
0,256,48232,1,4,3:0:0:0:
128,320,48403,2,0,P|113:281|103:241,1,82.5000025177003,10|2,0:0|3:2,0:0:0:0:
0,32,48744,1,0,3:0:0:0:
84,89,48914,2,0,P|161:97|238:31,1,165.000005035401,8|0,3:0|3:0,0:0:0:0:
448,0,49426,5,8,3:0:0:0:
336,170,49596,1,2,3:2:0:0:
336,170,49681,1,2,3:2:0:0:
336,170,49767,2,0,P|310:116|303:81,1,82.5000025177003,10|8,0:0|3:0,0:0:0:0:
228,47,50107,1,0,3:0:0:0:
428,173,50278,5,8,0:0:0:0:
428,173,50363,1,8,0:0:0:0:
428,173,50448,2,0,B|400:277|387:225|365:348,1,165.000005035401,4|0,3:2|3:2,0:0:0:0:
185,227,50960,1,2,3:2:0:0:
185,227,51045,1,2,3:2:0:0:
185,227,51130,2,0,P|230:217|274:207,1,82.5000025177003,10|0,0:0|3:0,0:0:0:0:
4,298,51471,5,6,3:2:0:0:
102,384,51642,2,0,P|131:359|68:263,1,165.000005035401,2|8,0:0|0:0,0:0:0:0:
0,174,52153,2,0,P|9:192|16:211,2,41.2500012588501,0|0|2,3:0|3:0|3:2,0:0:0:0:
67,0,52494,5,10,0:0:0:0:
131,38,52613,2,0,P|151:22|192:18,1,50,2|2,0:0|0:0,0:0:0:0:
57,103,52851,5,2,0:0:0:0:
57,103,52940,2,0,P|79:108|97:123,1,37.5,2|2,0:0|0:0,0:0:0:0:
248,1,53119,5,2,3:2:0:0:
289,53,53252,6,0,P|277:79|270:129,1,50,2|2,0:0|0:0,0:0:0:0:
194,212,53490,5,2,0:0:0:0:
159,162,53609,6,0,P|171:135|171:112,1,37.5,2|2,0:0|3:2,0:0:0:0:
311,201,53858,5,10,0:0:0:0:
311,201,54198,1,8,0:0:0:0:
233,384,54539,5,8,3:0:0:0:
259,343,54710,1,0,3:0:0:0:
211,259,54880,1,0,3:0:0:0:
311,201,55051,1,8,3:0:0:0:
220,77,55221,2,0,P|199:32|188:-16,1,82.5000025177003,4|0,3:0|3:0,0:0:0:0:
352,64,55562,2,0,P|337:85|330:115,2,55.0000016784668,2|2|2,3:2|0:2|0:2,0:0:0:0:
154,160,55903,1,6,3:2:0:0:
409,305,57693,6,0,P|402:322|398:340,2,37.5,0|0|0,3:0|3:0|3:0,0:0:0:0:
320,256,57948,1,8,3:0:0:0:
320,256,58630,6,0,B|297:140|287:196|251:66,1,179.999994506836,4|8,3:2|0:1,0:0:0:0:
448,0,59823,1,0,3:0:0:0:
448,0,59994,2,0,P|437:27|434:45,1,44.999998626709,2|2,0:0|0:0,0:0:0:0:
358,99,60335,2,0,P|353:77|344:56,1,44.999998626709,0|0,3:0|0:0,0:0:0:0:
224,0,60676,1,8,0:1:0:0:
224,0,61017,2,0,P|202:8|170:36,1,44.999998626709,2|2,0:0|0:0,0:0:0:0:
79,137,61358,6,0,P|34:132|0:105,2,89.9999972534181,2|0|8,3:2|0:0|0:1,0:0:0:0:
164,323,62380,1,0,3:0:0:0:
164,323,62551,1,0,3:0:0:0:
164,323,62721,2,0,P|188:308|227:297,1,44.999998626709,2|0,0:0|0:0,0:0:0:0:
71,364,63062,2,0,P|91:372|111:384,1,44.999998626709,0|0,3:0|0:0,0:0:0:0:
229,229,63403,5,8,0:1:0:0:
229,229,63573,1,2,0:0:0:0:
229,229,63744,2,0,P|239:206|254:171,1,44.999998626709,8|2,0:1|0:0,0:0:0:0:
320,256,64000,1,2,0:0:0:0:
320,256,64085,6,0,P|328:276|338:296,1,44.999998626709,2|0,3:2|0:0,0:0:0:0:
448,192,64426,1,0,0:0:0:0:
448,192,64767,2,0,P|425:187|405:178,1,44.999998626709,8|0,0:1|0:0,0:0:0:0:
260,57,65108,1,0,3:0:0:0:
260,57,65278,2,0,P|266:35|276:15,1,44.999998626709,0|0,3:0|0:0,0:0:0:0:
192,96,65789,1,0,3:0:0:0:
352,0,66130,1,8,0:1:0:0:
352,0,66471,2,0,P|373:6|388:26,1,44.999998626709,2|2,0:0|0:0,0:0:0:0:
480,128,66812,6,0,P|466:159|447:244,1,89.9999972534181,2|2,3:2|0:0,0:0:0:0:
384,256,67323,2,0,P|392:276|397:298,1,44.999998626709,0|8,0:0|0:1,0:0:0:0:
245,377,67664,1,2,0:0:0:0:
293,317,67835,1,2,3:2:0:0:
353,364,68005,2,0,P|374:370|396:376,1,44.999998626709,2|0,3:2|0:0,0:0:0:0:
512,264,68346,6,0,P|492:287|450:298,1,44.999998626709,2|2,0:0|3:2,0:0:0:0:
384,191,68687,2,0,P|354:182|326:149,1,44.999998626709,2|8,0:0|3:1,0:0:0:0:
512,127,69028,1,2,3:2:0:0:
512,127,69198,2,0,P|507:96|525:57,1,44.999998626709,2|0,0:0|0:0,0:0:0:0:
352,0,69539,6,0,P|381:34|368:90,2,89.9999972534181,2|0|8,3:2|0:0|0:1,0:0:0:0:
224,96,70562,1,0,0:0:0:0:
224,96,70733,1,0,3:0:0:0:
224,96,70903,2,0,P|250:100|283:109,1,44.999998626709,0|0,3:0|0:0,0:0:0:0:
160,0,71244,2,0,P|121:17|75:31,1,89.9999972534181,0|8,3:0|0:1,0:0:0:0:
136,167,71755,1,0,0:0:0:0:
136,167,71926,2,0,P|139:129|149:110,1,44.999998626709,0|0,3:0|0:0,0:0:0:0:
0,192,72267,6,0,P|14:228|72:233,1,89.9999972534181,0|0,3:2|0:0,0:0:0:0:
60,238,72948,1,8,0:1:0:0:
251,342,73289,1,0,3:0:0:0:
251,342,73460,1,0,3:0:0:0:
251,342,73630,2,0,P|261:372|272:403,1,44.999998626709,8|0,3:0|0:0,0:0:0:0:
124,313,73971,1,4,3:0:0:0:
124,313,74312,2,0,P|150:236|176:160,1,134.999995880127,2|0,3:2|0:0,0:0:0:0:
256,32,74994,6,0,P|290:58|286:101,1,89.9999972534181,2|0,3:2|0:0,0:0:0:0:
416,160,75505,1,8,3:0:0:0:
416,160,75676,2,0,L|407:129,2,22.4999993133545,8|2|2,0:1|0:0|3:2,0:0:0:0:
300,264,76017,1,0,3:0:0:0:
379,258,76187,6,0,P|402:266|427:278,1,44.999998626709,2|2,3:2|0:0,0:0:0:0:
462,340,76443,1,2,0:0:0:0:
462,340,76528,2,0,P|482:330|503:323,1,44.999998626709,2|0,3:2|3:0,0:0:0:0:
320,384,76869,2,0,P|338:352|327:329,1,44.999998626709,2|8,3:2|0:1,0:0:0:0:
224,256,77210,2,0,P|194:250|158:301,1,89.9999972534181,2|0,3:2|0:0,0:0:0:0:
32,384,77721,5,4,3:0:0:0:
101,226,77892,1,8,0:0:0:0:
30,142,78062,1,8,3:0:0:0:
30,142,78403,6,0,L|34:156,2,15,8|8|2,0:0|0:0|0:0,0:0:0:0:
96,96,78573,2,0,P|153:112|212:125,1,120,2|0,3:2|3:0,0:0:0:0:
289,92,79000,1,0,3:0:0:0:
289,92,79085,1,6,3:1:0:0:
128,0,79426,1,8,3:0:0:0:
128,0,79767,5,8,0:0:0:0:
289,92,79937,2,0,P|306:137|257:174,1,89.9999972534181,6|0,3:1|0:0,0:0:0:0:
448,0,80448,6,0,P|395:21|392:96,1,120,6|0,3:1|3:0,0:0:0:0:
432,138,80960,1,0,3:0:0:0:
379,255,81130,2,0,P|350:244|322:236,2,60,10|2|2,0:0|0:0|0:0,0:0:0:0:
454,227,81642,1,2,0:0:0:0:
501,354,81812,2,0,P|490:325|482:297,2,60,2|2|10,0:0|3:2|3:2,0:0:0:0:
426,384,82323,1,2,3:2:0:0:
293,312,82494,2,0,P|265:324|237:335,2,60,10|2|2,0:0|3:2|3:2,0:0:0:0:
175,382,83005,1,2,0:0:0:0:
69,242,83176,6,0,P|59:213|43:188,2,60,6|2|2,3:2|0:0|0:0,0:0:0:0:
52,319,83687,1,0,3:0:0:0:
134,181,83858,2,0,P|161:197|216:215,2,60,10|2|2,0:0|0:0|0:0,0:0:0:0:
236,145,84369,1,2,0:0:0:0:
119,57,84539,2,0,P|110:28|95:2,1,60,2|0,0:0|3:0,0:0:0:0:
159,127,84795,5,0,3:0:0:0:
159,127,84880,2,0,P|143:152|135:181,1,60,2|0,3:2|0:0,0:0:0:0:
52,319,85221,1,10,0:0:0:0:
208,229,85392,2,0,B|294:236|252:248|347:266,1,120,0|0,3:0|0:0,0:0:0:0:
512,160,85903,5,6,3:2:0:0:
497,194,86073,1,2,0:0:0:0:
471,204,86244,2,0,P|440:195|396:175,1,60,2|2,0:0|3:2,0:0:0:0:
320,0,86585,1,10,0:0:0:0:
355,11,86755,1,2,0:0:0:0:
367,37,86926,2,0,P|360:68|344:114,1,60,2|2,0:0|0:0,0:0:0:0:
208,229,87267,1,2,0:0:0:0:
215,193,87437,1,2,3:2:0:0:
240,178,87608,2,0,P|271:181|318:193,1,60,2|2,3:2|3:2,0:0:0:0:
416,384,87948,5,10,0:0:0:0:
463,320,88119,2,0,P|425:273|415:215,1,120,2|0,0:0|0:0,0:0:0:0:
225,330,88630,2,0,P|246:361|247:404,1,60,6|0,3:2|0:0,0:0:0:0:
74,334,88971,1,2,3:2:0:0:
142,384,89142,1,8,3:0:0:0:
224,192,89312,1,10,0:0:0:0:
89,258,89483,1,0,3:0:0:0:
185,118,89653,5,2,0:0:0:0:
185,118,89823,2,0,P|202:90|211:52,1,60,8|2,0:0|3:2,0:0:0:0:
51,141,90164,2,0,P|77:160|114:172,1,60,0|8,3:0|3:0,0:0:0:0:
0,73,90505,1,8,3:0:0:0:
160,0,90676,1,8,0:0:0:0:
288,128,90846,2,0,P|292:177|316:228,1,89.9999972534181,6|0,3:1|0:0,0:0:0:0:
512,96,91358,6,0,P|482:62|451:58,1,75,6|0,3:1|0:0,0:0:0:0:
307,214,91698,1,0,3:0:0:0:
362,270,91869,1,8,3:0:0:0:
425,227,92039,2,0,P|433:189|448:154,1,75,8|4,0:0|3:0,0:0:0:0:
512,288,92380,1,0,3:0:0:0:
291,384,92551,1,4,3:2:0:0:
291,384,92892,5,8,0:0:0:0:
239,325,93062,2,0,P|202:317|166:307,1,75,0|0,3:0|3:0,0:0:0:0:
0,356,93403,1,8,0:0:0:0:
149,384,93573,5,8,3:0:0:0:
41,185,93744,1,0,3:0:0:0:
0,254,93914,1,8,3:0:0:0:
192,192,94085,2,0,P|179:128|78:123,1,150,4|0,3:2|3:0,0:0:0:0:
256,0,94596,1,8,3:0:0:0:
314,49,94767,2,0,P|351:54|388:65,1,75,8|4,0:0|3:0,0:0:0:0:
208,119,95108,1,0,3:0:0:0:
394,268,95278,2,0,B|365:164|363:209|333:123,1,150,4|8,3:2|0:0,0:0:0:0:
224,288,95789,2,0,P|208:321|189:354,1,75,0|0,3:0|3:0,0:0:0:0:
389,384,96130,5,8,0:0:0:0:
480,224,96301,1,8,3:0:0:0:
330,327,96471,1,8,3:0:0:0:
297,246,96642,1,0,3:0:0:0:
189,354,96812,6,0,P|116:366|51:292,1,150,4|0,3:2|3:0,0:0:0:0:
0,280,97323,1,0,3:0:0:0:
130,166,97494,1,8,0:0:0:0:
0,96,97664,6,0,P|11:125|30:164,1,75,2|2,3:2|3:2,0:0:0:0:
88,73,97920,1,2,3:2:0:0:
88,73,98005,2,0,P|105:39|118:4,1,75,2|0,3:2|0:0,0:0:0:0:
245,90,98346,1,10,0:0:0:0:
245,90,98517,1,0,0:0:0:0:
352,0,98687,2,0,P|320:3|278:25,1,75,2|10,3:2|0:0,0:0:0:0:
383,79,98943,1,2,0:0:0:0:
383,79,99028,2,0,P|420:83|453:100,1,75,2|2,3:2|3:2,0:0:0:0:
329,279,99369,5,10,0:0:0:0:
329,279,99454,1,10,0:0:0:0:
329,279,99539,2,0,P|264:204|298:158,1,150,6|0,3:2|3:0,0:0:0:0:
512,256,100051,1,4,3:0:0:0:
428,345,100221,2,0,P|389:360|341:377,1,75,14|0,0:1|0:0,0:0:0:0:
127,301,100562,1,0,3:0:0:0:
189,384,100733,1,8,0:0:0:0:
329,279,100903,6,0,P|338:199|353:128,1,150,6|8,3:1|3:0,0:0:0:0:
86,0,101414,1,8,0:0:0:0:
144,52,101585,2,0,P|173:41|218:29,1,75,10|0,0:1|0:0,0:0:0:0:
4,121,101926,2,0,P|26:143|56:178,1,75,8|0,3:0|3:0,0:0:0:0:
160,384,102267,6,0,P|219:364|247:248,1,165.000005035401,6|0,3:1|3:0,0:0:0:0:
113,324,102778,1,0,3:0:0:0:
345,272,102948,2,0,P|319:214|201:197,1,165.000005035401,8|8,0:0|0:1,0:0:0:0:
227,186,103460,1,8,0:1:0:0:
58,57,103630,6,0,P|67:97|78:136,1,82.5000025177003,8|8,3:0|0:0,0:0:0:0:
191,0,103971,1,4,3:0:0:0:
191,0,104056,1,0,0:0:0:0:
191,0,104142,1,2,0:0:0:0:
325,70,104312,2,0,P|302:37|263:32,1,82.5000025177003,8|0,0:0|3:0,0:0:0:0:
407,0,104653,1,0,3:0:0:0:
310,215,104823,1,8,0:0:0:0:
456,77,104994,6,0,B|481:188|485:133|510:232,1,165.000005035401,4|0,3:2|0:0,0:0:0:0:
283,311,105505,1,4,3:0:0:0:
283,311,105590,1,0,3:0:0:0:
283,311,105676,1,8,0:0:0:0:
423,380,105846,2,0,P|382:370|340:356,1,82.5000025177003,0|8,3:0|0:1,0:0:0:0:
480,320,106187,1,0,3:0:0:0:
294,219,106358,2,0,P|213:245|130:265,1,165.000005035401,0|8,3:0|3:0,0:0:0:0:
0,384,106869,5,0,3:0:0:0:
0,384,106954,1,0,3:0:0:0:
0,384,107039,1,8,0:0:0:0:
77,318,107210,1,0,3:0:0:0:
26,229,107380,2,0,P|10:189|15:146,1,82.5000025177003,4|8,3:0|0:1,0:0:0:0:
224,32,107721,6,0,B|192:63|192:63|109:55|64:-19,1,165.000005035401,4|0,3:2|3:0,0:0:0:0:
201,221,108233,1,8,3:0:0:0:
266,178,108403,2,0,P|276:130|258:89,1,82.5000025177003,8|0,0:0|0:0,0:0:0:0:
454,53,108744,5,0,3:0:0:0:
348,200,108914,1,0,3:0:0:0:
477,252,109085,2,0,P|398:275|379:292,1,82.5000025177003,8|8,0:1|0:1,0:0:0:0:
213,335,109426,1,4,3:0:0:0:
273,384,109596,2,0,B|290:364|307:340|307:340|310:261|238:236,1,165.000005035401,2|0,0:0|3:0,0:0:0:0:
52,196,110108,2,0,B|96:206|96:206|141:170,1,82.5000025177003,2|8,3:1|0:0,0:0:0:0:
352,0,110448,6,0,B|329:103|314:61|286:174,1,165.000005035401,6|0,3:1|3:0,0:0:0:0:
285,72,110960,1,8,3:0:0:0:
446,242,111130,2,0,P|426:204|420:163,1,82.5000025177003,8|0,0:0|3:0,0:0:0:0:
279,309,111471,5,8,0:0:0:0:
362,384,111642,1,8,0:0:0:0:
510,268,111812,2,0,P|458:236|445:242,1,82.5000025177003,6|0,3:1|0:0,0:0:0:0:
260,384,112153,5,10,0:0:0:0:
46,243,112323,1,8,3:0:0:0:
91,340,112494,1,8,0:0:0:0:
198,118,112664,6,0,B|210:75|210:75|191:35,1,82.5000025177003,6|0,3:1|3:0,0:0:0:0:
0,164,113005,1,10,0:0:0:0:
0,164,113090,1,2,0:0:0:0:
0,164,113176,6,0,B|30:219|86:210|86:210|112:188|158:182,1,165.000005035401,6|0,3:1|3:0,0:0:0:0:
224,256,113687,1,8,3:0:0:0:
334,62,113858,2,0,B|304:7|248:16|248:16|222:38|176:44,1,165.000005035401,8|0,0:0|3:0,0:0:0:0:
448,128,114369,1,8,3:0:0:0:
448,128,114454,1,0,3:0:0:0:
448,128,114539,2,0,P|433:92|423:44,1,82.5000025177003,8|8,0:1|0:0,0:0:0:0:
264,187,114880,2,0,P|304:192|344:204,1,82.5000025177003,4|0,3:0|0:0,0:0:0:0:
418,384,115221,5,8,0:0:0:0:
506,313,115392,1,0,3:0:0:0:
429,239,115562,2,0,P|401:269|409:321,1,82.5000025177003,8|0,3:0|0:0,0:0:0:0:
512,64,115903,1,4,3:2:0:0:
512,64,116244,5,2,3:2:0:0:
358,127,116414,1,2,3:2:0:0:
224,64,116585,1,10,0:0:0:0:
172,87,116755,1,2,3:2:0:0:
140,70,116926,1,2,0:0:0:0:
123,82,117096,1,2,3:2:0:0:
70,257,117267,6,0,B|88:215|88:215|61:170,1,82.5000025177003,2|8,3:2|0:0,0:0:0:0:
0,300,117608,1,4,3:0:0:0:
204,355,117778,2,0,P|244:347|284:335,1,82.5000025177003,2|8,0:0|0:0,0:0:0:0:
125,384,118119,1,2,3:2:0:0:
249,189,118289,2,0,P|241:229|229:269,1,82.5000025177003,2|0,3:2|0:1,0:0:0:0:
480,384,118630,5,6,3:2:0:0:
480,384,118801,2,0,P|482:338|445:315,1,82.5000025177003,2|0,0:0|3:0,0:0:0:0:
346,214,119142,2,0,P|343:168|381:145,1,82.5000025177003,2|8,3:2|0:0,0:0:0:0:
510,0,119483,2,0,B|491:74|423:87|423:87|399:82|367:47,1,165.000005035401,2|0,3:2|3:0,0:0:0:0:
392,71,119994,1,2,0:0:0:0:
192,0,120164,2,0,P|217:34|228:74,1,82.5000025177003,10|8,0:1|3:0,0:0:0:0:
369,147,120505,2,0,P|332:168|292:176,1,82.5000025177003,2|8,0:1|0:0,0:0:0:0:
29,91,120846,1,2,3:1:0:0:
157,164,121017,6,0,P|166:138|170:115,1,41.2500012588501,2|0,0:2|0:0,0:0:0:0:
76,27,121187,1,2,3:2:0:0:
0,283,121358,6,0,P|72:224|145:251,1,165.000005035401,6|2,3:1|0:0,0:0:0:0:
320,384,121869,1,4,3:0:0:0:
320,384,121954,1,0,3:0:0:0:
320,384,122039,2,0,P|333:328|358:271,1,82.5000025177003,10|2,3:2|0:0,0:0:0:0:
157,164,122380,5,2,3:2:0:0:
256,314,122551,1,8,0:1:0:0:
440,232,122721,2,0,P|414:246|375:251,1,41.2500012588501,8|0,0:1|0:0,0:0:0:0:
512,271,122892,5,6,3:1:0:0:
352,160,123062,2,0,P|346:119|374:83,1,82.5000025177003,2|0,3:2|3:0,0:0:0:0:
208,27,123403,6,0,P|188:20|170:9,1,41.2500012588501,10|0,0:0|0:0,0:0:0:0:
369,86,123573,2,0,P|429:65|483:32,1,112.499996566773,6|0,3:1|0:0,0:0:0:0:
471,41,124085,6,0,B|515:84|497:135|497:135|450:160|456:202,1,165.000005035401,6|0,3:1|3:0,0:0:0:0:
325,312,124596,1,4,3:0:0:0:
425,383,124767,2,0,P|413:343|401:304,1,82.5000025177003,10|2,0:0|3:2,0:0:0:0:
190,266,125108,1,0,3:0:0:0:
120,319,125278,2,0,P|41:321|0:254,1,165.000005035401,8|0,3:0|3:0,0:0:0:0:
129,101,125789,6,0,P|141:53|152:10,1,82.5000025177003,8|0,3:0|0:0,0:0:0:0:
416,128,126130,2,0,P|464:119|508:112,1,82.5000025177003,10|8,0:0|3:0,0:0:0:0:
356,186,126471,1,0,3:0:0:0:
282,0,126642,5,10,0:0:0:0:
282,0,126727,1,10,0:0:0:0:
282,0,126812,2,0,B|316:47|316:47|326:100|277:167,1,165.000005035401,2|0,3:2|3:0,0:0:0:0:
10,48,127323,1,4,3:0:0:0:
71,0,127494,2,0,P|111:7|150:22,1,82.5000025177003,10|2,0:0|3:2,0:0:0:0:
289,148,127835,1,0,3:0:0:0:
222,217,128005,2,0,P|153:179|165:103,1,165.000005035401,8|0,3:0|3:0,0:0:0:0:
79,260,128517,6,0,P|40:273|2:290,1,82.5000025177003,8|0,3:0|0:0,0:0:0:0:
319,349,128858,2,0,P|308:309|295:269,1,82.5000025177003,10|8,0:0|3:0,0:0:0:0:
234,384,129198,1,0,3:0:0:0:
416,256,129369,5,10,0:0:0:0:
416,256,129454,1,10,0:0:0:0:
416,256,129539,2,0,B|436:148|459:203|478:93,1,165.000005035401,6|0,3:2|3:0,0:0:0:0:
256,0,130051,1,0,3:0:0:0:
311,64,130221,2,0,P|322:103|338:141,1,82.5000025177003,8|0,0:0|3:0,0:0:0:0:
484,303,130562,2,0,P|449:331|363:331,1,82.5000025177003,4|0,3:2|3:0,0:0:0:0:
160,320,130903,5,2,0:0:0:0:
101,384,131073,2,0,B|74:347|74:347|85:312,1,82.5000025177003,8|2,0:0|0:0,0:0:0:0:
160,192,131414,1,0,3:0:0:0:
25,29,131585,1,4,3:2:0:0:
25,29,131926,5,8,3:0:0:0:
67,157,132096,1,8,3:0:0:0:
256,96,132267,2,0,P|235:22|160:31,2,165.000005035401,6|2|8,3:2|3:2|0:0,0:0:0:0:
215,165,133119,1,0,0:0:0:0:
0,224,133289,2,0,P|14:264|47:291,1,82.5000025177003,8|0,0:0|0:0,0:0:0:0:
259,384,133630,5,0,3:0:0:0:
318,287,133801,1,0,3:0:0:0:
166,343,133971,1,0,3:0:0:0:
125,266,134142,1,8,3:0:0:0:
335,365,134312,6,0,P|375:359|411:330,1,82.5000025177003,4|0,3:2|0:0,0:0:0:0:
259,384,134653,1,8,3:0:0:0:
448,192,134994,6,0,P|483:243|446:286,2,89.9999972534181,4|0|8,3:2|0:0|0:1,0:0:0:0:
333,60,136017,1,2,0:0:0:0:
333,60,136187,1,8,0:1:0:0:
333,60,136358,2,0,P|340:32|353:8,1,44.999998626709,0|2,3:0|0:0,0:0:0:0:
474,94,136698,1,0,3:0:0:0:
474,94,137039,2,0,P|449:107|395:114,1,44.999998626709,8|0,0:1|0:0,0:0:0:0:
249,70,137380,1,2,0:0:0:0:
249,70,137551,1,0,0:0:0:0:
249,70,137721,6,0,P|216:49|150:39,2,89.9999972534181,0|0|8,3:2|0:0|0:1,0:0:0:0:
22,143,138744,1,0,3:0:0:0:
22,143,138914,1,8,0:1:0:0:
22,143,139085,2,0,P|21:114|-5:74,1,44.999998626709,0|0,3:2|0:0,0:0:0:0:
160,160,139426,2,0,P|136:199|136:270,1,89.9999972534181,0|8,3:0|0:1,0:0:0:0:
68,384,139994,5,2,3:2:0:0:
136,319,140221,5,2,3:2:0:0:
224,352,140448,6,0,P|267:369|319:383,1,89.9999972534181,2|0,3:2|0:0,0:0:0:0:
489,323,140960,2,0,L|476:304,1,22.4999993133545,2|2,0:0|0:0,0:0:0:0:
402,265,141130,2,0,P|402:286|388:311,2,44.999998626709,8|0|2,0:1|0:0|0:0,0:0:0:0:
507,157,141642,1,8,0:1:0:0:
507,157,141812,2,0,B|453:169|480:175|410:193,1,89.9999972534181,0|0,3:2|3:0,0:0:0:0:
423,189,142494,1,8,0:1:0:0:
213,156,142835,1,2,0:0:0:0:
224,0,143176,6,0,P|241:48|250:94,1,89.9999972534181,0|0,3:2|0:0,0:0:0:0:
362,123,143687,1,2,0:0:0:0:
362,123,143858,2,0,P|354:143|349:169,1,44.999998626709,8|0,0:1|0:0,0:0:0:0:
223,223,144198,1,2,0:0:0:0:
223,223,144369,2,0,P|238:239|256:252,1,44.999998626709,8|0,0:1|3:0,0:0:0:0:
384,384,144710,6,0,P|380:359|341:337,1,44.999998626709,0|2,0:0|3:2,0:0:0:0:
158,276,145051,1,2,0:0:0:0:
158,276,145221,2,0,P|144:293|141:315,1,44.999998626709,8|0,3:1|0:0,0:0:0:0:
0,384,145562,2,0,L|14:380,3,14.9999995422363,0|0|0|0,3:0|3:0|3:0|3:0,0:0:0:0:
81,237,145903,6,0,P|106:201|97:143,1,104.999996795654,2|0,0:0|0:0,0:0:0:0:
0,32,146414,1,2,3:2:0:0:
0,32,146585,2,0,P|32:39|66:50,1,52.4999983978272,2|2,0:0|0:0,0:0:0:0:
176,119,146926,1,2,3:2:0:0:
176,119,147096,2,0,P|201:111|226:106,1,52.4999983978272,2|0,0:0|0:0,0:0:0:0:
384,32,147437,2,0,P|371:9|347:0,1,52.4999983978272,8|0,0:0|3:0,0:0:0:0:
416,160,147778,1,2,3:2:0:0:
467,58,147948,2,0,L|473:41,11,17.4999994659424,8|0|0|0|0|0|0|0|0|0|0|0,0:0|3:0|3:0|3:0|3:0|3:0|3:0|3:0|3:0|3:0|3:0|3:0,0:0:0:0:
388,77,148630,6,0,P|365:92|339:100,1,52.4999983978272,8|0,3:0|0:0,0:0:0:0:
341,99,148971,1,0,3:0:0:0:
224,192,149142,2,0,P|174:178|122:151,1,104.999996795654,8|0,0:1|0:0,0:0:0:0:
252,282,149653,2,0,P|268:261|290:247,2,52.4999983978272,0|0|0,3:0|0:0|0:0,0:0:0:0:
133,367,150164,1,8,0:0:0:0:
167,261,150335,1,0,3:0:0:0:
167,261,150505,1,0,3:0:0:0:
239,366,150676,6,0,P|264:367|288:357,1,52.4999983978272,8|0,0:0|0:0,0:0:0:0:
473,249,151017,1,2,0:0:0:0:
368,215,151187,1,2,0:0:0:0:
368,215,151272,1,2,0:0:0:0:
368,215,151358,6,0,P|390:264|403:319,1,104.999996795654,6|0,3:2|0:0,0:0:0:0:
456,170,151869,1,10,0:0:0:0:
456,170,152039,2,0,P|476:133|489:90,1,52.4999983978272,2|0,0:0|0:0,0:0:0:0:
288,96,152380,1,2,3:2:0:0:
288,96,152551,2,0,P|308:133|321:176,1,52.4999983978272,2|0,0:0|0:0,0:0:0:0:
416,32,152892,2,0,P|388:8|355:10,1,52.4999983978272,8|0,0:0|3:0,0:0:0:0:
221,138,153233,1,2,3:2:0:0:
244,16,153403,6,0,L|250:-1,5,17.4999994659424,8|0|0|0|0|0,0:0|3:0|3:0|3:0|3:0|3:0,0:0:0:0:
173,57,153744,2,0,L|179:74,5,17.4999994659424,0|0|0|0|0|0,3:0|3:0|3:0|3:0|3:0|3:0,0:0:0:0:
109,0,154085,6,0,B|83:86|86:39|54:148,1,134.999995880127,6|0,3:2|0:0,0:0:0:0:
0,256,154596,2,0,B|37:262|37:262|71:240,1,67.4999979400635,4|0,3:2|0:0,0:0:0:0:
256,192,154937,1,8,0:0:0:0:
296,259,155108,2,0,P|279:288|269:320,1,67.4999979400635,4|0,3:2|0:0,0:0:0:0:
117,187,155448,1,8,0:0:0:0:
117,187,155789,5,8,3:0:0:0:
205,256,155960,1,0,0:0:0:0:
320,128,156130,1,8,0:0:0:0:
227,0,156301,6,0,P|230:46|262:84,1,89.9999972534181,6|0,3:1|0:0,0:0:0:0:
416,160,156812,6,0,P|441:90|481:27,1,120,6|0,3:1|3:0,0:0:0:0:
402,4,157323,1,0,3:0:0:0:
255,79,157494,1,8,0:0:0:0:
255,79,158346,5,0,3:0:0:0:
128,16,158517,2,0,P|97:16|72:-3,1,60,8|0,3:0|3:0,0:0:0:0:
0,224,158858,1,10,0:0:0:0:
98,155,159028,2,0,P|90:137|84:118,1,30,0|0,3:0|3:0,0:0:0:0:
181,159,159198,2,0,P|167:195|152:230,1,60,4|0,3:0|0:0,0:0:0:0:
0,303,159539,6,0,B|84:325|37:322|130:345,1,120,6|2,3:2|3:2,0:0:0:0:
179,303,160051,1,2,3:2:0:0:
364,338,160221,2,0,P|340:356|333:384,1,60,10|0,0:0|0:0,0:0:0:0:
332,384,160562,1,0,3:0:0:0:
245,247,160733,2,0,P|276:237|303:225,1,60,10|0,0:0|3:2,0:0:0:0:
466,312,161073,5,10,0:0:0:0:
376,262,161244,1,4,3:2:0:0:
364,338,161414,1,2,0:0:0:0:
503,214,161585,2,0,P|495:185|472:167,1,60,8|0,0:0|3:2,0:0:0:0:
298,114,161926,1,4,3:0:0:0:
363,44,162096,1,8,0:0:0:0:
495,24,162267,6,0,P|468:87|418:90,1,120,4|0,3:2|3:0,0:0:0:0:
363,44,162778,1,0,3:0:0:0:
423,246,162948,1,8,0:0:0:0:
423,246,163460,6,0,P|410:273|402:301,1,60,8|2,0:0|0:0,0:0:0:0:
372,371,163801,1,0,3:0:0:0:
192,320,163971,2,0,P|169:300|150:277,1,60,8|2,3:0|3:2,0:0:0:0:
280,328,164227,1,2,0:0:0:0:
280,328,164312,2,0,P|267:355|259:383,1,60,10|0,0:0|0:0,0:0:0:0:
290,226,164653,1,2,3:2:0:0:
150,277,164823,1,8,0:0:0:0:
65,384,164994,6,0,P|90:364|92:331,1,60,4|0,3:2|0:0,0:0:0:0:
0,224,165335,2,0,P|5:252|29:270,1,60,8|0,3:0|3:2,0:0:0:0:
94,337,165590,1,0,3:2:0:0:
94,337,165676,1,8,0:0:0:0:
128,201,165846,1,0,3:0:0:0:
0,96,166017,1,2,0:0:0:0:
96,0,166187,6,0,P|88:29|78:57,1,60,8|0,0:0|3:0,0:0:0:0:
223,147,166528,1,8,0:0:0:0:
162,57,166698,1,8,3:0:0:0:
128,201,166869,1,0,3:0:0:0:
0,96,167039,1,8,0:0:0:0:
211,162,167210,6,0,B|220:102|228:132|247:50,1,89.9999972534181,6|0,3:1|0:0,0:0:0:0:
426,29,167721,6,0,P|461:37|483:67,1,75,6|0,3:1|0:0,0:0:0:0:
335,233,168062,1,0,3:0:0:0:
292,160,168233,1,8,3:0:0:0:
411,202,168403,2,0,P|447:192|479:173,1,75,8|0,0:0|3:0,0:0:0:0:
411,313,168744,1,0,3:0:0:0:
192,224,168914,1,4,3:2:0:0:
192,224,169255,5,8,0:0:0:0:
234,288,169426,2,0,P|232:326|211:355,1,75,0|8,3:0|3:0,0:0:0:0:
32,182,169767,1,8,0:0:0:0:
96,359,169937,5,0,3:0:0:0:
136,167,170108,1,4,3:0:0:0:
192,224,170278,1,8,3:0:0:0:
33,314,170448,2,0,P|2:242|41:176,1,150,4|0,3:2|3:0,0:0:0:0:
165,14,170960,1,8,3:0:0:0:
117,75,171130,2,0,B|76:83|76:83|43:53,1,75,8|0,0:0|3:0,0:0:0:0:
149,154,171471,1,8,3:0:0:0:
320,0,171642,2,0,B|343:82|346:39|371:140,1,150,4|8,3:2|0:0,0:0:0:0:
275,316,172153,2,0,P|256:348|248:384,1,75,0|0,3:0|3:0,0:0:0:0:
484,336,172494,5,8,0:0:0:0:
333,377,172664,1,8,3:1:0:0:
436,245,172835,1,0,3:0:0:0:
342,216,173005,1,8,0:0:0:0:
492,93,173176,6,0,P|436:148|365:135,1,150,4|0,3:2|3:0,0:0:0:0:
277,171,173687,1,0,3:0:0:0:
345,0,173858,1,8,0:0:0:0:
120,12,174028,6,0,P|155:25|192:33,1,75,2|2,3:2|3:2,0:0:0:0:
227,110,174284,1,2,3:2:0:0:
227,110,174369,2,0,P|254:83|276:53,1,75,2|0,3:2|0:0,0:0:0:0:
73,79,174710,1,10,0:0:0:0:
73,79,174880,1,0,0:0:0:0:
158,200,175051,2,0,P|133:174|126:138,1,75,2|10,3:2|0:0,0:0:0:0:
46,189,175306,1,2,0:0:0:0:
46,189,175392,2,0,P|38:225|13:251,1,75,2|2,3:2|3:2,0:0:0:0:
221,384,175733,5,10,0:0:0:0:
221,384,175818,1,10,0:0:0:0:
221,384,175903,2,0,P|193:304|281:226,1,150,6|0,3:2|0:0,0:0:0:0:
303,289,176414,1,8,3:0:0:0:
512,233,176585,6,0,B|471:259|427:236|427:236|411:209|380:200,1,134.999995880127,6|0,3:1|0:0,0:0:0:0:
256,32,177267,6,0,P|328:9|254:87,1,247.500007553101,6|0,3:1|0:0,0:0:0:0:
64,256,177948,6,0,P|8:203|126:217,1,292.499986610413,6|0,3:1|0:0,0:0:0:0:
274,380,178630,6,0,B|167:352|243:347|122:322,1,165.000005035401,6|0,3:1|3:0,0:0:0:0:
76,384,179142,1,0,3:0:0:0:
273,299,179312,2,0,B|380:271|303:266|424:241,1,165.000005035401,8|8,0:0|0:1,0:0:0:0:
425,240,179823,1,8,0:1:0:0:
288,96,179994,6,0,P|247:86|222:55,1,82.5000025177003,8|8,3:0|0:0,0:0:0:0:
280,218,180335,1,4,3:0:0:0:
280,218,180420,1,0,0:0:0:0:
280,218,180505,1,2,0:0:0:0:
448,64,180676,2,0,P|434:102|431:144,1,82.5000025177003,8|0,0:0|3:0,0:0:0:0:
295,20,181017,1,0,3:0:0:0:
157,102,181187,1,8,0:0:0:0:
0,12,181358,6,0,B|38:65|95:54|95:54|122:23|170:23,1,165.000005035401,4|0,3:2|0:0,0:0:0:0:
18,203,181869,1,4,3:0:0:0:
18,203,181954,1,0,3:0:0:0:
18,203,182039,1,8,0:0:0:0:
191,257,182210,2,0,P|195:217|211:179,1,82.5000025177003,0|8,3:0|0:1,0:0:0:0:
114,384,182551,1,0,3:0:0:0:
189,357,182721,2,0,P|264:334|282:257,1,165.000005035401,0|8,3:0|3:0,0:0:0:0:
512,217,183233,5,0,3:0:0:0:
512,217,183318,1,0,3:0:0:0:
512,217,183403,1,8,0:0:0:0:
431,287,183573,1,0,3:0:0:0:
368,200,183744,2,0,P|330:183|298:156,1,82.5000025177003,4|8,3:0|0:1,0:0:0:0:
480,0,184085,6,0,B|510:38|510:38|513:105|429:160,1,165.000005035401,4|0,3:2|3:0,0:0:0:0:
289,0,184596,1,8,3:0:0:0:
239,59,184767,2,0,P|205:81|164:80,1,82.5000025177003,8|0,0:0|0:0,0:0:0:0:
21,200,185108,5,0,3:0:0:0:
97,125,185278,1,0,3:0:0:0:
22,8,185448,2,0,B|7:45|7:45|24:84,1,82.5000025177003,8|8,0:1|0:1,0:0:0:0:
157,191,185789,1,4,3:0:0:0:
224,235,185960,2,0,B|190:279|123:277|123:277|103:248|71:240,1,165.000005035401,2|0,0:0|3:0,0:0:0:0:
270,113,186471,2,0,P|279:153|293:191,1,82.5000025177003,2|8,3:1|0:0,0:0:0:0:
452,379,186812,6,0,B|478:282|490:318|518:205,1,165.000005035401,6|0,3:1|3:0,0:0:0:0:
453,284,187323,1,8,3:0:0:0:
261,379,187494,2,0,P|301:374|336:353,1,82.5000025177003,8|0,0:0|3:0,0:0:0:0:
512,139,187835,5,8,0:0:0:0:
387,211,188005,1,8,0:0:0:0:
289,0,188176,2,0,B|276:42|276:42|295:81,1,82.5000025177003,6|0,3:1|0:0,0:0:0:0:
108,208,188517,5,10,0:0:0:0:
199,38,188687,1,8,3:0:0:0:
65,2,188858,1,8,0:0:0:0:
268,155,189028,6,0,B|313:162|313:162|342:140,1,82.5000025177003,6|0,3:1|3:0,0:0:0:0:
263,359,189369,1,10,0:0:0:0:
263,359,189454,1,2,0:0:0:0:
263,359,189539,6,0,P|279:272|221:235,1,165.000005035401,6|0,3:1|3:0,0:0:0:0:
153,308,190051,1,8,3:0:0:0:
28,126,190221,2,0,P|6:50|67:2,1,165.000005035401,8|0,0:0|3:0,0:0:0:0:
256,128,190733,1,8,3:0:0:0:
256,128,190818,1,0,3:0:0:0:
256,128,190903,2,0,P|213:124|177:103,1,82.5000025177003,8|8,0:1|0:0,0:0:0:0:
352,0,191244,2,0,P|330:37|296:60,1,82.5000025177003,4|0,3:0|0:0,0:0:0:0:
399,253,191585,5,8,0:0:0:0:
326,170,191755,1,0,3:0:0:0:
391,96,191926,2,0,P|424:105|473:116,1,82.5000025177003,8|0,3:0|0:0,0:0:0:0:
308,340,192267,1,4,3:2:0:0:
308,340,192608,5,2,3:2:0:0:
200,236,192778,1,2,3:2:0:0:
254,97,192948,1,10,0:0:0:0:
234,53,193119,1,2,3:2:0:0:
260,20,193289,1,2,0:0:0:0:
250,7,193460,1,2,3:2:0:0:
326,170,193630,6,0,P|368:186|417:202,1,82.5000025177003,2|8,3:2|0:0,0:0:0:0:
283,242,193971,1,4,3:0:0:0:
449,372,194142,2,0,P|455:326|402:297,1,82.5000025177003,2|8,0:0|0:0,0:0:0:0:
486,195,194483,1,2,3:2:0:0:
360,357,194653,2,0,P|313:358|289:303,1,82.5000025177003,2|0,3:2|0:0,0:0:0:0:
32,256,194994,5,6,3:2:0:0:
32,256,195164,2,0,B|17:299|17:299|35:335,1,82.5000025177003,2|0,0:0|3:0,0:0:0:0:
185,198,195505,2,0,B|200:155|200:155|182:119,1,82.5000025177003,2|8,3:2|0:0,0:0:0:0:
0,0,195846,2,0,B|33:37|33:37|90:64|146:26,1,165.000005035401,2|0,3:2|3:0,0:0:0:0:
142,28,196358,1,2,0:0:0:0:
352,96,196528,2,0,P|317:74|276:66,1,82.5000025177003,10|8,0:1|3:0,0:0:0:0:
478,0,196869,2,0,P|467:39|442:72,1,82.5000025177003,2|8,0:1|0:0,0:0:0:0:
306,232,197210,1,2,3:1:0:0:
448,160,197380,6,0,P|452:180|459:199,1,41.2500012588501,2|0,0:2|0:0,0:0:0:0:
352,96,197551,1,2,3:2:0:0:
496,297,197721,6,0,P|414:290|366:359,1,165.000005035401,6|0,3:1|3:0,0:0:0:0:
160,192,198233,1,0,3:0:0:0:
160,192,198318,1,0,3:2:0:0:
160,192,198403,2,0,P|173:248|198:305,1,82.5000025177003,8|0,0:0|0:0,0:0:0:0:
269,384,198744,2,0,P|282:345|290:304,1,82.5000025177003,8|0,0:0|0:0,0:0:0:0:
53,359,199085,2,0,P|36:370|16:374,1,41.2500012588501,4|0,3:2|0:0,0:0:0:0:
186,384,199255,5,0,3:0:0:0:
70,259,199426,2,0,P|30:251|0:224,1,82.5000025177003,8|8,3:0|3:0,0:0:0:0:
225,83,199767,6,0,P|218:102|207:120,1,41.2500012588501,8|0,3:0|3:0,0:0:0:0:
66,180,199937,1,0,3:0:0:0:
215,2,200108,2,0,B|252:113|260:51|303:176,1,165.000005035401,4|4,3:0|3:2,0:0:0:0:
256,192,208630,12,0,209738,0:0:0:0:
62,111,209823,6,0,P|103:24|14:74,1,247.500007553101,6|0,3:1|3:0,0:0:0:0:
11,58,210505,6,0,P|170:207|16:363,1,487.499977684022,6|4,3:1|3:1,0:0:0:0:
16,363,212039,5,8,0:1:0:0:
16,363,212210,1,2,0:0:0:0:
16,363,212380,1,2,3:2:0:0:
352,320,213062,1,2,3:2:0:0:
352,320,213233,1,2,3:2:0:0:
352,320,213403,1,8,0:1:0:0:
212,258,213744,1,0,3:0:0:0:
301,384,214085,5,4,3:0:0:0:
416,160,214596,1,2,3:2:0:0:
416,160,214767,1,8,0:1:0:0:
510,224,214937,1,2,3:2:0:0:
510,224,215108,1,2,3:2:0:0:
448,320,215278,1,2,0:0:0:0:
251,133,215619,5,2,3:2:0:0:
251,133,215789,1,2,3:2:0:0:
251,133,215960,1,8,3:0:0:0:
427,76,216130,1,8,0:1:0:0:
242,218,216471,1,2,3:2:0:0:
0,64,216812,5,4,3:0:0:0:
128,0,217153,1,2,3:2:0:0:
128,0,217323,1,2,3:2:0:0:
128,0,217494,2,0,P|121:21|117:43,1,44.999998626709,8|0,0:1|3:0,0:0:0:0:
116,43,217835,1,2,3:2:0:0:
34,195,218005,6,0,P|5:174|-12:140,1,44.999998626709,8|0,3:0|0:0,0:0:0:0:
121,239,218346,2,0,P|89:256|51:257,1,44.999998626709,0|0,3:0|3:0,0:0:0:0:
168,177,218687,1,8,0:1:0:0:
235,295,218858,2,0,P|258:252|230:210,1,89.9999972534181,8|2,0:1|3:2,0:0:0:0:
241,217,219369,1,2,3:2:0:0:
152,330,219539,6,0,L|163:373,1,44.999998626709,4|8,3:0|0:1,0:0:0:0:
163,373,219795,1,8,0:1:0:0:
163,373,219880,1,8,0:1:0:0:
384,288,220051,2,0,L|393:252,2,22.4999993133545,8|8|8,3:0|3:0|3:0,0:0:0:0:
333,365,220392,1,0,3:0:0:0:
241,217,220562,2,0,P|255:246|290:256,1,67.4999979400635,8|0,3:0|0:0,0:0:0:0:
348,198,220903,6,0,B|363:162|363:162|337:118,1,75,4|0,3:2|3:0,0:0:0:0:
512,0,221244,2,0,B|493:30|493:30|508:66,1,75,4|8,3:2|3:0,0:0:0:0:
240,34,221585,1,8,3:0:0:0:
125,226,221755,1,2,3:2:0:0:
158,27,221926,6,0,L|143:62,1,37.5,6|2,0:0|0:0,0:0:0:0:
241,217,222096,2,0,L|205:204,1,37.5,2|2,3:2|0:0,0:0:0:0:
1,202,222267,6,0,B|92:178|34:167|127:144,1,134.999995880127,6|0,3:1|0:0,0:0:0:0:
240,34,222608,2,0,P|247:76|222:114,1,89.9999972534181,6|0,3:1|0:0,0:0:0:0:
411,191,222948,1,8,0:0:0:0:
336,90,223119,1,0,3:0:0:0:
440,35,223289,1,2,3:2:0:0:
278,195,223460,6,0,P|271:237|296:275,1,89.9999972534181,8|0,3:0|3:0,0:0:0:0:
498,338,223801,2,0,B|454:311|454:311|385:304|294:385,1,179.999994506836,8|2,0:0|3:2,0:0:0:0:
106,384,224312,5,10,0:0:0:0:
295,274,224483,1,2,3:2:0:0:
89,373,224653,2,0,B|66:327|66:327|81:291,1,89.9999972534181,2|0,3:2|0:0,0:0:0:0:
194,90,224994,6,0,B|230:117|216:168|216:168|193:188|175:238,1,134.999995880127,6|0,3:1|0:0,0:0:0:0:
64,160,225335,2,0,P|65:104|109:78,1,89.9999972534181,6|8,3:1|3:0,0:0:0:0:
227,3,225676,1,8,0:0:0:0:
319,112,225846,1,2,3:2:0:0:
188,206,226017,1,2,3:2:0:0:
326,299,226187,6,0,P|281:292|242:270,1,89.9999972534181,2|0,0:0|3:0,0:0:0:0:
418,117,226528,2,0,P|405:74|408:29,1,89.9999972534181,10|4,0:0|3:0,0:0:0:0:
498,263,226869,5,2,3:2:0:0:
307,201,227039,1,10,0:0:0:0:
507,275,227210,1,10,0:0:0:0:
294,215,227380,2,0,P|315:254|325:298,1,89.9999972534181,2|0,3:2|0:0,0:0:0:0:
96,384,227721,6,0,B|129:335|129:335|130:294|93:249,1,134.999995880127,6|0,3:1|0:0,0:0:0:0:
2,163,228062,2,0,P|3:111|67:88,1,89.9999972534181,6|0,3:1|0:0,0:0:0:0:
226,70,228403,1,8,0:0:0:0:
88,152,228573,1,0,3:0:0:0:
12,11,228744,1,2,3:2:0:0:
206,158,228914,6,0,P|252:149|297:125,1,89.9999972534181,8|0,3:0|3:0,0:0:0:0:
468,0,229255,2,0,B|438:115|416:49|382:188,1,179.999994506836,10|2,0:0|3:2,0:0:0:0:
512,288,229767,5,10,0:0:0:0:
281,222,229937,1,10,3:2:0:0:
502,303,230108,2,0,P|457:311|417:331,1,89.9999972534181,6|8,3:2|3:0,0:0:0:0:
142,384,230448,5,4,3:1:0:0:
202,280,230619,1,2,0:0:0:0:
102,225,230789,2,0,P|89:268|119:304,1,89.9999972534181,2|2,3:2|0:0,0:0:0:0:
0,182,231130,1,10,3:2:0:0:
57,111,231301,2,0,P|99:125|145:132,1,89.9999972534181,2|8,3:2|3:0,0:0:0:0:
0,25,231642,2,0,P|42:10|87:4,1,89.9999972534181,12|4,3:2|3:0,0:0:0:0:
235,124,231983,5,2,3:2:0:0:
235,124,232068,1,2,0:0:0:0:
235,124,232153,2,0,P|228:94|217:76,3,44.999998626709,2|2|2|2,3:2|0:0|0:2|0:2,0:0:0:0:
411,71,232536,5,2,0:0:0:0:
433,90,232664,1,2,0:0:0:0:
438,119,232792,1,2,0:0:0:0:
426,146,232920,1,2,0:2:0:0:
398,158,233048,1,2,0:0:0:0:
365,148,233176,6,0,B|275:177|322:177|230:212,1,134.999995880127,6|0,3:1|0:0,0:0:0:0:
103,289,233517,2,0,P|59:284|26:254,1,89.9999972534181,6|0,3:1|0:0,0:0:0:0:
161,383,233858,1,8,0:0:0:0:
263,292,234028,1,0,3:0:0:0:
96,210,234198,1,2,3:2:0:0:
255,374,234369,6,0,P|301:363|334:331,1,89.9999972534181,8|0,3:0|3:0,0:0:0:0:
512,217,234710,2,0,B|477:275|394:278|394:278|357:256,1,179.999994506836,8|2,0:0|3:2,0:0:0:0:
320,0,235221,5,10,0:0:0:0:
464,125,235392,1,2,3:2:0:0:
289,228,235562,1,2,3:2:0:0:
128,128,235733,1,8,0:0:0:0:
128,128,235818,1,8,0:0:0:0:
128,128,235903,6,0,B|145:34|154:81|175:-5,1,134.999995880127,6|0,3:1|0:0,0:0:0:0:
280,67,236244,2,0,P|293:110|311:151,1,89.9999972534181,6|4,3:1|3:0,0:0:0:0:
311,151,236500,1,0,3:0:0:0:
311,151,236585,1,8,0:0:0:0:
180,306,236755,1,0,3:0:0:0:
310,384,236926,1,2,3:2:0:0:
129,216,237096,6,0,B|85:206|85:206|36:230,1,89.9999972534181,2|8,3:2|0:0,0:0:0:0:
224,378,237437,2,0,B|214:333|214:333|172:299,1,89.9999972534181,2|0,3:2|0:0,0:0:0:0:
59,384,237778,5,2,3:2:0:0:
213,227,237948,1,10,0:0:0:0:
64,128,238119,2,0,P|36:34|119:26,1,179.999994506836,6|0,3:1|0:0,0:0:0:0:
287,176,238630,6,0,B|312:276|320:241|342:341,1,165.000005035401,6|0,3:1|3:2,0:0:0:0:
508,139,239142,1,0,3:0:0:0:
424,77,239312,2,0,P|444:35|452:-2,1,82.5000025177003,8|0,0:0|3:0,0:0:0:0:
330,97,239653,1,8,3:0:0:0:
503,223,239823,2,0,B|456:206|456:206|397:206|340:269,1,165.000005035401,4|8,3:2|0:1,0:0:0:0:
229,384,240335,5,0,3:0:0:0:
340,331,240505,1,8,3:0:0:0:
173,239,240676,2,0,P|197:271|176:332,1,82.5000025177003,8|2,0:0|3:2,0:0:0:0:
32,384,240931,1,2,0:0:0:0:
32,384,241016,2,0,P|13:286|64:204,1,194.999991073609,2|6,3:2|3:2,0:0:0:0:
59,207,241698,5,8,0:0:0:0:
0,121,241869,1,8,0:0:0:0:
165,59,242039,1,10,0:0:0:0:
131,158,242210,1,8,0:0:0:0:
298,15,242380,5,10,0:0:0:0:
218,131,242551,1,8,0:0:0:0:
441,214,242721,1,10,0:0:0:0:
395,81,242892,1,8,0:0:0:0:
196,212,243062,5,10,0:0:0:0:
403,288,243233,1,4,3:0:0:0:
403,288,243318,1,0,3:0:0:0:
403,288,243403,2,0,P|352:302|308:325,1,97.4999955368044,10|0,0:0|3:0,0:0:0:0:
376,104,243744,2,0,P|422:117|466:138,1,97.4999955368044,2|0,3:2|3:0,0:0:0:0:
241,285,244085,5,6,3:2:0:0:
231,298,244198,1,2,0:0:0:0:
214,300,244312,1,2,0:0:0:0:
198,293,244426,2,0,L|185:346,2,55.0000016784668,2|2|2,0:0|0:0|0:2,0:0:0:0:
28,211,244767,5,14,0:0:0:0:
42,234,244880,1,2,0:0:0:0:
67,243,244994,1,2,0:0:0:0:
93,236,245108,2,0,L|106:296,2,55.0000016784668,6|2|2,3:2|0:0|0:0,0:0:0:0:
167,193,245448,6,0,P|178:167|189:138,1,44.999998626709,14|2,0:0|0:0,0:0:0:0:
0,88,245619,2,0,P|8:108|17:129,1,44.999998626709,10|2,0:0|0:0,0:0:0:0:
259,121,245789,6,0,P|270:95|281:66,1,44.999998626709,10|2,0:0|0:0,0:0:0:0:
60,16,245960,2,0,P|68:36|77:57,1,44.999998626709,10|2,0:0|0:0,0:0:0:0:
167,193,246130,5,14,0:0:0:0:
202,225,246244,1,2,0:0:0:0:
249,232,246358,1,2,0:0:0:0:
294,217,246471,1,2,0:1:0:0:
335,192,246585,1,2,0:0:0:0:
382,185,246698,1,2,0:0:0:0:
426,208,246812,6,0,B|394:313|394:267|359:369,1,165.000005035401,6|0,3:1|3:0,0:0:0:0:
512,313,247323,1,0,3:0:0:0:
338,213,247494,2,0,B|306:120|306:166|274:61,1,165.000005035401,8|8,0:0|0:1,0:0:0:0:
274,61,248005,1,8,0:1:0:0:
446,18,248176,6,0,P|404:18|367:-2,1,82.5000025177003,8|0,3:0|3:0,0:0:0:0:
465,130,248517,1,4,3:0:0:0:
465,130,248602,1,0,0:0:0:0:
465,130,248687,1,2,0:0:0:0:
278,65,248858,2,0,B|236:58|236:58|198:85,1,82.5000025177003,8|0,0:0|3:0,0:0:0:0:
111,0,249198,1,0,3:0:0:0:
193,166,249369,1,8,0:0:0:0:
64,288,249539,6,0,B|41:254|41:254|49:171|123:126,1,165.000005035401,4|0,3:2|0:0,0:0:0:0:
206,318,250051,1,4,3:0:0:0:
206,318,250136,1,0,3:0:0:0:
206,318,250221,1,8,0:0:0:0:
46,378,250392,2,0,P|86:368|125:355,1,82.5000025177003,0|8,3:0|0:1,0:0:0:0:
250,384,250733,1,0,3:0:0:0:
416,288,250903,2,0,P|335:268|257:243,1,165.000005035401,0|8,3:0|3:0,0:0:0:0:
192,32,251414,5,0,3:0:0:0:
192,32,251500,1,0,3:0:0:0:
192,32,251585,1,8,0:0:0:0:
111,101,251755,1,0,3:0:0:0:
17,52,251926,2,0,P|44:18|89:16,1,82.5000025177003,4|8,3:0|0:1,0:0:0:0:
301,143,252267,6,0,B|348:102|347:31|347:31|320:-3,1,165.000005035401,4|0,3:2|3:0,0:0:0:0:
210,183,252778,1,8,3:0:0:0:
278,224,252948,2,0,P|318:223|357:204,1,82.5000025177003,8|0,0:0|0:0,0:0:0:0:
181,384,253289,5,0,3:0:0:0:
135,231,253460,1,0,3:0:0:0:
299,332,253630,2,0,P|262:314|221:312,1,82.5000025177003,8|8,0:1|0:1,0:0:0:0:
397,384,253971,1,4,3:0:0:0:
457,333,254142,2,0,B|441:223|426:280|411:151,1,165.000005035401,2|0,0:0|3:0,0:0:0:0:
483,0,254653,2,0,B|502:38|502:38|480:87,1,82.5000025177003,8|0,3:0|0:0,0:0:0:0:
224,65,254994,6,0,P|249:122|371:127,1,165.000005035401,4|0,3:2|3:0,0:0:0:0:
395,46,255505,1,8,3:0:0:0:
240,150,255676,2,0,P|201:162|183:198,1,82.5000025177003,8|0,0:0|3:0,0:0:0:0:
60,381,256017,5,8,0:0:0:0:
148,277,256187,1,8,0:0:0:0:
20,146,256358,2,0,P|8:106|0:66,1,82.5000025177003,6|0,3:1|0:0,0:0:0:0:
224,0,256698,2,0,B|235:37|235:37|228:95|172:111,1,123.75000377655,8|0,3:0|0:0,0:0:0:0:
189,104,257039,6,0,P|208:109|226:119,1,41.2500012588501,10|2,0:0|0:0,0:0:0:0:
320,256,257210,2,0,P|323:236|331:217,1,41.2500012588501,6|2,3:1|0:0,0:0:0:0:
480,128,257380,2,0,P|460:126|440:119,1,41.2500012588501,2|2,0:0|0:0,0:0:0:0:
405,279,257551,1,10,0:0:0:0:
405,279,257636,1,2,0:0:0:0:
405,279,257721,6,0,P|348:335|265:331,1,165.000005035401,6|0,3:1|3:0,0:0:0:0:
420,384,258233,1,8,3:0:0:0:
232,260,258403,2,0,P|174:203|94:206,1,165.000005035401,8|0,0:0|3:0,0:0:0:0:
249,61,258914,1,8,3:0:0:0:
249,61,259000,1,0,3:0:0:0:
249,61,259085,2,0,P|264:97|274:145,1,82.5000025177003,8|8,0:1|0:0,0:0:0:0:
38,46,259426,2,0,P|72:27|119:13,1,82.5000025177003,4|0,3:0|0:0,0:0:0:0:
273,139,259767,5,8,0:0:0:0:
370,185,259937,1,0,3:0:0:0:
448,119,260108,2,0,B|468:78|468:78|439:31,1,82.5000025177003,8|0,3:0|0:0,0:0:0:0:
195,0,260448,1,4,3:2:0:0:
195,0,260789,5,2,3:2:0:0:
125,136,260960,1,2,3:2:0:0:
209,230,261130,1,10,0:0:0:0:
141,324,261301,1,2,3:2:0:0:
156,349,261471,1,2,0:0:0:0:
146,364,261642,1,2,3:2:0:0:
67,200,261812,6,0,P|56:241|79:275,1,82.5000025177003,2|8,3:2|0:0,0:0:0:0:
26,135,262153,1,4,3:0:0:0:
158,0,262323,2,0,P|168:39|177:80,1,82.5000025177003,2|8,0:0|0:0,0:0:0:0:
328,134,262664,1,2,3:2:0:0:
232,225,262835,2,0,P|242:185|251:144,1,82.5000025177003,2|0,3:2|0:0,0:0:0:0:
457,13,263176,5,4,3:2:0:0:
457,13,263346,2,0,P|411:11|388:48,1,82.5000025177003,0|2,0:0|3:2,0:0:0:0:
252,145,263687,2,0,P|279:173|319:168,1,82.5000025177003,2|8,3:2|0:0,0:0:0:0:
512,271,264028,2,0,B|459:293|459:293|374:274|355:225,1,165.000005035401,2|0,3:2|3:0,0:0:0:0:
365,243,264539,1,0,0:0:0:0:
238,383,264710,2,0,P|226:335|213:303,1,82.5000025177003,10|8,0:1|3:0,0:0:0:0:
26,205,265051,2,0,P|11:243|2:283,1,82.5000025177003,2|8,0:1|0:0,0:0:0:0:
171,27,265392,1,2,3:1:0:0:
72,100,265562,6,0,P|92:95|111:88,1,41.2500012588501,8|0,0:1|0:0,0:0:0:0:
0,4,265733,1,0,3:0:0:0:
176,139,265903,6,0,P|254:153|303:87,1,165.000005035401,6|2,3:1|0:0,0:0:0:0:
512,25,266414,1,4,3:0:0:0:
512,25,266500,1,0,3:0:0:0:
512,25,266585,2,0,P|456:12|399:-13,1,82.5000025177003,10|0,3:2|0:0,0:0:0:0:
302,92,266926,5,2,3:2:0:0:
505,164,267096,1,8,0:1:0:0:
298,259,267267,2,0,P|304:239|315:216,1,41.2500012588501,8|0,0:1|0:0,0:0:0:0:
512,340,267437,5,6,3:1:0:0:
384,267,267608,2,0,P|421:283|478:272,1,82.5000025177003,2|0,3:2|3:0,0:0:0:0:
186,329,267948,6,0,P|194:347|200:367,1,41.2500012588501,10|0,0:0|0:0,0:0:0:0:
312,220,268119,2,0,P|330:177|317:113,1,112.499996566773,6|0,3:1|0:0,0:0:0:0:
255,27,268630,6,0,B|218:1|169:24|169:24|149:61|103:70,1,165.000005035401,6|0,3:1|3:0,0:0:0:0:
317,114,269142,1,0,3:0:0:0:
147,196,269312,2,0,B|110:222|61:199|61:199|41:162|-5:153,1,165.000005035401,8|8,0:0|0:1,0:0:0:0:
3,155,269823,1,8,0:1:0:0:
148,351,269994,6,0,P|153:309|168:271,1,82.5000025177003,8|8,3:0|0:0,0:0:0:0:
21,362,270335,1,4,3:0:0:0:
21,362,270420,1,2,0:0:0:0:
21,362,270505,1,2,0:0:0:0:
147,196,270676,2,0,P|197:195|225:219,1,82.5000025177003,8|0,0:0|3:0,0:0:0:0:
326,383,271017,1,0,3:0:0:0:
167,271,271187,1,8,0:0:0:0:
391,337,271358,6,0,B|416:238|420:293|445:182,1,165.000005035401,4|0,3:2|0:0,0:0:0:0:
288,0,271869,1,4,3:0:0:0:
288,0,271954,1,0,3:0:0:0:
288,0,272039,1,8,0:0:0:0:
485,31,272210,2,0,P|450:62|409:60,1,82.5000025177003,0|8,3:0|0:1,0:0:0:0:
512,126,272551,1,0,3:0:0:0:
320,160,272721,2,0,P|253:112|172:103,1,165.000005035401,0|8,3:0|3:0,0:0:0:0:
0,0,273233,5,0,3:0:0:0:
0,0,273318,1,0,3:0:0:0:
0,0,273403,1,8,0:0:0:0:
75,61,273573,1,0,3:0:0:0:
15,138,273744,2,0,P|9:176|-1:226,1,82.5000025177003,4|8,3:0|0:1,0:0:0:0:
166,337,274085,6,0,B|130:283|59:285|59:285|5:311,1,165.000005035401,4|0,3:2|3:0,0:0:0:0:
232,384,274596,1,8,3:0:0:0:
293,332,274767,2,0,P|330:321|370:300,1,82.5000025177003,8|0,0:0|0:0,0:0:0:0:
512,192,275108,5,0,3:0:0:0:
342,84,275278,1,0,3:0:0:0:
474,2,275448,2,0,P|438:26|399:30,1,82.5000025177003,8|8,0:1|0:1,0:0:0:0:
179,0,275789,1,4,3:0:0:0:
142,68,275960,2,0,B|113:115|113:115|114:194|186:219,1,165.000005035401,2|0,0:0|3:0,0:0:0:0:
405,271,276471,2,0,P|370:241|319:247,1,82.5000025177003,2|0,3:1|0:0,0:0:0:0:
101,360,276812,6,0,B|123:268|138:310|161:207,1,165.000005035401,6|0,3:1|3:0,0:0:0:0:
92,276,277323,1,8,3:0:0:0:
323,384,277494,2,0,P|303:346|297:305,1,82.5000025177003,8|0,0:0|3:0,0:0:0:0:
161,207,277835,5,8,0:0:0:0:
0,302,278005,1,8,0:0:0:0:
147,128,278176,2,0,P|150:86|112:54,1,82.5000025177003,6|0,3:1|0:0,0:0:0:0:
0,216,278517,5,8,0:0:0:0:
185,291,278687,1,8,3:0:0:0:
268,122,278858,1,8,0:0:0:0:
46,17,279028,6,0,B|32:54|32:54|49:94,1,82.5000025177003,6|0,3:1|3:0,0:0:0:0:
219,192,279369,1,10,0:0:0:0:
219,192,279454,1,2,0:0:0:0:
219,192,279539,2,0,P|310:196|350:128,1,165.000005035401,6|0,3:1|3:0,0:0:0:0:
182,126,280051,1,8,3:0:0:0:
418,189,280221,2,0,P|428:110|367:59,1,165.000005035401,8|0,0:0|3:0,0:0:0:0:
480,256,280733,1,8,3:0:0:0:
480,256,280903,2,0,P|441:271|401:280,1,82.5000025177003,8|8,0:1|0:0,0:0:0:0:
241,384,281244,5,2,3:2:0:0:
241,384,281329,1,2,0:0:0:0:
241,384,281414,2,0,L|281:366,1,41.2500012588501,2|2,0:0|0:0,0:0:0:0:
200,267,281585,1,10,0:0:0:0:
200,267,281670,1,2,0:0:0:0:
200,267,281755,2,0,L|233:295,1,41.2500012588501,2|2,3:2|0:0,0:0:0:0:
401,354,281926,2,0,P|416:315|396:275,1,82.5000025177003,2|2,3:2|0:0,0:0:0:0:
508,96,282267,1,4,3:2:0:0:
508,96,282608,5,2,3:2:0:0:
344,10,282778,1,2,3:2:0:0:
207,105,282948,1,10,0:0:0:0:
73,56,283119,1,2,3:2:0:0:
41,73,283289,1,2,0:0:0:0:
22,65,283460,1,2,3:2:0:0:
124,143,283630,6,0,B|142:174|142:174|124:216,1,82.5000025177003,2|8,3:2|0:0,0:0:0:0:
0,142,283971,1,4,3:0:0:0:
114,307,284142,2,0,P|154:305|189:276,1,82.5000025177003,2|8,0:0|0:0,0:0:0:0:
38,281,284483,1,2,3:2:0:0:
223,208,284653,2,0,P|263:210|298:239,1,82.5000025177003,2|0,3:2|0:0,0:0:0:0:
512,384,284994,5,6,3:2:0:0:
512,384,285164,2,0,P|489:343|446:331,1,82.5000025177003,2|0,0:0|3:0,0:0:0:0:
268,366,285505,2,0,P|308:343|321:300,1,82.5000025177003,2|8,3:2|0:0,0:0:0:0:
512,173,285846,2,0,B|478:211|419:224|419:224|386:219|354:184,1,165.000005035401,2|0,3:2|3:0,0:0:0:0:
368,198,286358,1,2,0:0:0:0:
256,0,286528,2,0,P|281:34|292:74,1,82.5000025177003,10|8,0:1|3:0,0:0:0:0:
153,219,286869,2,0,P|164:179|188:146,1,82.5000025177003,2|8,0:1|0:0,0:0:0:0:
0,0,287210,1,2,3:1:0:0:
103,68,287380,6,0,P|82:72|63:79,1,41.2500012588501,2|0,0:2|0:0,0:0:0:0:
239,14,287551,1,2,3:2:0:0:
63,193,287728,6,0,P|156:186|193:127,1,150,6|0,3:1|3:0,0:0:0:0:
320,320,288239,1,8,3:0:0:0:
320,320,288324,1,0,3:0:0:0:
320,320,288409,2,0,P|249:311|172:290,1,150,8|2,0:0|0:0,0:0:0:0:
173,290,288985,1,0,3:0:0:0:
352,129,289178,2,0,B|371:236|383:176|400:273,1,150,4|2,3:2|0:0,0:0:0:0:
399,269,289722,5,8,3:0:0:0:
256,96,289914,1,8,3:0:0:0:
256,96,290290,5,4,3:0:0:0:
356,11,290498,5,4,0:0:0:0:
512,38,290736,6,0,P|459:46|407:72,1,104.999996795654,6|0,3:2|0:0,0:0:0:0:
412,67,291515,1,2,0:0:0:0:
256,0,291686,1,2,0:0:0:0:
128,96,291972,6,0,L|135:67,2,25,2|2|2,0:0|0:0|0:0,0:0:0:0:
73,27,292372,1,2,0:0:0:0:
256,128,292715,5,0,0:0:0:0:
274,172,292886,1,2,0:0:0:0:
255,194,293057,1,2,0:0:0:0:
128,288,293229,2,0,L|142:338,3,37.5,2|2|2|2,0:0|0:0|0:0|0:0,0:0:0:0:
159,350,293572,5,2,3:2:0:0:
50,233,293912,1,2,0:0:0:0:
255,332,294253,1,0,0:0:0:0:
239,377,294424,1,2,0:0:0:0:
448,288,294651,6,0,L|437:262,2,25,2|2|2,0:0|0:0|0:0,0:0:0:0:
400,348,295106,1,0,0:0:0:0:
304,140,295447,1,2,0:0:0:0:
453,76,295787,1,2,0:0:0:0:
476,148,295958,2,0,L|512:161,2,37.5,2|2|2,0:0|0:0|0:0,0:0:0:0:
294,57,296307,5,6,3:2:0:0:
209,96,296655,1,2,0:0:0:0:
96,0,297004,1,0,0:0:0:0:
142,12,297170,1,2,0:0:0:0:
129,207,297522,5,2,0:0:0:0:
52,64,297879,1,2,0:0:0:0:
67,257,298223,5,2,0:0:0:0:
30,335,298429,1,0,0:0:0:0:
142,384,298635,1,2,0:0:0:0:
448,256,299150,1,6,3:2:0:0:
188,0,299919,5,6,3:2:0:0:
291,340,300738,5,6,3:2:0:0:
435,125,301561,5,6,3:2:0:0:
176,80,302848,5,6,3:2:0:0:
256,192,302934,12,0,309744,0:0:0:0:
