osu file format v14

[General]
AudioFilename: audio.mp3
AudioLeadIn: 0
PreviewTime: 58604
Countdown: 0
SampleSet: Soft
StackLeniency: 0.7
Mode: 0
LetterboxInBreaks: 0
WidescreenStoryboard: 1

[Editor]
DistanceSpacing: 1.2
BeatDivisor: 4
GridSize: 16
TimelineZoom: 1.1

[Metadata]
Title:Philosophyz ~TV animation ver.~ (TV Size)
TitleUnicode:Philosophyz ~TV animation ver.~ (TV Size)
Artist:Mizutani Runa (NanosizeMir)
ArtistUnicode:水谷瑠奈(NanosizeMir)
Creator:ayel
Version:Normal
Source:Rewrite
Tags:momochikun リライト opening visual novel tv size mintjam key visual art's 折戸伸治 orito shinji 都乃河勇人 tonokawa yuuto fsjallink celektus anime japanese pop rock
BeatmapID:3673686
BeatmapSetID:1741155

[Difficulty]
HPDrainRate:3
CircleSize:3
OverallDifficulty:4
ApproachRate:5
SliderMultiplier:0.9
SliderTickRate:1

[Events]
//Background and Video events
0,0,"Kagari.(Rewrite).full.635287.jpg",0,0
//Break Periods
//Storyboard Layer 0 (Background)
//Storyboard Layer 1 (Fail)
//Storyboard Layer 2 (Pass)
//Storyboard Layer 3 (Foreground)
//Storyboard Layer 4 (Overlay)
//Storyboard Sound Samples

[TimingPoints]
292,375,4,2,1,20,1,0
1042,375,4,2,1,30,1,0
1042,-111.111111111111,4,2,1,30,0,0
7604,-111.111111111111,4,2,1,45,0,0
8542,-100,4,2,1,80,0,0
20542,-100,4,2,2,40,0,0
31042,-100,4,2,2,20,0,0
31229,-100,4,2,2,25,0,0
31417,-100,4,2,2,30,0,0
31604,-100,4,2,2,35,0,0
31792,-100,4,2,2,40,0,0
31979,-100,4,2,2,45,0,0
32167,-100,4,2,2,50,0,0
32354,-100,4,2,2,55,0,0
32542,-100,4,2,2,40,0,0
43042,-100,4,2,2,20,0,0
43229,-100,4,2,2,25,0,0
43417,-100,4,2,2,30,0,0
43604,-100,4,2,2,35,0,0
43792,-100,4,2,2,40,0,0
43979,-100,4,2,2,45,0,0
44167,-100,4,2,1,50,0,0
44354,-100,4,2,1,55,0,0
44542,-100,4,2,1,50,0,0
45104,-100,4,2,2,50,0,0
45292,-100,4,2,1,50,0,0
45479,-100,4,2,2,50,0,0
45667,-100,4,2,1,50,0,0
45854,-100,4,2,2,50,0,0
46042,-100,4,2,1,50,0,0
46229,-100,4,2,2,50,0,0
46417,-100,4,2,1,50,0,0
46604,-100,4,2,2,50,0,0
46792,-100,4,2,1,50,0,0
46979,-100,4,2,2,50,0,0
47167,-100,4,2,1,50,0,0
47729,-100,4,2,2,50,0,0
47917,-100,4,2,1,50,0,0
48104,-100,4,2,2,50,0,0
48292,-100,4,2,1,50,0,0
48479,-100,4,2,2,50,0,0
48667,-100,4,2,1,50,0,0
48854,-100,4,2,2,50,0,0
49042,-100,4,2,1,50,0,0
49229,-100,4,2,2,50,0,0
49417,-100,4,2,1,50,0,0
49604,-100,4,2,2,50,0,0
49792,-100,4,2,1,50,0,0
49979,-100,4,2,2,50,0,0
50167,-100,4,2,1,50,0,0
50354,-100,4,2,2,50,0,0
50542,-100,4,2,1,50,0,0
50729,-100,4,2,2,50,0,0
50917,-100,4,2,1,50,0,0
51104,-100,4,2,2,50,0,0
51292,-100,4,2,1,50,0,0
51479,-100,4,2,2,50,0,0
51667,-100,4,2,1,50,0,0
51854,-100,4,2,2,50,0,0
52042,-100,4,2,1,50,0,0
52229,-100,4,2,2,50,0,0
52417,-100,4,2,1,50,0,0
52604,-100,4,2,2,50,0,0
52792,-100,4,2,1,50,0,0
52979,-100,4,2,2,50,0,0
53167,-100,4,2,1,50,0,0
53542,-100,4,2,1,60,0,0
53729,-100,4,2,2,60,0,0
53917,-100,4,2,1,60,0,0
54104,-100,4,2,2,60,0,0
54292,-100,4,2,1,60,0,0
54479,-100,4,2,2,60,0,0
54667,-100,4,2,1,60,0,0
54854,-100,4,2,2,60,0,0
55042,-100,4,2,1,60,0,0
55229,-100,4,2,2,60,0,0
55417,-100,4,2,1,60,0,0
55604,-100,4,2,2,60,0,0
55792,-100,4,2,1,60,0,0
55979,-100,4,2,2,60,0,0
56167,-100,4,2,1,60,0,0
57854,-100,4,2,1,45,0,0
58792,-100,4,2,1,20,0,0
59167,-100,4,2,1,60,0,0
59542,-90.9090909090909,4,2,1,100,0,0
83167,-90.9090909090909,4,2,2,100,0,0
83542,-95.2380952380952,4,2,1,80,0,0
89354,-133.333333333333,4,2,1,80,0,0

[Colours]
Combo1 : 248,211,171
Combo2 : 171,252,203
Combo3 : 175,221,254
Combo4 : 249,254,186
Combo5 : 240,80,80

[HitObjects]
98,334,1042,6,0,B|146:336|194:286,1,80.9999975280763,2|2,2:2|2:2,0:0:0:0:
209,269,1604,2,0,L|190:153,1,80.9999975280763,2|2,2:2|2:2,0:0:0:0:
169,155,2167,1,2,2:2:0:0:
169,155,2354,1,2,2:2:0:0:
217,70,2729,2,0,B|234:66|257:68,1,40.4999987640381,2|2,2:2|2:2,0:0:0:0:
304,56,3104,2,0,B|346:71|346:71|383:116,1,80.9999975280763,2|2,2:2|2:2,0:0:0:0:
393,141,3667,2,0,B|439:133,2,40.4999987640381,2|2|2,2:2|2:2|2:2,0:0:0:0:
377,289,4604,5,2,2:2:0:0:
377,289,4792,2,0,L|433:277,2,40.4999987640381,2|2|2,2:2|2:2|2:2,0:0:0:0:
343,324,5354,2,0,B|217:309,1,121.499996292114,2|0,2:2|0:0,0:0:0:0:
186,342,6104,2,0,L|194:381,2,40.4999987640381,2|2|2,2:2|2:2|2:2,0:0:0:0:
142,319,6667,1,2,2:2:0:0:
160,223,7042,2,0,B|208:144|299:145,1,161.999995056153,10|2,2:2|3:2,0:0:0:0:
345,158,7979,1,2,3:2:0:0:
345,158,8167,1,14,2:2:0:0:
449,215,8542,6,0,L|424:326,1,90,6|8,3:2|2:2,0:0:0:0:
432,350,9104,2,0,P|394:332|344:323,1,90,2|0,3:2|3:3,0:0:0:0:
294,349,9667,2,0,B|237:349|203:295|210:236,1,135,10|0,2:2|3:3,0:0:0:0:
244,217,10417,5,10,2:2:0:0:
274,98,10792,1,2,2:2:0:0:
171,41,11167,1,10,2:2:0:0:
79,113,11542,1,2,3:2:0:0:
114,224,11917,6,0,B|56:238,1,45,8|2,2:2|3:2,0:0:0:0:
30,275,12292,2,0,B|44:332,1,45,2|0,2:3|3:3,0:0:0:0:
82,368,12667,1,10,2:2:0:0:
82,368,12854,2,0,B|195:340,1,90,2|0,3:2|3:3,0:0:0:0:
264,278,13604,2,0,B|351:299,1,90,2|0,3:3|3:3,0:0:0:0:
408,313,14167,1,14,2:2:0:0:
488,194,14542,6,0,B|489:142|458:123|449:51,1,135,6|2,3:2|3:2,0:0:0:0:
393,54,15292,2,0,P|347:68|300:73,1,90,2|8,2:3|2:2,0:0:0:0:
262,112,15854,2,0,P|217:106|174:93,1,90,2|0,3:3|3:3,0:0:0:0:
117,109,16417,6,0,L|121:169,1,45,10|2,2:2|2:2,0:0:0:0:
124,212,16792,1,2,3:2:0:0:
86,325,17167,1,10,2:2:0:0:
86,325,17354,2,0,B|171:317|189:270|285:263,1,180,6|0,3:2|0:0,0:0:0:0:
367,302,18479,6,0,L|359:357,2,45,2|10|2,3:2|2:2|3:2,0:0:0:0:
435,207,19229,2,0,L|428:162,1,45,2|10,3:2|2:2,0:0:0:0:
439,104,19604,2,0,B|390:61|390:61|297:68,1,135,2|8,3:2|2:2,0:0:0:0:
232,143,20542,6,0,P|203:141|163:147,1,45,2|0,2:3|0:0,0:0:0:0:
131,159,20917,1,10,2:2:0:0:
58,250,21292,1,10,2:2:0:0:
144,337,21667,1,10,2:2:0:0:
144,337,21854,2,0,P|192:341|243:336,1,90,2|2,2:2|2:2,0:0:0:0:
329,270,22604,2,0,L|324:226,1,45,2|10,2:2|2:2,0:0:0:0:
343,169,22979,2,0,B|407:167|434:200|494:191,1,135,2|8,2:2|2:2,0:0:0:0:
508,80,23917,5,10,2:2:0:0:
401,31,24292,1,10,2:2:0:0:
294,78,24667,1,10,2:2:0:0:
294,78,24854,2,0,B|249:93|249:93|200:79,1,90,2|2,2:2|2:2,0:0:0:0:
94,52,25604,2,0,L|99:100,1,45,2|10,2:2|2:2,0:0:0:0:
132,144,25979,2,0,B|157:217|121:293,1,135,2|8,2:3|2:2,0:0:0:0:
211,345,26917,5,10,2:2:0:0:
318,311,27292,1,10,2:2:0:0:
286,214,27667,1,10,2:2:0:0:
286,214,27854,2,0,P|328:181|382:179,2,90,2|2|2,2:2|2:2|2:2,0:0:0:0:
168,210,28979,2,0,P|161:166|157:108,1,90,2|2,2:2|2:2,0:0:0:0:
175,64,29542,6,0,P|133:31|79:29,1,90,10|8,2:2|2:2,0:0:0:0:
21,103,30292,1,10,2:2:0:0:
66,210,30667,1,10,2:2:0:0:
66,210,30854,2,0,B|55:277|109:309|176:300,1,135,2|10,2:2|2:2,0:0:0:0:
195,322,31604,1,2,2:2:0:0:
195,322,31792,2,0,L|211:262,1,45,10|2,2:2|2:3,0:0:0:0:
251,248,32167,2,0,L|235:188,1,45,10|2,2:2|2:3,0:0:0:0:
255,152,32542,1,10,2:2:0:0:
306,48,32917,5,10,2:2:0:0:
419,76,33292,1,10,2:2:0:0:
428,192,33667,1,10,2:2:0:0:
428,192,33854,2,0,B|412:246|426:314,1,90,2|2,2:2|2:2,0:0:0:0:
325,349,34604,2,0,L|265:356,1,45,2|10,2:2|2:2,0:0:0:0:
230,323,34979,2,0,L|93:299,1,135,2|8,2:2|2:2,0:0:0:0:
6,224,35917,5,10,2:2:0:0:
0,106,36292,1,10,2:2:0:0:
91,33,36667,1,10,2:2:0:0:
91,33,36854,2,0,B|136:63|200:66,1,90,2|2,2:2|2:2,0:0:0:0:
287,31,37604,2,0,L|292:79,1,45,2|10,2:2|2:2,0:0:0:0:
325,123,37979,2,0,B|350:196|314:272,1,135,2|8,2:3|2:2,0:0:0:0:
239,325,38917,5,10,2:2:0:0:
136,291,39292,1,10,2:2:0:0:
149,191,39667,1,10,2:2:0:0:
149,191,39854,2,0,L|239:182,2,90,2|2|2,2:2|2:2|2:2,0:0:0:0:
48,131,40979,2,0,P|39:86|38:30,1,90,2|2,2:2|2:2,0:0:0:0:
87,11,41542,6,0,B|134:4|134:4|176:22,1,90,10|8,2:2|2:2,0:0:0:0:
259,99,42292,2,0,B|298:115|298:115|345:108,1,90,10|10,2:2|2:2,0:0:0:0:
391,91,42854,1,2,2:2:0:0:
481,174,43229,5,2,2:2:0:0:
481,174,43417,2,0,L|475:242,1,45,2|2,2:3|2:2,0:0:0:0:
431,256,43792,2,0,L|437:324,1,45,2|2,2:3|2:2,0:0:0:0:
406,351,44167,1,10,2:2:0:0:
303,294,44542,6,0,B|240:308|237:335|151:352,1,135,6|2,3:2|2:3,0:0:0:0:
120,339,45292,2,0,B|97:295|115:237,1,90,2|2,3:2|3:2,0:0:0:0:
117,193,45854,1,2,2:3:0:0:
204,115,46229,2,0,B|210:92|207:67,1,45,2|2,2:3|3:2,0:0:0:0:
224,14,46604,2,0,B|308:26|287:41|363:51,1,135,2|0,2:3|3:3,0:0:0:0:
437,134,47542,6,0,L|514:112,2,67.5,2|2|2,3:2|2:2|2:3,0:0:0:0:
386,163,48292,2,0,B|373:212|382:264,1,90,2|2,3:2|3:2,0:0:0:0:
416,288,48854,1,2,2:3:0:0:
311,335,49229,5,2,2:3:0:0:
311,335,49417,2,0,L|207:357,2,90,0|0|0,3:3|3:3|3:3,0:0:0:0:
268,225,50542,6,0,B|266:182|266:182|238:139,1,90,2|0,3:2|3:3,0:0:0:0:
182,141,51104,1,2,2:3:0:0:
182,141,51292,2,0,L|76:158,1,90,2|2,3:2|3:2,0:0:0:0:
35,163,51854,1,2,2:3:0:0:
9,277,52229,2,0,L|16:326,1,45,2|2,2:3|3:2,0:0:0:0:
57,362,52604,2,0,L|106:355,1,45,2|0,2:3|3:3,0:0:0:0:
190,278,53167,6,0,P|214:272|251:270,1,45,10|2,2:2|1:2,0:0:0:0:
290,289,53542,2,0,B|340:278|360:226,1,90,6|8,3:2|2:2,0:0:0:0:
340,183,54104,1,2,2:3:0:0:
340,183,54292,2,0,B|322:135|331:88,1,90,2|8,3:2|2:2,0:0:0:0:
340,37,54854,1,2,2:3:0:0:
221,95,55229,5,2,2:3:0:0:
221,95,55417,2,0,B|181:114|181:114|128:102,1,90,10|2,2:2|3:2,0:0:0:0:
29,55,56167,2,0,B|19:95|31:117,1,45,10|0,2:2|0:0,0:0:0:0:
48,153,56542,2,0,B|75:216|52:287,1,135,2|0,3:2|3:3,0:0:0:0:
43,346,57292,1,8,2:2:0:0:
43,346,57479,2,0,L|-17:335,2,45,0|0|6,3:3|3:3|3:2,0:0:0:0:
154,303,58229,5,4,3:2:0:0:
154,303,58417,1,4,3:2:0:0:
229,213,58792,2,0,P|238:170|236:114,1,90,2|2,2:2|2:2,0:0:0:0:
303,13,59542,6,0,L|369:21,1,49.5000015106202,6|2,3:2|2:2,0:0:0:0:
419,33,59917,1,10,2:2:0:0:
419,33,60104,2,0,P|429:86|416:150,1,99.0000030212403,0|2,0:0|3:2,0:0:0:0:
305,181,60854,2,0,L|315:245,1,49.5000015106202,2|0,3:2|0:0,0:0:0:0:
361,271,61229,2,0,L|351:335,1,49.5000015106202,2|8,3:2|2:2,0:0:0:0:
298,353,61604,2,0,P|243:354|191:361,1,99.0000030212403,2|2,3:2|3:2,0:0:0:0:
135,370,62167,1,8,2:2:0:0:
17,293,62542,6,0,L|25:227,1,49.5000015106202,2|2,3:2|2:2,0:0:0:0:
37,177,62917,1,10,2:2:0:0:
37,177,63104,2,0,P|90:167|154:180,1,99.0000030212403,2|2,2:2|3:2,0:0:0:0:
260,199,63854,6,0,L|250:135,1,49.5000015106202,6|0,3:2|0:0,0:0:0:0:
204,109,64229,2,0,L|214:45,1,49.5000015106202,2|10,3:2|2:2,0:0:0:0:
261,19,64604,2,0,P|314:9|378:22,1,99.0000030212403,2|2,2:2|3:2,0:0:0:0:
416,39,65167,1,14,2:2:0:0:
376,161,65542,6,0,B|389:211|406:221|406:274,1,99.0000030212403,2|8,3:2|2:2,0:0:0:0:
396,318,66104,1,2,3:2:0:0:
396,318,66292,2,0,B|371:327|325:326,1,49.5000015106202,10|6,2:2|3:2,0:0:0:0:
299,287,66667,1,6,3:2:0:0:
299,287,66854,2,0,B|250:269|250:269|201:289,1,99.0000030212403,2|0,3:3|3:3,0:0:0:0:
163,334,67417,5,10,2:2:0:0:
48,276,67792,1,2,3:2:0:0:
70,149,68167,1,10,2:2:0:0:
194,117,68542,6,0,P|245:110|292:96,1,99.0000030212403,6|10,3:2|2:2,0:0:0:0:
348,67,69104,2,0,B|402:82|402:82|428:127,1,99.0000030212403,6|2,3:2|3:2,0:0:0:0:
412,178,69667,1,8,2:2:0:0:
412,178,69854,2,0,B|394:231|415:288,1,99.0000030212403,6|0,3:2|3:3,0:0:0:0:
444,321,70417,1,8,2:2:0:0:
316,341,70792,6,0,L|259:354,1,49.5000015106202,10|0,2:2|3:3,0:0:0:0:
222,306,71167,2,0,L|173:298,1,49.5000015106202,14|8,2:2|2:3,0:0:0:0:
120,261,71542,6,0,P|121:232|128:195,1,49.5000015106202,6|2,3:2|2:2,0:0:0:0:
175,172,71917,1,10,2:2:0:0:
175,172,72104,2,0,P|185:119|172:55,1,99.0000030212403,2|2,2:2|3:2,0:0:0:0:
304,45,72854,2,0,L|368:35,1,49.5000015106202,2|0,3:2|0:0,0:0:0:0:
405,1,73229,2,0,L|457:39,1,49.5000015106202,2|8,3:2|2:2,0:0:0:0:
465,90,73604,2,0,P|473:147|473:197,1,99.0000030212403,2|2,3:2|3:2,0:0:0:0:
479,252,74167,1,8,2:2:0:0:
422,365,74542,6,0,L|356:357,1,49.5000015106202,2|2,3:2|2:2,0:0:0:0:
319,323,74917,1,10,2:2:0:0:
319,323,75104,2,0,P|269:312|211:311,1,99.0000030212403,2|10,3:2|2:2,0:0:0:0:
162,299,75667,5,10,2:2:0:0:
162,299,75854,1,6,3:2:0:0:
223,174,76229,2,0,L|173:176,1,49.5000015106202,2|10,3:2|2:2,0:0:0:0:
125,134,76604,2,0,P|116:89|120:36,1,99.0000030212403,6|0,3:2|3:3,0:0:0:0:
178,21,77167,6,0,L|238:17,1,49.5000015106202,14|8,2:2|2:3,0:0:0:0:
291,21,77542,2,0,B|388:32|388:137,1,148.50000453186,6|2,3:2|2:2,0:0:0:0:
358,168,78292,1,2,3:2:0:0:
337,288,78667,1,8,2:2:0:0:
337,288,78854,1,2,3:3:0:0:
222,301,79229,5,0,3:3:0:0:
222,301,79417,2,0,L|150:311,1,49.5000015106202,10|0,2:2|1:1,0:0:0:0:
118,274,79792,2,0,L|68:267,1,49.5000015106202,2|0,3:2|0:0,0:0:0:0:
7,248,80167,1,10,2:2:0:0:
12,119,80542,6,0,B|35:61|108:65,1,99.0000030212403,6|8,3:2|2:2,0:0:0:0:
137,87,81104,1,0,1:1:0:0:
137,87,81292,2,0,B|187:106|246:93,1,99.0000030212403,0|8,3:3|2:2,0:0:0:0:
298,81,81854,1,6,3:2:0:0:
419,38,82229,5,0,3:3:0:0:
419,38,82417,2,0,L|412:92,1,49.5000015106202,12|8,2:2|2:3,0:0:0:0:
453,137,82792,2,0,B|458:167|458:167|450:193,1,49.5000015106202,2|0,3:2|0:0,0:0:0:0:
428,239,83167,1,6,2:3:0:0:
421,344,83542,6,0,P|376:334|323:327,1,94.499997116089,2|10,3:2|2:2,0:0:0:0:
275,296,84104,2,0,B|262:254|262:254|271:195,1,94.499997116089,6|2,3:2|3:2,0:0:0:0:
289,149,84667,1,10,2:2:0:0:
289,149,84854,1,6,3:2:0:0:
242,45,85229,2,0,P|214:48|187:54,1,47.2499985580445,2|10,3:2|2:2,0:0:0:0:
152,89,85604,2,0,P|105:99|59:105,1,94.499997116089,2|2,3:3|3:2,0:0:0:0:
16,151,86167,1,10,2:2:0:0:
16,151,86354,2,0,B|-7:201|20:262,1,94.499997116089,6|0,3:2|3:3,0:0:0:0:
32,301,86917,1,8,2:2:0:0:
154,302,87292,6,0,L|207:291,1,47.2499985580445,2|2,3:2|2:2,0:0:0:0:
255,308,87667,1,10,2:2:0:0:
255,308,87854,2,0,B|307:308|349:279|347:203,1,141.749995674133,2|8,2:2|2:2,0:0:0:0:
389,176,88604,2,0,L|449:167,2,47.2499985580445,2|10|8,1:2|2:2|2:3,0:0:0:0:
355,130,89167,1,4,2:3:0:0:
355,130,89354,1,6,3:2:0:0:
