osu file format v14

[General]
AudioFilename: audio.mp3
AudioLeadIn: 0
PreviewTime: 58346
Countdown: 0
SampleSet: Soft
StackLeniency: 0.7
Mode: 0
LetterboxInBreaks: 0
WidescreenStoryboard: 1

[Editor]
Bookmarks: 20284,32659,44284,53284,59284
DistanceSpacing: 0.8
BeatDivisor: 4
GridSize: 32
TimelineZoom: 3.399999

[Metadata]
Title:Philosophyz ~TV animation ver.~ (TV Size)
TitleUnicode:Philosophyz ~TV animation ver.~ (TV Size)
Artist:Mizutani Runa (NanosizeMir)
ArtistUnicode:水谷瑠奈(NanosizeMir)
Creator:Creamy Candy
Version:Normal
Source:Rewrite
Tags:リライト op opening visual novel video game vn short ver version mintjam key art's 折戸伸治 orito shinji 都乃河勇人 tonokawa yuuto shunao shogunmoon supav japanese anime pop jpop j-pop female vocalist
BeatmapID:3470007
BeatmapSetID:1697306

[Difficulty]
HPDrainRate:4
CircleSize:3.5
OverallDifficulty:4
ApproachRate:5
SliderMultiplier:1.2
SliderTickRate:1

[Events]
//Background and Video events
0,0,"kagari.jpg",0,0
//Break Periods
//Storyboard Layer 0 (Background)
//Storyboard Layer 1 (Fail)
//Storyboard Layer 2 (Pass)
//Storyboard Layer 3 (Foreground)
//Storyboard Layer 4 (Overlay)
//Storyboard Sound Samples

[TimingPoints]
784,375,4,2,1,35,1,0
1159,-100,4,2,1,35,0,0
6784,-100,4,2,1,50,0,0
7346,-100,4,2,1,40,0,0
7534,-100,4,2,1,45,0,0
7721,-100,4,2,1,50,0,0
8002,-100,4,2,1,60,0,0
8284,-100,4,2,1,70,0,0
20002,-100,4,2,1,60,0,0
20284,-100,4,2,1,60,0,0
20659,-100,4,2,1,45,0,0
30971,-100,4,2,1,30,0,0
31159,-100,4,2,1,35,0,0
31534,-100,4,2,1,40,0,0
32284,-100,4,2,1,45,0,0
43909,-100,4,2,1,60,0,0
53284,-100,4,2,1,60,0,0
56284,-100,4,2,1,70,0,0
58534,-100,4,2,1,35,0,0
58909,-100,4,2,1,40,0,0
59096,-100,4,2,1,50,0,0
59284,-90.9090909090909,4,2,1,80,0,1
83284,-90.9090909090909,4,2,1,70,0,0
88534,-90.9090909090909,4,2,1,70,0,0
90784,-90.9090909090909,4,2,1,70,0,0
92284,-90.9090909090909,4,2,1,70,0,0
93784,-90.9090909090909,4,2,1,70,0,0
95284,-90.9090909090909,4,2,1,5,0,0

[Colours]
Combo1 : 85,103,174
Combo2 : 188,44,98
Combo3 : 129,146,154
Combo4 : 138,119,168

[HitObjects]
37,312,784,6,0,P|93:292|152:279,1,120,2|2,0:0|0:0,0:0:0:0:
176,237,1346,2,0,P|233:253|288:277,1,120,2|2,0:0|0:0,0:0:0:0:
319,314,1909,1,2,0:0:0:0:
319,314,2096,1,2,0:0:0:0:
412,290,2471,6,0,P|422:261|434:234,1,60,2|2,0:0|0:0,0:0:0:0:
471,203,2846,1,2,0:0:0:0:
450,109,3221,2,0,P|478:98|507:88,2,60,2|2|2,0:0|0:0|0:0,0:0:0:0:
405,90,3784,1,2,0:0:0:0:
264,58,4346,6,0,P|249:9|239:-29,2,60,2|2|2,0:0|0:0|0:0,0:0:0:0:
246,105,4909,1,2,0:0:0:0:
246,105,5096,1,2,0:0:0:0:
102,232,5846,2,0,P|87:281|77:319,2,60,2|2|2,0:0|0:0|0:0,0:0:0:0:
81,188,6409,1,2,0:0:0:0:
17,115,6784,2,0,P|96:30|252:72,1,240,8|0,0:0|1:0,0:0:0:0:
239,129,7909,1,8,0:0:0:0:
329,161,8284,6,0,P|338:109|358:38,1,120,4|8,1:0|0:0,0:0:0:0:
396,18,8846,1,0,1:2:0:0:
476,80,9221,1,0,1:0:0:0:
476,80,9409,2,0,P|460:131|430:299,1,180,8|0,0:0|1:0,0:0:0:0:
450,300,10159,1,8,0:0:0:0:
388,373,10534,1,0,1:0:0:0:
296,342,10909,2,0,P|309:293|313:272,1,60,8|0,0:0|0:0,0:0:0:0:
349,255,11284,6,0,P|332:188|320:132,1,120,4|8,1:2|0:0,0:0:0:0:
286,105,11846,2,0,P|228:106|192:152,1,120,0|0,1:0|1:0,0:0:0:0:
204,202,12409,1,8,0:0:0:0:
204,202,12596,1,0,1:0:0:0:
146,278,12971,2,0,P|140:308|129:350,2,60,0|8|0,1:0|0:0|1:0,0:0:0:0:
86,209,13721,1,0,1:0:0:0:
86,209,13909,2,0,P|68:156|54:118,1,60,12|0,0:0|1:0,0:0:0:0:
77,105,14284,6,0,P|112:59|170:53,1,120,4|8,1:0|0:0,0:0:0:0:
205,87,14846,1,0,1:0:0:0:
205,87,15034,2,0,P|263:97|322:112,1,120,0|8,0:0|0:0,0:0:0:0:
359,82,15596,1,4,1:0:0:0:
447,131,15971,1,0,1:0:0:0:
447,131,16159,2,0,P|442:167|434:209,1,60,8|0,0:0|0:0,0:0:0:0:
407,227,16534,2,0,P|414:268|420:309,1,60,0|0,1:0|1:0,0:0:0:0:
390,327,16909,1,8,0:0:0:0:
390,327,17096,6,0,B|281:321|345:256|201:255,1,180,4|8,1:0|0:0,0:0:0:0:
146,210,18034,2,0,P|121:218|88:226,2,60,0|0|8,1:0|1:0|0:0,0:0:0:0:
183,179,18596,2,0,P|195:120|206:61,1,120,4|0,1:2|1:0,0:0:0:0:
199,13,19159,1,8,0:0:0:0:
103,4,19534,2,0,P|91:62|80:121,1,120,8|8,0:3|0:0,0:0:0:0:
43,152,20096,1,4,0:3:0:0:
43,152,20284,1,0,1:2:0:0:
30,247,20659,6,0,P|33:276|42:307,1,60,2|0,3:2|0:0,0:0:0:0:
79,334,21034,2,0,P|137:318|195:308,1,120,2|2,3:2|3:2,0:0:0:0:
233,337,21596,1,2,0:0:0:0:
321,374,21971,1,2,0:0:0:0:
393,310,22346,2,0,P|404:271|406:243,1,60,2|2,0:0|3:2,0:0:0:0:
366,224,22721,2,0,P|348:156|329:90,1,120,2|0,0:0|0:0,0:0:0:0:
322,61,23284,1,0,3:2:0:0:
226,56,23659,6,0,P|194:49|166:45,1,60,2|0,3:2|0:0,0:0:0:0:
133,10,24034,2,0,P|81:35|68:91,1,120,2|2,3:2|3:2,0:0:0:0:
96,130,24596,1,2,0:0:0:0:
167,193,24971,1,2,0:0:0:0:
252,150,25346,2,0,P|290:133|325:130,1,60,2|2,0:0|3:2,0:0:0:0:
340,165,25721,2,0,P|417:186|464:207,1,120,2|0,0:0|0:0,0:0:0:0:
475,244,26284,1,0,3:2:0:0:
433,330,26659,6,0,P|363:343|295:361,2,120,2|2|2,3:2|3:2|3:2,0:0:0:0:
470,360,27596,1,2,0:0:0:0:
508,272,27971,1,2,0:0:0:0:
454,193,28346,1,2,0:0:0:0:
358,202,28721,2,0,P|251:222|196:239,1,120,2|2,0:0|0:0,0:0:0:0:
214,265,29284,6,0,P|151:279|117:178,1,180,2|0,3:2|0:0,0:0:0:0:
131,144,30034,1,2,3:2:0:0:
189,68,30409,1,2,3:2:0:0:
189,68,30596,2,0,P|247:54|307:45,1,120,2|2,0:0|0:0,0:0:0:0:
344,74,31159,1,2,3:2:0:0:
438,57,31534,2,0,P|445:28|453:-1,2,60,2|2|2,3:2|0:0|3:2,0:0:0:0:
461,104,32096,1,2,0:0:0:0:
461,104,32284,1,0,3:2:0:0:
500,191,32659,6,0,P|511:241|517:292,1,60,2|0,3:2|0:0,0:0:0:0:
485,289,33034,2,0,P|397:283|382:239,1,120,2|2,3:2|3:2,0:0:0:0:
375,217,33596,1,2,0:0:0:0:
348,124,33971,1,2,0:0:0:0:
252,125,34346,2,0,P|235:169|228:187,1,60,2|2,0:0|3:2,0:0:0:0:
184,194,34721,2,0,P|126:209|70:230,1,120,2|0,0:0|0:0,0:0:0:0:
21,230,35284,1,0,3:2:0:0:
42,323,35659,6,0,P|71:332|99:342,1,60,2|0,3:2|0:0,0:0:0:0:
137,371,36034,2,0,P|200:343|186:260,1,120,2|2,3:2|3:2,0:0:0:0:
194,252,36596,1,2,0:0:0:0:
259,181,36971,1,2,0:0:0:0:
336,236,37346,2,0,P|355:281|361:298,1,60,2|2,0:0|3:2,0:0:0:0:
403,309,37721,2,0,P|456:294|465:219,1,120,2|0,0:0|0:0,0:0:0:0:
445,196,38284,1,0,3:2:0:0:
371,134,38659,6,0,P|364:74|353:16,2,120,2|2|2,3:2|3:2|3:2,0:0:0:0:
343,173,39596,1,2,0:0:0:0:
310,263,39971,1,2,0:0:0:0:
216,282,40346,1,2,0:0:0:0:
137,226,40721,2,0,P|130:166|118:107,1,120,2|2,0:0|0:0,0:0:0:0:
132,61,41284,6,0,B|240:67|184:-4|327:10,1,180,2|0,3:2|0:0,0:0:0:0:
345,15,42034,1,2,3:2:0:0:
418,84,42409,1,2,3:2:0:0:
418,84,42596,2,0,P|496:121|488:224,1,180,2|0,0:0|3:2,0:0:0:0:
465,295,43534,1,0,3:2:0:0:
370,313,43909,2,0,P|329:306|294:298,1,60,8|0,0:0|1:0,0:0:0:0:
283,262,44284,6,0,P|194:288|67:343,1,180,4|2,1:0|0:0,0:0:0:0:
68,302,45034,1,2,1:2:0:0:
98,212,45409,1,2,1:2:0:0:
98,212,45596,2,0,P|153:190|211:173,1,120,2|2,0:0|0:0,0:0:0:0:
237,132,46159,1,2,1:2:0:0:
237,132,46346,2,0,P|323:141|359:263,1,180,2|0,0:0|1:0,0:0:0:0:
310,293,47284,6,0,P|302:352|298:389,2,90,2|2|2,1:2|0:0|0:0,0:0:0:0:
280,255,48034,2,0,P|190:274|142:290,1,120,2|2,1:2|1:2,0:0:0:0:
125,312,48596,1,2,0:0:0:0:
32,287,48971,1,2,0:0:0:0:
25,191,49346,2,0,P|50:123|165:112,1,180,2|2,0:0|1:2,0:0:0:0:
228,153,50284,6,0,P|286:139|346:130,1,120,2|0,1:2|1:0,0:0:0:0:
363,87,50846,1,2,0:0:0:0:
363,87,51034,2,0,P|424:123|477:146,1,120,2|2,1:2|1:2,0:0:0:0:
505,176,51596,1,2,0:0:0:0:
477,267,51971,2,0,B|409:263|449:223|360:214,1,120,2|2,0:0|0:0,0:0:0:0:
333,243,52534,1,0,1:0:0:0:
253,296,52909,2,0,P|204:281|183:275,1,60,8|8,1:2|1:0,0:0:0:0:
170,237,53284,6,0,P|162:200|138:99,1,120,4|8,1:0|0:0,0:0:0:0:
98,35,54034,1,2,1:2:0:0:
13,81,54409,2,0,P|4:127|-4:157,1,60,8|0,0:0|0:0,0:0:0:0:
31,177,54784,1,0,1:0:0:0:
25,274,55159,2,0,P|81:318|135:303,1,120,10|0,0:0|1:2,0:0:0:0:
179,231,55909,2,0,P|213:235|246:244,1,60,8|0,1:2|0:0,0:0:0:0:
281,220,56284,6,0,P|298:313|303:364,1,120,4|8,1:0|0:0,0:0:0:0:
394,362,57034,2,0,P|404:295|417:228,1,120,8|0,0:0|1:0,0:0:0:0:
451,213,57596,1,4,1:0:0:0:
429,124,57971,1,4,1:2:0:0:
429,124,58159,1,4,1:2:0:0:
107,163,59284,6,0,P|114:198|124:250,1,66.0000020141602,4|2,1:0|0:0,0:0:0:0:
159,270,59659,1,10,0:0:0:0:
159,270,59846,2,0,P|233:260|257:187,1,132.00000402832,2|2,0:0|1:2,0:0:0:0:
246,167,60409,1,8,0:0:0:0:
246,167,60596,1,2,1:2:0:0:
309,82,60971,2,0,P|359:70|380:64,1,66.0000020141602,2|8,1:2|0:0,0:0:0:0:
415,34,61346,2,0,P|445:117|472:175,1,132.00000402832,2|2,1:2|1:2,0:0:0:0:
473,208,61909,1,8,0:0:0:0:
386,268,62284,6,0,P|341:256|317:250,1,66.0000020141602,4|2,1:0|0:0,0:0:0:0:
289,216,62659,1,10,0:0:0:0:
289,216,62846,2,0,P|232:226|205:316,1,132.00000402832,2|2,0:0|1:2,0:0:0:0:
217,342,63409,1,8,0:0:0:0:
217,342,63596,1,4,1:0:0:0:
116,375,63971,2,0,P|80:335|51:308,1,66.0000020141602,2|10,1:2|0:2,0:0:0:0:
19,313,64346,2,0,P|37:220|58:156,1,132.00000402832,4|0,1:0|1:0,0:0:0:0:
79,141,64909,1,12,0:0:0:0:
144,58,65284,6,0,P|201:69|225:161,2,132.00000402832,4|8|8,1:0|0:0|0:0,0:0:0:0:
99,30,66221,2,0,P|60:44|34:56,1,66.0000020141602,4|4,1:2|1:2,0:0:0:0:
4,96,66596,1,4,1:0:0:0:
11,205,66971,1,0,1:0:0:0:
11,205,67159,2,0,P|78:218|166:241,1,132.00000402832,8|0,0:0|1:0,0:0:0:0:
173,280,67721,1,0,1:0:0:0:
173,280,67909,1,8,0:0:0:0:
254,347,68284,6,0,P|305:321|303:229,1,132.00000402832,4|8,1:0|0:0,0:0:0:0:
286,209,68846,2,0,P|275:138|260:67,1,132.00000402832,4|0,1:0|1:0,0:0:0:0:
302,43,69409,1,8,0:0:0:0:
302,43,69596,1,4,1:0:0:0:
406,79,69971,1,0,1:0:0:0:
406,79,70159,2,0,P|419:133|420:151,1,66.0000020141602,12|0,0:0|1:0,0:0:0:0:
464,171,70534,2,0,P|454:227|445:264,1,66.0000020141602,8|0,0:0|1:0,0:0:0:0:
413,271,70909,1,12,0:0:0:0:
330,336,71284,6,0,P|289:328|245:321,1,66.0000020141602,4|2,1:0|0:0,0:0:0:0:
216,344,71659,1,10,0:0:0:0:
216,344,71846,2,0,P|153:307|175:239,1,132.00000402832,2|2,0:0|1:2,0:0:0:0:
196,219,72409,1,8,0:0:0:0:
196,219,72596,1,2,1:2:0:0:
282,158,72971,2,0,P|315:164|347:170,1,66.0000020141602,2|8,1:2|0:0,0:0:0:0:
395,148,73346,2,0,P|372:69|352:13,1,132.00000402832,2|2,1:2|1:2,0:0:0:0:
306,2,73909,1,8,0:0:0:0:
205,32,74284,6,0,P|194:86|191:113,1,66.0000020141602,4|2,1:0|0:0,0:0:0:0:
154,133,74659,1,10,0:0:0:0:
154,133,74846,2,0,P|57:168|28:123,1,132.00000402832,2|8,1:2|0:0,0:0:0:0:
37,107,75409,1,8,0:0:0:0:
37,107,75596,1,4,1:0:0:0:
90,19,75971,1,0,1:0:0:0:
90,19,76159,1,8,0:0:0:0:
90,19,76346,1,4,1:0:0:0:
196,46,76721,1,0,1:0:0:0:
196,46,76909,2,0,P|236:56|269:65,1,66.0000020141602,12|0,0:0|1:0,0:0:0:0:
307,39,77284,6,0,P|372:79|364:143,1,132.00000402832,4|8,1:0|0:0,0:0:0:0:
380,180,77846,1,0,1:0:0:0:
380,180,78034,1,0,1:0:0:0:
295,242,78409,1,8,0:0:0:0:
295,242,78596,2,0,P|231:230|161:220,1,132.00000402832,4|0,1:0|1:0,0:0:0:0:
119,247,79159,2,0,P|62:290|70:368,2,132.00000402832,8|0|8,0:0|1:0|0:0,0:0:0:0:
191,324,80284,6,0,P|256:333|321:346,1,132.00000402832,4|8,1:0|0:0,0:0:0:0:
418,305,81034,2,0,P|399:259|391:221,1,66.0000020141602,0|0,1:0|1:0,0:0:0:0:
411,193,81409,1,8,0:0:0:0:
411,193,81596,1,4,1:0:0:0:
469,104,81971,1,0,1:0:0:0:
469,104,82159,2,0,P|426:49|347:71,1,132.00000402832,12|0,0:0|1:0,0:0:0:0:
271,92,82909,1,0,1:0:0:0:
170,59,83284,6,0,P|149:116|123:199,1,132.00000402832,4|8,1:0|0:2,0:0:0:0:
76,195,83846,2,0,P|80:250|98:343,1,132.00000402832,4|0,1:2|1:0,0:0:0:0:
136,356,84409,1,8,0:0:0:0:
136,356,84596,1,4,1:0:0:0:
239,377,84971,6,0,P|250:345|263:316,1,66.0000020141602,0|8,1:0|0:0,0:0:0:0:
315,305,85346,2,0,P|303:240|297:174,1,132.00000402832,4|0,1:2|1:0,0:0:0:0:
311,126,85909,1,8,0:0:0:0:
311,126,86096,1,4,1:0:0:0:
384,50,86471,5,0,1:0:0:0:
384,50,86659,2,0,P|422:76|428:109,1,66.0000020141602,8|2,0:0|0:0,0:0:0:0:
462,133,87034,2,0,P|451:189|446:219,1,66.0000020141602,0|4,1:0|0:3,0:0:0:0:
424,245,87409,1,8,0:0:0:0:
424,245,87596,2,0,P|364:261|297:292,1,132.00000402832,4|0,1:0|0:0,0:0:0:0:
266,249,88159,1,8,0:0:0:0:
190,175,88534,6,0,P|199:125|205:91,1,66.0000020141602,8|8,0:0|0:3,0:0:0:0:
245,79,88909,1,4,0:3:0:0:
245,79,89096,1,4,1:0:0:0:
256,192,89284,12,0,95284,0:0:0:0:
