osu file format v14

[General]
AudioFilename: audio.mp3
AudioLeadIn: 0
PreviewTime: 58506
Countdown: 0
SampleSet: Soft
StackLeniency: 0.7
Mode: 3
LetterboxInBreaks: 0
SpecialStyle: 0
WidescreenStoryboard: 0

[Editor]
DistanceSpacing: 1
BeatDivisor: 4
GridSize: 4
TimelineZoom: 2.6

[Metadata]
Title:Philosophyz ~TV Animation Ver.~ (TV Size)
TitleUnicode:Philosophyz ~TV Animation Ver.~ (TV Size)
Artist:Mizutani Runa (NanosizeMir)
ArtistUnicode:水谷瑠奈(NanosizeMir)
Creator:Aikawa
Version:NM
Source:Rewrite
Tags:- Ly0572 - Rewrite opening visual novel tv size mintjam key visual art's 折戸伸治 orito shinji 都乃河勇人 tonokawa yuuto
BeatmapID:1369400
BeatmapSetID:646298

[Difficulty]
HPDrainRate:6
CircleSize:4
OverallDifficulty:6
ApproachRate:5
SliderMultiplier:1.4
SliderTickRate:1

[Events]
//Background and Video events
Video,0,"BG video.mp4"
0,0,"bg.jpg",0,0
//Break Periods
//Storyboard Layer 0 (Background)
//Storyboard Layer 1 (Fail)
//Storyboard Layer 2 (Pass)
//Storyboard Layer 3 (Foreground)
//Storyboard Layer 4 (Overlay)
//Storyboard Sound Samples
Sample,6753,0,"Tom.wav",70
Sample,6753,0,"Tom.wav",100
Sample,7503,0,"Tom.wav",100
Sample,7503,0,"Tom.wav",100
Sample,7690,0,"Tom.wav",100
Sample,7690,0,"Tom.wav",100
Sample,7878,0,"Tom.wav",100
Sample,7878,0,"Tom.wav",100
Sample,10690,0,"Kick.wav",100
Sample,10690,0,"Kick.wav",100
Sample,11253,0,"Snare.wav",100
Sample,11253,0,"Snare.wav",100
Sample,13597,0,"Kick.wav",100
Sample,13597,0,"Kick.wav",100
Sample,13690,0,"Snare.wav",100
Sample,13690,0,"Snare.wav",100
Sample,13878,0,"Kick.wav",100
Sample,13878,0,"Kick.wav",100
Sample,14159,0,"Kick.wav",100
Sample,14159,0,"Kick.wav",100
Sample,14253,0,"Kick.wav",100
Sample,14253,0,"Kick.wav",100
Sample,14628,0,"Kick.wav",100
Sample,14628,0,"Kick.wav",100
Sample,15284,0,"Kick.wav",100
Sample,15284,0,"Kick.wav",100
Sample,16784,0,"Kick.wav",100
Sample,16784,0,"Kick.wav",100
Sample,17909,0,"Kick.wav",100
Sample,17909,0,"Kick.wav",100
Sample,18659,0,"Cymbal.wav",100
Sample,19690,0,"Tom.wav",100
Sample,19690,0,"Tom.wav",100
Sample,20253,0,"Tom.wav",100
Sample,20253,0,"Tom.wav",100
Sample,26253,0,"Hat.wav",25
Sample,26253,0,"Hat.wav",25
Sample,26347,0,"Rim.wav",100
Sample,26347,0,"Rim.wav",100
Sample,38347,0,"Rim.wav",100
Sample,38347,0,"Rim.wav",100
Sample,44534,0,"Hat.wav",50
Sample,44534,0,"Hat.wav",50
Sample,44909,0,"Hat.wav",50
Sample,44909,0,"Hat.wav",50
Sample,45284,0,"Hat.wav",50
Sample,45284,0,"Hat.wav",50
Sample,46034,0,"Hat.wav",50
Sample,46034,0,"Hat.wav",50
Sample,46409,0,"Hat.wav",50
Sample,46409,0,"Hat.wav",50
Sample,46784,0,"Hat.wav",50
Sample,46784,0,"Hat.wav",50
Sample,47159,0,"Hat.wav",50
Sample,47159,0,"Hat.wav",50
Sample,47534,0,"Hat.wav",50
Sample,47534,0,"Hat.wav",50
Sample,47909,0,"Hat.wav",50
Sample,47909,0,"Hat.wav",50
Sample,48284,0,"Hat.wav",50
Sample,48284,0,"Hat.wav",50
Sample,48659,0,"Hat.wav",50
Sample,48659,0,"Hat.wav",50
Sample,49034,0,"Hat.wav",50
Sample,49034,0,"Hat.wav",50
Sample,49409,0,"Hat.wav",50
Sample,49409,0,"Hat.wav",50
Sample,49784,0,"Hat.wav",50
Sample,49784,0,"Hat.wav",50
Sample,50159,0,"Hat.wav",50
Sample,50159,0,"Hat.wav",50
Sample,50534,0,"Hat.wav",50
Sample,50534,0,"Hat.wav",50
Sample,50909,0,"Hat.wav",50
Sample,50909,0,"Hat.wav",50
Sample,51284,0,"Hat.wav",50
Sample,51284,0,"Hat.wav",50
Sample,51659,0,"Hat.wav",50
Sample,51659,0,"Hat.wav",50
Sample,52034,0,"Hat.wav",50
Sample,52034,0,"Hat.wav",50
Sample,52409,0,"Hat.wav",50
Sample,52409,0,"Hat.wav",50
Sample,53159,0,"Snare.wav",100
Sample,53159,0,"Snare.wav",100
Sample,53253,0,"Snare.wav",100
Sample,53253,0,"Snare.wav",100
Sample,56628,0,"Kick.wav",100
Sample,56628,0,"Kick.wav",100
Sample,57050,0,"Snare.wav",100
Sample,57050,0,"Snare.wav",100
Sample,57378,0,"Snare.wav",100
Sample,57378,0,"Snare.wav",100
Sample,57565,0,"Snare.wav",100
Sample,57565,0,"Snare.wav",100
Sample,57659,0,"Cymbal.wav",100
Sample,57659,0,"Cymbal.wav",100
Sample,58034,0,"Kick.wav",100
Sample,58034,0,"Kick.wav",100
Sample,61690,0,"Snare.wav",100
Sample,61690,0,"Snare.wav",100
Sample,62253,0,"Snare.wav",100
Sample,62253,0,"Snare.wav",100
Sample,65909,0,"Kick.wav",100
Sample,65909,0,"Kick.wav",100
Sample,66050,0,"Snare.wav",100
Sample,66050,0,"Snare.wav",100
Sample,66190,0,"Snare.wav",100
Sample,66190,0,"Snare.wav",100
Sample,66284,0,"Cymbal.wav",100
Sample,66284,0,"Cymbal.wav",100
Sample,67409,0,"Kick.wav",100
Sample,67409,0,"Kick.wav",100
Sample,68253,0,"Snare.wav",100
Sample,68253,0,"Snare.wav",100
Sample,68909,0,"Cymbal.wav",100
Sample,68909,0,"Cymbal.wav",100
Sample,70503,0,"Kick.wav",100
Sample,70503,0,"Kick.wav",100
Sample,70690,0,"Snare.wav",100
Sample,70690,0,"Snare.wav",100
Sample,70784,0,"Kick.wav",100
Sample,70784,0,"Kick.wav",100
Sample,70878,0,"Kick.wav",100
Sample,70878,0,"Kick.wav",100
Sample,71159,0,"Snare.wav",100
Sample,71159,0,"Tom.wav",100
Sample,71253,0,"Tom.wav",100
Sample,71253,0,"Snare.wav",100
Sample,73690,0,"Snare.wav",100
Sample,73690,0,"Snare.wav",100
Sample,74253,0,"Snare.wav",100
Sample,74253,0,"Snare.wav",100
Sample,75940,0,"Kick.wav",100
Sample,75940,0,"Tom.wav",100
Sample,76034,0,"Tom.wav",100
Sample,76128,0,"Kick.wav",100
Sample,76128,0,"Kick.wav",100
Sample,77065,0,"Snare.wav",100
Sample,77065,0,"Snare.wav",100
Sample,77159,0,"Kick.wav",100
Sample,77159,0,"Kick.wav",100
Sample,77253,0,"Snare.wav",100
Sample,77253,0,"Snare.wav",100
Sample,78003,0,"Snare.wav",100
Sample,78003,0,"Snare.wav",100
Sample,78284,0,"Kick.wav",100
Sample,78284,0,"Kick.wav",100
Sample,79409,0,"Kick.wav",100
Sample,79409,0,"Kick.wav",100
Sample,79503,0,"Snare.wav",100
Sample,79503,0,"Snare.wav",100
Sample,79784,0,"Kick.wav",100
Sample,79784,0,"Kick.wav",100
Sample,82722,0,"Kick.wav",100
Sample,82722,0,"Kick.wav",100
Sample,82847,0,"Kick.wav",100
Sample,82847,0,"Kick.wav",100
Sample,83097,0,"Kick.wav",100
Sample,83097,0,"Kick.wav",100
Sample,83222,0,"Kick.wav",100
Sample,83222,0,"Kick.wav",100
Sample,83347,0,"Kick.wav",100
Sample,83347,0,"Kick.wav",100
Sample,83628,0,"Snare.wav",100
Sample,83628,0,"Snare.wav",100
Sample,83909,0,"Kick.wav",100
Sample,83909,0,"Kick.wav",100
Sample,84659,0,"Cymbal.wav",100
Sample,84659,0,"Cymbal.wav",100
Sample,85128,0,"Kick.wav",100
Sample,85128,0,"Kick.wav",100
Sample,85409,0,"Kick.wav",100
Sample,85409,0,"Kick.wav",100
Sample,86159,0,"Cymbal.wav",100
Sample,86159,0,"Cymbal.wav",100
Sample,86534,0,"Kick.wav",100
Sample,86534,0,"Kick.wav",100
Sample,87847,0,"Kick.wav",100
Sample,87847,0,"Kick.wav",100
Sample,88034,0,"Kick.wav",100
Sample,88034,0,"Kick.wav",100
Sample,89159,0,"Kick.wav",100
Sample,89159,0,"Kick.wav",100

[TimingPoints]
847,375,4,2,1,25,1,0
59347,-100,4,2,1,25,0,1
83347,-100,4,2,1,25,0,0

[HitObjects]
448,192,847,128,0,1222:0:0:0:0:
192,192,1222,1,0,0:0:0:0:
64,192,1409,128,0,1784:0:0:0:0:
448,192,1784,1,0,0:0:0:0:
320,192,1972,1,0,0:0:0:0:
192,192,2159,128,0,2534:0:0:0:0:
448,192,2534,1,0,0:0:0:0:
64,192,2722,1,0,0:0:0:0:
320,192,2909,128,0,3284:0:0:0:0:
64,192,3284,1,0,0:0:0:0:
192,192,3472,1,0,0:0:0:0:
320,192,3659,1,0,0:0:0:0:
448,192,3847,128,0,4409:0:0:0:0:
64,192,4409,1,0,0:0:0:0:
192,192,4597,1,0,0:0:0:0:
448,192,4784,1,0,0:0:0:0:
320,192,4972,1,0,0:0:0:0:
192,192,5159,128,0,5909:0:0:0:0:
64,192,5909,1,0,0:0:0:0:
192,192,6097,1,0,0:0:0:0:
320,192,6284,1,0,0:0:0:0:
448,192,6472,1,0,0:0:0:0:
192,192,6659,1,0,0:0:0:100:Tom.wav
448,192,6847,5,0,3:3:0:100:Snare.wav
320,192,6847,1,0,0:0:0:0:
64,192,6940,1,0,3:3:0:100:Snare.wav
192,192,6940,1,0,0:0:0:0:
320,192,7128,1,0,0:0:0:100:Tom.wav
192,192,7222,1,0,0:0:0:100:Tom.wav
64,192,7409,1,0,0:0:0:100:Tom.wav
448,192,7597,128,0,7784:0:0:0:100:Tom.wav
320,192,7784,128,0,7972:0:0:0:100:Tom.wav
64,192,7972,1,0,0:0:0:100:Snare.wav
192,192,7972,128,0,8159:0:0:0:0:
64,192,8159,128,0,8347:0:0:0:0:
448,192,8347,1,0,0:0:0:100:Kick.wav
192,192,8628,1,0,0:0:0:100:Kick.wav
320,192,8722,1,0,0:0:0:100:Snare.wav
64,192,8722,1,0,0:0:0:0:
192,192,8909,1,0,0:0:0:100:Kick.wav
448,0,8909,128,0,9284:0:0:0:0:
64,192,9284,1,0,0:0:0:100:Kick.wav
192,192,9472,1,0,0:0:0:100:Snare.wav
320,192,9472,1,0,0:0:0:0:
448,192,9659,1,0,0:0:0:100:Kick.wav
192,192,10034,1,0,0:0:0:100:Kick.wav
320,0,10222,128,0,10597:0:0:0:100:Snare.wav
448,192,10222,1,0,0:0:0:0:
64,192,10409,1,0,0:0:0:100:Kick.wav
192,0,10597,128,0,10972:0:0:0:100:Kick.wav
448,192,10784,1,0,0:0:0:100:Kick.wav
64,0,10972,128,0,11347:0:0:0:100:Snare.wav
320,192,10972,1,0,0:0:0:0:
448,192,11159,1,0,0:0:0:100:Kick.wav
192,192,11347,1,0,0:0:0:100:Kick.wav
448,192,11534,1,0,0:0:0:100:Kick.wav
320,192,11628,1,0,0:0:0:100:Kick.wav
192,192,11722,1,0,0:0:0:100:Snare.wav
64,192,11722,1,0,0:0:0:0:
448,192,11909,1,0,0:0:0:100:Kick.wav
64,192,12284,1,0,0:0:0:100:Kick.wav
320,192,12472,1,0,0:0:0:100:Snare.wav
192,192,12472,1,0,0:0:0:0:
448,0,12659,128,0,13784:0:0:0:100:Kick.wav
320,192,13034,1,0,0:0:0:100:Kick.wav
192,192,13222,1,0,0:0:0:100:Snare.wav
64,192,13222,1,0,0:0:0:0:
320,192,13409,1,0,0:0:0:100:Kick.wav
64,192,13784,1,0,0:0:0:100:Kick.wav
192,192,13972,1,0,0:0:0:100:Snare.wav
448,192,13972,1,0,0:0:0:0:
64,0,14347,128,0,14722:0:0:0:100:Kick.wav
192,192,14534,1,0,0:0:0:0:
320,192,14722,1,0,0:0:0:100:Snare.wav
448,192,14722,1,0,0:0:0:0:
64,192,14909,1,0,0:0:0:100:Kick.wav
192,0,15097,128,0,15472:0:0:0:0:
320,192,15472,1,0,0:0:0:100:Snare.wav
64,192,15472,1,0,0:0:0:0:
448,0,15659,128,0,16222:0:0:0:100:Kick.wav
320,192,16034,1,0,0:0:0:100:Kick.wav
192,192,16222,1,0,0:0:0:100:Snare.wav
64,192,16222,1,0,0:0:0:0:
448,192,16409,1,0,0:0:0:100:Kick.wav
320,192,16503,1,0,0:0:0:100:Snare.wav
192,192,16503,1,0,0:0:0:0:
64,192,16597,128,0,16972:0:0:0:100:Kick.wav
448,192,16972,1,0,0:0:0:100:Snare.wav
320,192,16972,1,0,0:0:0:0:
448,0,17159,128,0,17722:0:0:0:100:Kick.wav
64,192,17159,1,0,0:0:0:100:Cymbal.wav
192,192,17722,1,0,0:0:0:100:Snare.wav
64,192,17722,1,0,0:0:0:0:
320,192,17909,1,0,0:0:0:0:
448,192,18097,1,0,0:0:0:100:Kick.wav
192,192,18284,1,0,0:0:0:100:Kick.wav
64,192,18472,1,0,0:0:0:100:Snare.wav
448,192,18472,1,0,0:0:0:0:
192,0,18659,128,0,19034:0:0:0:100:Kick.wav
320,192,18659,1,0,0:0:0:0:
64,192,19034,1,0,0:0:0:100:Kick.wav
320,192,19222,5,0,0:0:0:100:Snare.wav
448,192,19222,1,0,0:0:0:0:
64,192,19409,1,0,0:0:0:100:Kick.wav
448,192,19409,128,0,20347:0:0:0:0:
320,192,19597,1,0,0:0:0:100:Tom.wav
192,192,19784,1,0,0:0:0:100:Tom.wav
64,192,19972,1,0,0:0:0:100:Tom.wav
320,192,20159,1,0,0:0:0:100:Tom.wav
192,192,20347,1,0,3:3:0:100:Rim.wav
320,192,20722,1,0,3:3:0:100:Rim.wav
64,192,20722,128,0,21097:0:0:0:0:
192,192,21097,1,0,3:3:0:100:Rim.wav
448,192,21097,128,0,21472:0:0:0:0:
64,192,21472,1,0,3:3:0:100:Rim.wav
320,192,21659,1,0,0:0:0:0:
64,192,21847,1,0,3:3:0:100:Rim.wav
192,192,22034,1,0,0:0:0:0:
320,192,22222,1,0,3:3:0:100:Rim.wav
448,192,22409,1,0,0:0:0:0:
192,192,22597,1,0,3:3:0:100:Rim.wav
320,192,22784,1,0,0:0:0:0:
192,192,22972,1,0,3:3:0:100:Rim.wav
64,192,23159,1,0,0:0:0:0:
320,192,23347,1,0,3:3:0:100:Rim.wav
192,192,23722,1,0,3:3:0:100:Rim.wav
448,192,23722,128,0,24097:0:0:0:0:
64,192,24097,1,0,3:3:0:100:Rim.wav
320,192,24097,128,0,24472:0:0:0:0:
192,192,24472,1,0,3:3:0:100:Rim.wav
448,192,24659,1,0,0:0:0:0:
64,192,24847,1,0,3:3:0:100:Rim.wav
64,192,25034,1,0,0:0:0:0:
320,192,25222,1,0,3:3:0:100:Rim.wav
192,192,25409,1,0,0:0:0:0:
448,192,25597,1,0,3:3:0:100:Rim.wav
448,192,25784,1,0,1:1:0:25:Hat.wav
64,192,25972,1,0,3:3:0:100:Rim.wav
320,192,26159,1,0,1:1:0:25:Hat.wav
192,192,26347,1,0,1:1:0:25:Hat.wav
64,192,26722,1,0,3:3:0:100:Rim.wav
320,192,27097,1,0,3:3:0:100:Rim.wav
320,192,27284,1,0,0:0:0:0:
64,192,27472,1,0,3:3:0:100:Rim.wav
448,192,27659,1,0,0:0:0:0:
64,192,27847,1,0,3:3:0:100:Rim.wav
64,192,28034,1,0,0:0:0:0:
320,192,28222,1,0,3:3:0:100:Rim.wav
64,192,28409,1,0,0:0:0:0:
448,192,28597,1,0,3:3:0:100:Rim.wav
448,192,28784,1,0,0:0:0:0:
192,192,28972,1,0,3:3:0:100:Rim.wav
320,192,29159,1,0,0:0:0:0:
64,192,29347,1,0,3:3:0:100:Rim.wav
64,192,29534,1,0,0:0:0:0:
448,192,29722,1,0,3:3:0:100:Rim.wav
320,192,29909,1,0,0:0:0:0:
192,192,30097,1,0,3:3:0:100:Rim.wav
192,192,30284,1,0,0:0:0:0:
64,192,30472,1,0,3:3:0:100:Rim.wav
320,192,30659,1,0,0:0:0:0:
448,192,30847,1,0,3:3:0:100:Rim.wav
448,192,31034,1,0,0:0:0:0:
320,192,31222,1,0,3:3:0:100:Rim.wav
64,192,31409,1,0,0:0:0:0:
192,192,31597,1,0,3:3:0:100:Rim.wav
192,192,31784,1,0,1:0:0:25:Hat.wav
448,192,31972,1,0,3:3:0:100:Rim.wav
64,192,32065,1,0,0:0:0:0:
192,192,32159,1,0,1:0:0:25:Hat.wav
320,192,32253,1,0,0:0:0:0:
448,192,32347,1,0,3:3:0:100:Rim.wav
448,192,32534,1,0,0:0:0:0:
320,192,32722,1,0,3:3:0:100:Rim.wav
64,192,32909,1,0,0:0:0:0:
192,192,33097,1,0,3:3:0:100:Rim.wav
192,192,33284,1,0,0:0:0:0:
320,192,33472,1,0,3:3:0:100:Rim.wav
448,192,33659,1,0,0:0:0:0:
64,192,33847,1,0,3:3:0:100:Rim.wav
64,192,34034,1,0,0:0:0:0:
192,192,34222,1,0,3:3:0:100:Rim.wav
448,192,34409,1,0,0:0:0:0:
320,192,34597,1,0,3:3:0:100:Rim.wav
320,192,34784,1,0,0:0:0:0:
192,192,34972,1,0,3:3:0:100:Rim.wav
64,192,35159,1,0,0:0:0:0:
448,192,35347,1,0,3:3:0:100:Rim.wav
448,192,35534,1,0,0:0:0:0:
64,192,35722,1,0,3:3:0:100:Rim.wav
192,192,35909,1,0,0:0:0:0:
320,192,36097,1,0,3:3:0:100:Rim.wav
320,192,36284,1,0,0:0:0:0:
448,192,36472,1,0,3:3:0:100:Rim.wav
192,192,36659,1,0,0:0:0:0:
64,192,36847,1,0,3:3:0:100:Rim.wav
64,192,37034,1,0,0:0:0:0:
320,192,37222,1,0,3:3:0:100:Rim.wav
448,192,37409,1,0,0:0:0:0:
192,192,37597,1,0,3:3:0:100:Rim.wav
192,192,37784,1,0,1:0:0:25:Hat.wav
320,192,37972,1,0,3:3:0:100:Rim.wav
448,192,38159,1,0,1:0:0:25:Hat.wav
192,192,38253,1,0,1:0:0:25:Hat.wav
320,192,38347,1,0,1:0:0:25:Hat.wav
320,192,38534,1,0,0:0:0:0:
64,192,38722,1,0,3:3:0:100:Rim.wav
192,192,38909,1,0,0:0:0:0:
448,192,39097,1,0,3:3:0:100:Rim.wav
448,192,39284,1,0,0:0:0:0:
192,192,39472,1,0,3:3:0:100:Rim.wav
320,192,39659,1,0,0:0:0:0:
64,192,39847,1,0,3:3:0:100:Rim.wav
64,192,40034,1,0,0:0:0:0:
448,192,40222,1,0,3:3:0:100:Rim.wav
320,192,40409,1,0,0:0:0:0:
192,192,40597,1,0,3:3:0:100:Rim.wav
192,192,40784,1,0,0:0:0:0:
448,192,40972,1,0,3:3:0:100:Rim.wav
320,192,41159,1,0,0:0:0:0:
64,192,41347,1,0,3:3:0:100:Rim.wav
64,192,41534,1,0,0:0:0:0:
320,192,41722,1,0,3:3:0:100:Rim.wav
448,192,41909,1,0,0:0:0:0:
192,192,42097,1,0,3:3:0:100:Rim.wav
192,192,42284,1,0,0:0:0:0:
448,192,42472,1,0,3:3:0:100:Rim.wav
64,192,42659,1,0,0:0:0:0:
320,192,42847,1,0,3:3:0:100:Rim.wav
320,192,43034,1,0,0:0:0:0:
192,192,43222,1,0,3:3:0:100:Rim.wav
320,192,43409,1,0,0:0:0:0:
448,192,43597,1,0,3:3:0:100:Rim.wav
64,192,43784,1,0,0:0:0:0:
448,192,43972,1,0,0:0:0:100:Snare.wav
192,192,43972,1,0,0:0:0:0:
320,192,44159,1,0,1:0:0:100:Kick.wav
64,192,44347,1,0,1:0:0:100:Kick.wav
448,192,44347,1,0,0:0:0:100:Cymbal.wav
192,192,44722,1,0,1:0:0:100:Kick.wav
192,192,45097,1,0,1:0:0:100:Kick.wav
320,192,45472,1,0,1:0:0:100:Kick.wav
320,192,45847,1,0,1:0:0:100:Kick.wav
320,192,46222,1,0,1:0:0:100:Kick.wav
320,192,46597,1,0,1:0:0:100:Kick.wav
320,192,46972,1,0,1:0:0:100:Kick.wav
448,192,47347,1,0,1:0:0:100:Kick.wav
448,192,47722,1,0,1:0:0:100:Kick.wav
448,192,48097,5,0,1:0:0:100:Kick.wav
448,192,48472,1,0,1:0:0:100:Kick.wav
64,192,48847,1,0,1:0:0:100:Kick.wav
448,0,49222,128,0,49597:1:0:0:100:Kick.wav
320,192,49222,1,0,0:0:0:0:
192,192,49597,1,0,1:0:0:100:Kick.wav
64,192,49597,128,0,49972:0:0:0:0:
448,192,49972,1,0,1:0:0:100:Kick.wav
192,192,49972,128,0,50347:0:0:0:0:
64,192,50347,1,0,1:0:0:100:Kick.wav
320,192,50347,128,0,50722:0:0:0:0:
64,192,50722,1,0,1:0:0:100:Kick.wav
192,192,51097,1,0,1:0:0:100:Kick.wav
192,192,51472,1,0,1:0:0:100:Kick.wav
320,192,51847,1,0,1:0:0:100:Kick.wav
320,192,52222,1,0,1:0:0:100:Kick.wav
448,192,52597,1,0,1:0:0:100:Kick.wav
192,192,52690,1,0,0:0:0:100:Snare.wav
320,192,52690,1,0,0:0:0:0:
64,192,52878,1,0,1:0:0:100:Kick.wav
192,192,52972,1,0,0:0:0:100:Snare.wav
320,192,52972,1,0,0:0:0:0:
320,192,53159,1,0,0:0:0:100:Tom.wav
192,192,53253,1,0,0:0:0:100:Tom.wav
64,192,53347,1,0,0:0:0:100:Kick.wav
448,192,53347,1,0,0:0:0:100:Cymbal.wav
192,192,53534,1,0,0:0:0:0:
448,192,53722,1,0,0:0:0:100:Snare.wav
320,192,53722,1,0,0:0:0:100:Kick.wav
192,192,54097,1,0,0:0:0:100:Kick.wav
320,192,54284,1,0,0:0:0:0:
64,192,54472,1,0,0:0:0:100:Snare.wav
448,192,54472,1,0,0:0:0:100:Kick.wav
320,192,54847,1,0,0:0:0:100:Kick.wav
192,192,55034,1,0,0:0:0:0:
64,192,55222,1,0,0:0:0:100:Snare.wav
448,192,55222,1,0,0:0:0:100:Kick.wav
192,192,55503,1,0,0:0:0:100:Snare.wav
320,192,55597,1,0,0:0:0:100:Kick.wav
320,192,55784,1,0,0:0:0:0:
448,192,55972,1,0,0:0:0:100:Kick.wav
64,192,55972,1,0,0:0:0:100:Snare.wav
320,192,56347,1,0,0:0:0:100:Kick.wav
448,192,56440,1,0,0:0:0:100:Snare.wav
192,192,56534,1,0,0:0:0:100:Kick.wav
64,192,56722,1,0,0:0:0:100:Snare.wav
320,192,56722,1,0,0:0:0:0:
448,192,56909,1,0,0:0:0:100:Kick.wav
320,192,57003,1,0,0:0:0:100:Snare.wav
192,192,57097,1,0,0:0:0:100:Snare.wav
64,192,57190,1,0,0:0:0:100:Snare.wav
448,192,57284,1,0,0:0:0:100:Snare.wav
192,192,57472,1,0,0:0:0:100:Snare.wav
448,0,57659,128,0,58034:0:0:0:100:Kick.wav
64,192,57659,1,0,0:0:0:0:
64,192,58034,1,0,0:0:0:100:Cymbal.wav
320,192,58034,1,0,0:0:0:0:
320,192,58222,1,0,0:0:0:100:Cymbal.wav
64,192,58222,1,0,0:0:0:100:Kick.wav
192,192,59347,128,0,59722:0:0:0:100:Kick.wav
320,192,59347,1,0,0:0:0:100:Cymbal.wav
448,192,59722,1,0,0:0:0:100:Snare.wav
64,192,59722,1,0,0:0:0:0:
448,192,60097,1,0,0:0:0:100:Kick.wav
448,192,60284,1,0,0:0:0:100:Kick.wav
320,192,60472,1,0,0:0:0:100:Snare.wav
64,192,60472,1,0,0:0:0:0:
192,192,60659,1,0,0:0:0:100:Kick.wav
320,192,61034,1,0,0:0:0:100:Kick.wav
192,192,61128,1,0,0:0:0:100:Kick.wav
448,192,61222,1,0,0:0:0:100:Snare.wav
64,192,61222,1,0,0:0:0:0:
320,192,61409,1,0,0:0:0:100:Kick.wav
64,192,61597,1,0,0:0:0:100:Kick.wav
448,192,61784,1,0,0:0:0:100:Kick.wav
192,192,61972,1,0,0:0:0:100:Snare.wav
64,192,61972,1,0,0:0:0:0:
320,192,62159,1,0,0:0:0:100:Kick.wav
448,192,62347,1,0,0:0:0:100:Kick.wav
192,192,62347,1,0,0:0:0:0:
64,192,62534,1,0,0:0:0:0:
320,192,62722,1,0,0:0:0:100:Snare.wav
64,192,63097,1,0,0:0:0:100:Kick.wav
448,192,63097,1,0,0:0:0:0:
192,192,63284,1,0,0:0:0:100:Kick.wav
448,192,63472,1,0,0:0:0:100:Snare.wav
64,192,63659,1,0,0:0:0:100:Cymbal.wav
192,192,63659,1,0,0:0:0:100:Kick.wav
64,192,64034,1,0,0:0:0:100:Kick.wav
192,192,64222,1,0,0:0:0:100:Snare.wav
448,192,64222,1,0,0:0:0:0:
192,192,64597,1,0,0:0:0:100:Kick.wav
320,192,64690,1,0,0:0:0:100:Kick.wav
64,192,64784,1,0,0:0:0:100:Kick.wav
448,192,64972,1,0,0:0:0:100:Snare.wav
448,192,65159,1,0,0:0:0:0:
320,192,65347,1,0,0:0:0:100:Kick.wav
64,192,65440,1,0,0:0:0:0:
448,192,65534,1,0,0:0:0:0:
192,192,65628,1,0,0:0:0:100:Kick.wav
320,192,65722,1,0,0:0:0:100:Snare.wav
448,192,65722,1,0,0:0:0:0:
64,192,65909,1,0,0:0:0:100:Snare.wav
192,192,66003,1,0,0:0:0:100:Snare.wav
448,192,66097,1,0,0:0:0:100:Snare.wav
320,192,66097,1,0,0:0:0:0:
192,192,66284,1,0,0:0:0:100:Kick.wav
64,192,66472,1,0,0:0:0:100:Kick.wav
448,192,66659,1,0,0:0:0:100:Kick.wav
192,192,66659,1,0,0:0:0:100:Cymbal.wav
192,192,67034,1,0,0:0:0:100:Kick.wav
320,192,67222,1,0,0:0:0:100:Snare.wav
64,192,67222,1,0,0:0:0:0:
192,192,67503,1,0,0:0:0:100:Snare.wav
448,192,67503,1,0,0:0:0:0:
64,192,67597,1,0,0:0:0:100:Kick.wav
320,192,67784,1,0,0:0:0:100:Kick.wav
64,192,67972,1,0,0:0:0:100:Snare.wav
448,192,67972,1,0,0:0:0:0:
192,192,68347,1,0,0:0:0:100:Kick.wav
320,192,68347,1,0,0:0:0:0:
448,192,68534,1,0,0:0:0:100:Kick.wav
320,192,68628,1,0,0:0:0:100:Snare.wav
192,192,68722,1,0,0:0:0:100:Snare.wav
64,192,68722,1,0,0:0:0:0:
448,192,68909,1,0,0:0:0:100:Kick.wav
320,192,69284,1,0,0:0:0:100:Kick.wav
192,192,69472,1,0,0:0:0:100:Snare.wav
64,192,69472,1,0,0:0:0:0:
320,192,69659,1,0,0:0:0:100:Kick.wav
448,192,69659,1,0,0:0:0:100:Cymbal.wav
320,192,70034,1,0,0:0:0:100:Kick.wav
192,192,70222,1,0,0:0:0:100:Snare.wav
448,192,70222,1,0,0:0:0:0:
64,192,70409,1,0,0:0:0:100:Kick.wav
320,192,70597,128,0,70972:0:0:0:100:Snare.wav
448,192,70597,1,0,0:0:0:0:
192,192,70972,128,0,71347:0:0:0:100:Snare.wav
64,192,70972,1,0,0:0:0:100:Cymbal.wav
64,192,71347,1,0,0:0:0:100:Kick.wav
448,192,71347,1,0,0:0:0:100:Cymbal.wav
64,192,71722,1,0,0:0:0:100:Snare.wav
320,192,71722,1,0,0:0:0:0:
192,192,72097,1,0,0:0:0:100:Kick.wav
192,192,72284,1,0,0:0:0:100:Kick.wav
320,192,72472,1,0,0:0:0:100:Snare.wav
448,192,72472,1,0,0:0:0:0:
64,192,72659,1,0,0:0:0:100:Kick.wav
320,192,73034,1,0,0:0:0:100:Kick.wav
448,192,73128,1,0,0:0:0:100:Kick.wav
192,192,73222,1,0,0:0:0:100:Snare.wav
64,192,73222,1,0,0:0:0:0:
320,192,73409,1,0,0:0:0:100:Kick.wav
192,192,73597,1,0,0:0:0:100:Kick.wav
64,192,73784,1,0,0:0:0:100:Kick.wav
192,192,73972,1,0,0:0:0:100:Snare.wav
448,192,73972,1,0,0:0:0:0:
64,192,74347,1,0,0:0:0:100:Kick.wav
448,192,74347,1,0,0:0:0:0:
192,192,74722,1,0,0:0:0:100:Snare.wav
320,192,74722,1,0,0:0:0:0:
448,192,74909,1,0,0:0:0:100:Kick.wav
192,192,75097,1,0,0:0:0:100:Kick.wav
64,192,75190,1,0,0:0:0:100:Kick.wav
448,192,75284,1,0,0:0:0:100:Snare.wav
320,192,75284,1,0,0:0:0:0:
192,192,75472,1,0,0:0:0:100:Snare.wav
64,192,75472,1,0,0:0:0:0:
448,192,75659,1,0,0:0:0:100:Cymbal.wav
64,192,75659,1,0,0:0:0:100:Kick.wav
320,192,76034,1,0,0:0:0:100:Kick.wav
64,192,76222,1,0,0:0:0:100:Snare.wav
192,192,76222,1,0,0:0:0:0:
320,192,76409,1,0,0:0:0:100:Kick.wav
448,192,76409,1,0,0:0:0:100:Cymbal.wav
64,192,76784,1,0,0:0:0:100:Kick.wav
192,192,76878,1,0,0:0:0:100:Kick.wav
320,192,76972,1,0,0:0:0:100:Snare.wav
448,192,76972,1,0,0:0:0:0:
64,192,77065,1,0,0:0:0:100:Snare.wav
192,192,77159,1,0,0:0:0:100:Snare.wav
320,192,77253,1,0,0:0:0:100:Snare.wav
448,192,77253,1,0,0:0:0:0:
192,192,77347,1,0,0:0:0:100:Cymbal.wav
64,192,77347,1,0,0:0:0:0:
64,192,77722,1,0,0:0:0:100:Snare.wav
448,192,77722,1,0,0:0:0:0:
320,192,78097,1,0,0:0:0:100:Kick.wav
192,192,78472,1,0,0:0:0:100:Snare.wav
64,192,78659,1,0,0:0:0:100:Kick.wav
448,192,78659,1,0,0:0:0:100:Cymbal.wav
320,192,79034,1,0,0:0:0:100:Kick.wav
64,192,79222,128,0,79597:0:0:0:100:Snare.wav
448,192,79222,1,0,0:0:0:0:
192,192,79597,128,0,79972:0:0:0:100:Kick.wav
320,192,79597,1,0,0:0:0:0:
320,192,79972,128,0,80347:0:0:0:100:Snare.wav
448,192,79972,1,0,0:0:0:0:
448,192,80347,128,0,80722:0:0:0:100:Kick.wav
64,192,80347,1,0,0:0:0:0:
64,192,80722,1,0,0:0:0:100:Snare.wav
192,192,80722,1,0,0:0:0:0:
320,192,81003,1,0,0:0:0:100:Snare.wav
192,192,81097,1,0,0:0:0:100:Kick.wav
64,192,81284,1,0,0:0:0:100:Kick.wav
192,192,81472,1,0,0:0:0:100:Snare.wav
448,192,81472,1,0,0:0:0:0:
64,192,81659,1,0,0:0:0:100:Kick.wav
320,192,81659,1,0,0:0:0:0:
320,192,81940,1,0,0:0:0:100:Snare.wav
192,192,82034,1,0,0:0:0:100:Kick.wav
64,192,82034,1,0,0:0:0:0:
320,192,82222,1,0,0:0:0:100:Snare.wav
448,192,82222,1,0,0:0:0:0:
192,192,82409,1,0,0:0:0:100:Tom.wav
64,192,82503,1,0,0:0:0:100:Tom.wav
448,192,82597,128,0,82784:0:0:0:100:Kick.wav
320,192,82784,128,0,82972:0:0:0:0:
64,192,82972,128,0,83159:0:0:0:100:Kick.wav
192,192,83159,128,0,83347:0:0:0:0:
448,192,83347,128,0,83722:0:0:0:100:Cymbal.wav
64,192,83722,128,0,83909:0:0:0:100:Snare.wav
320,0,83909,128,0,84284:0:0:0:100:Cymbal.wav
192,192,84284,1,0,0:0:0:100:Kick.wav
448,192,84472,1,0,0:0:0:100:Snare.wav
64,0,84659,128,0,85034:0:0:0:100:Kick.wav
192,192,85034,1,0,0:0:0:100:Kick.wav
320,192,85222,1,0,0:0:0:100:Snare.wav
448,0,85409,128,0,85784:0:0:0:100:Cymbal.wav
64,192,85784,1,0,0:0:0:100:Kick.wav
320,192,85972,1,0,0:0:0:100:Snare.wav
192,0,86159,128,0,86722:0:0:0:100:Kick.wav
320,192,86722,1,0,0:0:0:100:Snare.wav
192,0,86909,128,0,87097:0:0:0:0:
448,0,87097,128,0,87284:0:0:0:100:Kick.wav
64,0,87284,128,0,87472:0:0:0:100:Kick.wav
320,0,87472,128,0,87659:0:0:0:100:Snare.wav
64,0,87659,128,0,88222:0:0:0:0:
448,192,88222,1,0,0:0:0:100:Snare.wav
320,192,88222,1,0,0:0:0:0:
192,192,88409,1,0,0:0:0:100:Snare.wav
64,192,88503,1,0,0:0:0:100:Snare.wav
448,192,88597,1,0,0:0:0:100:Snare.wav
320,192,88690,1,0,0:0:0:100:Snare.wav
192,192,88784,1,0,0:0:0:100:Tom.wav
64,192,88878,1,0,0:0:0:100:Tom.wav
192,192,88972,1,0,0:0:0:100:Tom.wav
320,192,89065,1,0,0:0:0:100:Tom.wav
448,0,89159,128,0,95347:0:0:0:100:Cymbal.wav
