osu file format v14

[General]
AudioFilename: audio.mp3
AudioLeadIn: 0
PreviewTime: 58506
Countdown: 0
SampleSet: Soft
StackLeniency: 0.7
Mode: 3
LetterboxInBreaks: 0
SpecialStyle: 0
WidescreenStoryboard: 0

[Editor]
DistanceSpacing: 1
BeatDivisor: 8
GridSize: 4
TimelineZoom: 2.200001

[Metadata]
Title:Philosophyz ~TV Animation Ver.~ (TV Size)
TitleUnicode:Philosophyz ~TV Animation Ver.~ (TV Size)
Artist:Mizutani Runa (NanosizeMir)
ArtistUnicode:水谷瑠奈(NanosizeMir)
Creator:Aikawa
Version:MX
Source:Rewrite
Tags:- Ly0572 - Rewrite opening visual novel tv size mintjam key visual art's 折戸伸治 orito shinji 都乃河勇人 tonokawa yuuto
BeatmapID:1369401
BeatmapSetID:646298

[Difficulty]
HPDrainRate:8
CircleSize:4
OverallDifficulty:8
ApproachRate:5
SliderMultiplier:1.4
SliderTickRate:1

[Events]
//Background and Video events
Video,0,"BG video.mp4"
0,0,"bg.jpg",0,0
//Break Periods
//Storyboard Layer 0 (Background)
//Storyboard Layer 1 (Fail)
//Storyboard Layer 2 (Pass)
//Storyboard Layer 3 (Foreground)
//Storyboard Layer 4 (Overlay)
//Storyboard Sound Samples

[TimingPoints]
847,375,4,2,1,25,1,0
59347,-100,4,2,1,25,0,1
82597,-66.6666666666667,4,2,1,25,0,1
82659,-133.333333333333,4,2,1,25,0,1
82722,-66.6666666666667,4,2,1,25,0,1
82784,-133.333333333333,4,2,1,25,0,1
82847,-66.6666666666667,4,2,1,25,0,1
82909,-133.333333333333,4,2,1,25,0,1
82972,-66.6666666666667,4,2,1,25,0,1
83034,-133.333333333333,4,2,1,25,0,1
83097,-66.6666666666667,4,2,1,25,0,1
83159,-133.333333333333,4,2,1,25,0,1
83222,-66.6666666666667,4,2,1,25,0,1
83284,-100,4,2,1,25,0,1
83347,-100,4,2,1,25,0,0

[HitObjects]
448,192,120,128,0,214:0:0:0:0:
320,192,214,128,0,307:0:0:0:0:
192,192,307,128,0,401:0:0:0:0:
64,192,401,128,0,495:0:0:0:0:
448,192,495,128,0,589:0:0:0:0:
320,192,589,128,0,682:0:0:0:0:
192,192,682,128,0,776:0:0:0:0:
64,192,776,128,0,847:0:0:0:0:
448,192,847,128,0,1222:0:0:0:0:
320,192,847,1,0,0:0:0:0:
192,192,1222,128,0,1409:0:0:0:0:
320,192,1409,128,0,1784:0:0:0:0:
64,192,1409,1,0,0:0:0:0:
64,192,1784,128,0,1972:0:0:0:0:
192,192,1972,128,0,2159:0:0:0:0:
448,192,2159,128,0,2534:0:0:0:0:
320,192,2159,1,0,0:0:0:0:
192,192,2534,128,0,2722:0:0:0:0:
64,192,2722,128,0,2909:0:0:0:0:
320,192,2909,128,0,3284:0:0:0:0:
448,192,2909,1,0,0:0:0:0:
64,192,3284,128,0,3472:0:0:0:0:
192,192,3472,128,0,3659:0:0:0:0:
320,192,3659,128,0,3847:0:0:0:0:
448,192,3847,128,0,4409:0:0:0:0:
64,192,3847,1,0,0:0:0:0:
64,192,4409,128,0,4503:0:0:0:0:
192,192,4503,128,0,4597:0:0:0:0:
320,192,4597,128,0,4784:0:0:0:0:
64,192,4784,128,0,4972:0:0:0:0:
448,192,4972,128,0,5159:0:0:0:0:
192,192,5159,128,0,5722:0:0:0:0:
64,192,5159,1,0,0:0:0:0:
320,192,5815,1,0,0:0:0:0:
448,192,5909,128,0,6097:0:0:0:0:
64,192,6097,128,0,6284:0:0:0:0:
320,192,6284,128,0,6472:0:0:0:0:
192,192,6472,128,0,6659:0:0:0:0:
448,192,6659,1,0,0:0:0:100:Tom.wav
64,192,6659,128,0,6847:0:0:0:0:
192,192,6753,1,0,0:0:0:100:Tom.wav
320,192,6847,1,0,3:3:0:100:Snare.wav
448,192,6847,1,0,0:0:0:0:
192,192,6940,1,0,3:3:0:100:Snare.wav
64,192,6940,1,0,0:0:0:0:
320,192,7128,1,0,0:0:0:100:Tom.wav
64,192,7128,1,0,0:0:0:0:
192,192,7222,1,0,0:0:0:100:Tom.wav
448,192,7222,1,0,0:0:0:0:
192,192,7409,1,0,0:0:0:0:
320,192,7409,1,0,0:0:0:100:Tom.wav
64,192,7503,1,0,0:0:0:100:Tom.wav
448,192,7597,1,0,0:0:0:100:Tom.wav
320,192,7597,1,0,0:0:0:0:
192,192,7690,1,0,0:0:0:100:Tom.wav
64,192,7784,1,0,0:0:0:100:Tom.wav
320,192,7784,1,0,0:0:0:0:
448,192,7878,1,0,0:0:0:100:Tom.wav
320,192,7972,1,0,0:0:0:100:Snare.wav
64,192,7972,1,0,0:0:0:0:
192,192,7972,1,0,0:0:0:0:
320,192,8159,1,0,0:0:0:0:
448,192,8253,1,0,0:0:0:0:
192,192,8347,1,0,0:0:0:100:Kick.wav
64,192,8347,128,0,8909:0:0:0:0:
448,192,8628,1,0,0:0:0:100:Kick.wav
192,192,8722,1,0,0:0:0:100:Snare.wav
320,192,8722,1,0,0:0:0:0:
320,192,8909,1,0,0:0:0:100:Kick.wav
448,192,8909,128,0,9284:0:0:0:0:
192,192,9097,128,0,9472:0:0:0:0:
320,192,9284,1,0,0:0:0:100:Kick.wav
64,192,9472,128,0,10222:0:0:0:100:Snare.wav
448,192,9472,1,0,0:0:0:0:
192,192,9659,1,0,0:0:0:100:Kick.wav
320,192,9847,1,0,0:0:0:0:
448,192,10034,1,0,0:0:0:100:Kick.wav
448,192,10222,1,0,0:0:0:100:Snare.wav
320,192,10222,128,0,10597:0:0:0:0:
192,192,10409,1,0,0:0:0:100:Kick.wav
448,192,10597,128,0,10972:0:0:0:100:Kick.wav
64,192,10597,1,0,0:0:0:0:
192,192,10690,1,0,0:0:0:100:Kick.wav
64,192,10784,1,0,0:0:0:100:Kick.wav
192,192,10972,128,0,11253:0:0:0:100:Snare.wav
320,192,10972,1,0,0:0:0:0:
64,192,10972,1,0,0:0:0:0:
448,192,11159,1,0,0:0:0:100:Kick.wav
64,192,11253,1,0,0:0:0:100:Snare.wav
320,192,11253,1,0,0:0:0:0:
448,192,11347,1,0,0:0:0:100:Kick.wav
192,192,11347,128,0,11909:0:0:0:0:
320,192,11534,1,0,0:0:0:100:Kick.wav
64,192,11628,1,0,0:0:0:100:Kick.wav
448,192,11722,1,0,0:0:0:100:Snare.wav
320,192,11722,1,0,0:0:0:0:
448,192,11909,1,0,0:0:0:100:Kick.wav
64,192,11909,128,0,12472:0:0:0:0:
320,192,12097,1,0,0:0:0:0:
192,192,12284,1,0,0:0:0:100:Kick.wav
192,192,12472,128,0,12659:0:0:0:100:Snare.wav
320,192,12472,1,0,0:0:0:0:
448,192,12472,1,0,0:0:0:0:
448,192,12659,128,0,13784:0:0:0:100:Kick.wav
64,192,12659,1,0,0:0:0:0:
320,192,13034,1,0,0:0:0:100:Kick.wav
192,192,13222,1,0,0:0:0:100:Snare.wav
64,192,13222,1,0,0:0:0:0:
320,192,13409,1,0,0:0:0:100:Kick.wav
64,192,13597,1,0,0:0:0:100:Kick.wav
320,192,13690,1,0,0:0:0:100:Snare.wav
192,192,13690,1,0,0:0:0:0:
64,192,13784,1,0,0:0:0:100:Kick.wav
320,192,13878,1,0,0:0:0:100:Kick.wav
448,192,13878,1,0,0:0:0:0:
64,192,13972,1,0,0:0:0:100:Snare.wav
192,192,13972,1,0,0:0:0:0:
64,192,14159,1,0,0:0:0:0:
448,192,14159,1,0,0:0:0:100:Kick.wav
320,192,14253,1,0,0:0:0:100:Kick.wav
192,192,14253,1,0,0:0:0:0:
64,192,14347,128,0,14909:0:0:0:100:Kick.wav
448,192,14347,1,0,0:0:0:0:
320,192,14534,1,0,0:0:0:0:
192,192,14628,1,0,0:0:0:100:Kick.wav
448,192,14722,1,0,0:0:0:100:Snare.wav
320,192,14722,1,0,0:0:0:0:
320,192,14909,128,0,15003:0:0:0:100:Kick.wav
448,192,14909,1,0,0:0:0:0:
192,192,15097,1,0,0:0:0:0:
320,192,15097,128,0,15472:0:0:0:0:
64,192,15284,1,0,0:0:0:100:Kick.wav
192,192,15472,1,0,0:0:0:100:Snare.wav
448,192,15472,1,0,0:0:0:0:
192,192,15659,128,0,16222:0:0:0:100:Kick.wav
64,192,15659,1,0,0:0:0:0:
448,192,16034,1,0,0:0:0:100:Kick.wav
320,192,16222,1,0,0:0:0:0:
448,192,16222,128,0,16409:0:0:0:100:Snare.wav
64,192,16222,1,0,0:0:0:0:
64,192,16409,1,0,0:0:0:100:Kick.wav
192,192,16409,1,0,0:0:0:0:
448,192,16503,1,0,0:0:0:100:Snare.wav
320,192,16503,1,0,0:0:0:0:
64,192,16597,128,0,16972:0:0:0:100:Kick.wav
192,192,16597,1,0,0:0:0:0:
448,192,16784,1,0,0:0:0:100:Kick.wav
320,192,16972,128,0,17159:0:0:0:100:Snare.wav
192,192,16972,1,0,0:0:0:0:
448,192,17159,128,0,18097:0:0:0:100:Kick.wav
64,192,17159,1,0,0:0:0:100:Cymbal.wav
192,192,17159,1,0,0:0:0:0:
320,192,17534,1,0,0:0:0:0:
64,192,17722,1,0,0:0:0:100:Snare.wav
192,192,17722,1,0,0:0:0:0:
320,192,17909,1,0,0:0:0:100:Kick.wav
192,192,18003,1,0,0:0:0:0:
64,192,18097,1,0,0:0:0:100:Kick.wav
320,192,18097,1,0,0:0:0:0:
320,192,18284,128,0,18472:0:0:0:100:Kick.wav
192,192,18284,1,0,0:0:0:0:
448,192,18472,128,0,18659:0:0:0:100:Snare.wav
192,192,18472,1,0,0:0:0:0:
64,192,18472,1,0,0:0:0:0:
64,192,18659,128,0,19034:0:0:0:100:Kick.wav
192,192,18659,1,0,0:0:0:100:Cymbal.wav
320,192,18659,1,0,0:0:0:0:
192,192,19034,128,0,19222:0:0:0:100:Kick.wav
448,192,19034,1,0,0:0:0:0:
448,192,19222,128,0,19315:0:0:0:100:Snare.wav
64,192,19222,1,0,0:0:0:0:
320,192,19222,1,0,0:0:0:0:
192,192,19409,1,0,0:0:0:100:Kick.wav
448,192,19409,128,0,20347:0:0:0:0:
64,192,19597,1,0,0:0:0:100:Tom.wav
192,192,19690,1,0,0:0:0:100:Tom.wav
320,192,19784,1,0,0:0:0:100:Tom.wav
64,192,19878,1,0,0:0:0:100:Tom.wav
192,192,19972,1,0,0:0:0:0:
320,192,19972,1,0,0:0:0:100:Tom.wav
64,192,20065,1,0,0:0:0:100:Tom.wav
192,192,20159,1,0,0:0:0:100:Tom.wav
320,192,20253,1,0,0:0:0:100:Tom.wav
64,192,20347,128,0,20722:0:0:0:0:
192,192,20347,1,0,3:3:0:100:Rim.wav
448,192,20722,1,0,3:3:0:100:Rim.wav
320,192,20722,1,0,0:0:0:0:
192,192,20909,1,0,0:0:0:0:
64,192,21097,1,0,3:3:0:100:Rim.wav
448,192,21097,1,0,0:0:0:0:
320,192,21284,1,0,0:0:0:0:
64,192,21472,1,0,3:3:0:100:Rim.wav
192,192,21472,1,0,0:0:0:0:
320,192,21659,1,0,0:0:0:0:
64,192,21847,1,0,3:3:0:100:Rim.wav
448,192,21847,1,0,0:0:0:0:
64,192,22034,1,0,0:0:0:0:
192,192,22222,1,0,3:3:0:100:Rim.wav
320,192,22222,1,0,0:0:0:0:
320,192,22409,128,0,22597:0:0:0:0:
192,192,22597,128,0,22784:3:3:0:100:Rim.wav
448,192,22597,1,0,0:0:0:0:
64,192,22784,128,0,23159:0:0:0:0:
448,192,22972,1,0,3:3:0:100:Rim.wav
192,192,22972,1,0,0:0:0:0:
320,192,23159,1,0,0:0:0:0:
192,192,23253,1,0,0:0:0:0:
320,192,23300,1,0,0:0:0:0:
448,192,23347,128,0,23722:0:0:0:100:Rim.wav
64,192,23347,1,0,0:0:0:0:
320,192,23722,1,0,3:3:0:100:Rim.wav
64,192,23722,1,0,0:0:0:0:
448,192,23909,1,0,0:0:0:0:
192,192,24097,1,0,3:3:0:100:Rim.wav
320,192,24097,1,0,0:0:0:0:
64,192,24284,1,0,0:0:0:0:
448,192,24472,1,0,3:3:0:100:Rim.wav
192,192,24472,1,0,0:0:0:0:
320,192,24659,1,0,0:0:0:0:
448,192,24847,1,0,3:3:0:100:Rim.wav
64,192,24847,1,0,0:0:0:0:
192,192,25034,1,0,0:0:0:0:
320,192,25222,1,0,3:3:0:100:Rim.wav
448,192,25222,1,0,0:0:0:0:
64,192,25409,128,0,25597:0:0:0:0:
192,192,25597,128,0,25784:3:3:0:100:Rim.wav
320,192,25597,1,0,0:0:0:0:
320,192,25784,128,0,26159:1:1:0:25:Hat.wav
448,192,25784,1,0,0:0:0:0:
192,192,25972,1,0,3:3:0:100:Rim.wav
64,192,25972,1,0,0:0:0:0:
448,192,26159,1,0,1:1:0:25:Hat.wav
448,192,26253,1,0,1:1:0:25:Hat.wav
320,192,26300,1,0,1:1:0:25:Hat.wav
64,192,26347,128,0,26722:3:3:0:100:Rim.wav
192,192,26347,1,0,0:0:0:0:
448,192,26722,1,0,3:3:0:100:Rim.wav
192,192,26722,1,0,0:0:0:0:
320,192,26909,1,0,0:0:0:0:
64,192,27097,1,0,3:3:0:100:Rim.wav
192,192,27097,1,0,0:0:0:0:
320,192,27284,1,0,0:0:0:0:
64,192,27472,1,0,3:3:0:100:Rim.wav
448,192,27472,1,0,0:0:0:0:
192,192,27659,1,0,0:0:0:0:
320,192,27847,1,0,3:3:0:100:Rim.wav
448,192,27847,1,0,0:0:0:0:
192,192,28034,1,0,0:0:0:0:
64,192,28222,1,0,3:3:0:100:Rim.wav
320,192,28222,1,0,0:0:0:0:
448,192,28409,128,0,28597:0:0:0:0:
192,192,28409,1,0,0:0:0:0:
192,192,28597,128,0,28784:3:3:0:100:Rim.wav
64,192,28597,1,0,0:0:0:0:
320,192,28784,128,0,29159:0:0:0:0:
64,192,28972,1,0,3:3:0:100:Rim.wav
192,192,28972,1,0,0:0:0:0:
448,192,29159,1,0,0:0:0:0:
320,192,29253,1,0,0:0:0:0:
192,192,29347,128,0,29534:3:3:0:100:Rim.wav
64,192,29347,1,0,0:0:0:0:
448,192,29534,128,0,29722:0:0:0:0:
64,192,29722,128,0,29909:3:3:0:100:Rim.wav
192,192,29722,1,0,0:0:0:0:
320,192,29909,128,0,30284:0:0:0:0:
192,192,30097,1,0,3:3:0:100:Rim.wav
448,192,30097,1,0,0:0:0:0:
64,192,30284,128,0,30472:0:0:0:0:
320,192,30472,1,0,3:3:0:100:Rim.wav
192,192,30472,128,0,30659:0:0:0:0:
448,192,30659,128,0,31034:0:0:0:0:
320,192,30659,128,0,31034:0:0:0:0:
192,192,30847,1,0,3:3:0:100:Rim.wav
64,192,30847,1,0,0:0:0:0:
64,192,31034,1,0,0:0:0:0:
192,192,31128,1,0,0:0:0:0:
448,192,31222,1,0,3:3:0:100:Rim.wav
64,192,31222,1,0,0:0:0:0:
320,192,31315,1,0,0:0:0:0:
192,192,31409,1,0,0:0:0:0:
64,192,31503,1,0,0:0:0:0:
448,192,31597,1,0,3:3:0:100:Rim.wav
320,192,31597,1,0,0:0:0:0:
192,192,31690,1,0,0:0:0:0:
64,192,31784,1,0,1:0:0:25:Hat.wav
448,192,31878,1,0,0:0:0:0:
320,192,31972,1,0,3:3:0:100:Rim.wav
192,192,31972,1,0,0:0:0:0:
64,192,32065,1,0,0:0:0:0:
448,192,32159,1,0,1:0:0:25:Hat.wav
320,192,32253,1,0,0:0:0:0:
192,192,32347,1,0,3:3:0:100:Rim.wav
448,192,32347,128,0,32722:0:0:0:0:
64,192,32347,1,0,0:0:0:0:
64,192,32722,1,0,3:3:0:100:Rim.wav
320,192,32722,1,0,0:0:0:0:
192,192,32909,1,0,0:0:0:0:
320,192,33097,1,0,3:3:0:100:Rim.wav
448,192,33097,1,0,0:0:0:0:
64,192,33284,1,0,0:0:0:0:
448,192,33472,1,0,3:3:0:100:Rim.wav
192,192,33472,1,0,0:0:0:0:
320,192,33659,1,0,0:0:0:0:
192,192,33847,1,0,3:3:0:100:Rim.wav
64,192,33847,1,0,0:0:0:0:
448,192,34034,1,0,0:0:0:0:
320,192,34222,1,0,3:3:0:100:Rim.wav
64,192,34222,1,0,0:0:0:0:
64,192,34409,128,0,34597:0:0:0:0:
320,192,34503,1,0,0:0:0:0:
192,192,34597,128,0,34784:3:3:0:100:Rim.wav
448,192,34597,1,0,0:0:0:0:
320,192,34784,128,0,35159:0:0:0:0:
192,192,34972,1,0,3:3:0:100:Rim.wav
64,192,34972,1,0,0:0:0:0:
64,192,35159,1,0,0:0:0:0:
448,192,35253,1,0,0:0:0:0:
320,192,35300,1,0,0:0:0:0:
192,192,35347,128,0,35722:0:0:0:100:Rim.wav
64,192,35722,1,0,3:3:0:100:Rim.wav
320,192,35722,1,0,0:0:0:0:
448,192,35909,1,0,0:0:0:0:
64,192,36097,1,0,3:3:0:100:Rim.wav
320,192,36097,1,0,0:0:0:0:
192,192,36284,1,0,0:0:0:0:
64,192,36472,1,0,3:3:0:100:Rim.wav
448,192,36472,1,0,0:0:0:0:
192,192,36659,1,0,0:0:0:0:
320,192,36847,1,0,3:3:0:100:Rim.wav
448,192,36847,1,0,0:0:0:0:
192,192,37034,1,0,0:0:0:0:
320,192,37222,1,0,3:3:0:100:Rim.wav
64,192,37222,1,0,0:0:0:0:
192,192,37409,128,0,37597:0:0:0:0:
64,192,37597,128,0,37784:3:3:0:100:Rim.wav
320,192,37597,1,0,0:0:0:0:
320,192,37784,128,0,38159:1:0:0:25:Hat.wav
448,192,37784,1,0,0:0:0:0:
192,192,37972,1,0,3:3:0:100:Rim.wav
64,192,37972,1,0,0:0:0:0:
448,192,38159,1,0,1:0:0:25:Hat.wav
64,192,38253,5,0,1:0:0:25:Hat.wav
192,192,38300,1,0,1:0:0:25:Hat.wav
448,192,38347,128,0,38722:3:3:0:100:Rim.wav
320,192,38347,1,0,0:0:0:0:
320,192,38722,1,0,3:3:0:100:Rim.wav
192,192,38722,1,0,0:0:0:0:
448,192,38909,1,0,0:0:0:0:
192,192,39097,1,0,3:3:0:100:Rim.wav
64,192,39097,1,0,0:0:0:0:
448,192,39284,1,0,0:0:0:0:
320,192,39472,1,0,3:3:0:100:Rim.wav
192,192,39472,1,0,0:0:0:0:
64,192,39659,1,0,0:0:0:0:
320,192,39847,1,0,3:3:0:100:Rim.wav
448,192,39847,1,0,0:0:0:0:
64,192,40034,1,0,0:0:0:0:
192,192,40222,1,0,3:3:0:100:Rim.wav
320,192,40222,1,0,0:0:0:0:
448,192,40409,128,0,40597:0:0:0:0:
64,192,40597,1,0,3:3:0:100:Rim.wav
320,192,40597,128,0,40784:0:0:0:0:
192,192,40784,128,0,41159:0:0:0:0:
320,192,40972,1,0,3:3:0:100:Rim.wav
64,192,40972,1,0,0:0:0:0:
448,192,41159,1,0,0:0:0:0:
320,192,41253,1,0,0:0:0:0:
64,192,41347,1,0,3:3:0:100:Rim.wav
192,192,41347,1,0,0:0:0:0:
448,192,41534,128,0,41722:0:0:0:0:
320,192,41722,128,0,41909:3:3:0:100:Rim.wav
64,192,41722,1,0,0:0:0:0:
192,192,41909,128,0,42284:0:0:0:0:
64,192,42097,1,0,3:3:0:100:Rim.wav
320,192,42097,1,0,0:0:0:0:
320,192,42284,128,0,42472:0:0:0:0:
448,192,42472,128,0,42659:3:3:0:100:Rim.wav
192,192,42472,1,0,0:0:0:0:
64,192,42659,128,0,43034:0:0:0:0:
192,192,42659,128,0,43034:0:0:0:0:
320,192,42847,1,0,3:3:0:100:Rim.wav
448,192,42847,1,0,0:0:0:0:
448,192,43034,1,0,0:0:0:0:
320,192,43081,1,0,0:0:0:0:
64,192,43128,1,0,0:0:0:0:
192,192,43175,1,0,0:0:0:0:
448,192,43222,1,0,3:3:0:100:Rim.wav
320,192,43268,1,0,0:0:0:0:
64,192,43315,1,0,0:0:0:0:
192,192,43362,1,0,0:0:0:0:
448,192,43409,1,0,0:0:0:0:
320,192,43456,1,0,0:0:0:0:
64,192,43503,1,0,0:0:0:0:
192,192,43550,1,0,0:0:0:0:
448,192,43597,1,0,3:3:0:100:Rim.wav
320,192,43643,1,0,0:0:0:0:
64,192,43690,1,0,0:0:0:0:
192,192,43737,1,0,0:0:0:0:
448,192,43784,1,0,0:0:0:0:
320,192,43831,1,0,0:0:0:0:
192,192,43878,1,0,0:0:0:0:
64,192,43972,5,0,0:0:0:100:Snare.wav
448,192,43972,1,0,0:0:0:0:
320,192,43972,1,0,0:0:0:0:
192,192,44159,1,0,1:0:0:100:Kick.wav
320,192,44159,1,0,0:0:0:0:
448,192,44347,1,0,1:0:0:100:Kick.wav
64,192,44347,1,0,0:0:0:100:Cymbal.wav
192,192,44347,1,0,0:0:0:0:
192,192,44534,128,0,44722:1:0:0:50:Hat.wav
320,192,44722,1,0,1:0:0:100:Kick.wav
448,192,44722,1,0,0:0:0:0:
64,192,44909,128,0,45097:1:0:0:50:Hat.wav
192,192,45097,1,0,1:0:0:100:Kick.wav
320,192,45097,1,0,0:0:0:0:
448,192,45284,128,0,45472:1:0:0:50:Hat.wav
64,192,45472,1,0,1:0:0:100:Kick.wav
192,192,45472,1,0,0:0:0:0:
320,192,45659,128,0,45847:1:0:0:50:Hat.wav
64,192,45847,1,0,1:0:0:100:Kick.wav
448,192,45847,1,0,0:0:0:0:
192,192,46034,128,0,46222:1:0:0:50:Hat.wav
320,192,46222,1,0,1:0:0:100:Kick.wav
448,192,46222,1,0,0:0:0:0:
320,192,46409,128,0,46597:1:0:0:50:Hat.wav
64,192,46597,1,0,1:0:0:100:Kick.wav
192,192,46597,1,0,0:0:0:0:
448,192,46784,128,0,46972:1:0:0:50:Hat.wav
192,192,46972,1,0,1:0:0:100:Kick.wav
320,192,46972,1,0,0:0:0:0:
64,192,47159,1,0,0:0:0:0:
448,192,47253,1,0,0:0:0:0:
320,192,47347,1,0,1:0:0:100:Kick.wav
192,192,47347,1,0,0:0:0:0:
64,192,47534,128,0,47722:1:0:0:50:Hat.wav
320,192,47722,1,0,1:0:0:100:Kick.wav
448,192,47722,1,0,0:0:0:0:
320,192,47909,128,0,48097:1:0:0:50:Hat.wav
64,192,48097,1,0,1:0:0:100:Kick.wav
192,192,48097,1,0,0:0:0:0:
448,192,48284,128,0,48472:1:0:0:50:Hat.wav
192,192,48472,1,0,1:0:0:100:Kick.wav
320,192,48472,1,0,0:0:0:0:
64,192,48659,128,0,48847:1:0:0:50:Hat.wav
192,192,48659,1,0,0:0:0:0:
448,192,48847,1,0,1:0:0:100:Kick.wav
320,192,48847,1,0,0:0:0:0:
192,192,49034,128,0,49222:1:0:0:50:Hat.wav
64,192,49222,128,0,49597:1:0:0:100:Kick.wav
448,192,49222,1,0,0:0:0:0:
320,192,49409,128,0,49597:1:0:0:50:Hat.wav
448,192,49597,128,0,49972:1:0:0:100:Kick.wav
192,192,49597,1,0,0:0:0:0:
64,192,49784,128,0,49972:1:0:0:50:Hat.wav
192,192,49972,128,0,50347:1:0:0:100:Kick.wav
320,192,49972,1,0,0:0:0:0:
448,192,50159,128,0,50347:1:0:0:50:Hat.wav
320,192,50347,1,0,1:0:0:100:Kick.wav
64,192,50347,128,0,50534:0:0:0:0:
320,192,50534,128,0,50722:1:0:0:50:Hat.wav
64,192,50722,1,0,1:0:0:100:Kick.wav
192,192,50722,1,0,0:0:0:0:
320,192,50909,128,0,51097:1:0:0:50:Hat.wav
448,192,51097,1,0,1:0:0:100:Kick.wav
192,192,51097,1,0,0:0:0:0:
64,192,51284,128,0,51472:1:0:0:50:Hat.wav
192,192,51472,1,0,1:0:0:100:Kick.wav
320,192,51472,1,0,0:0:0:0:
64,192,51659,128,0,51847:1:0:0:50:Hat.wav
448,192,51847,1,0,1:0:0:100:Kick.wav
192,192,51847,1,0,0:0:0:0:
448,192,52034,128,0,52222:1:0:0:50:Hat.wav
192,192,52222,1,0,1:0:0:100:Kick.wav
64,192,52222,1,0,0:0:0:0:
448,192,52409,128,0,52597:1:0:0:50:Hat.wav
192,192,52597,1,0,1:0:0:100:Kick.wav
320,192,52597,1,0,0:0:0:0:
64,192,52690,1,0,0:0:0:100:Snare.wav
448,192,52690,1,0,0:0:0:0:
320,192,52878,1,0,1:0:0:100:Kick.wav
192,192,52878,1,0,0:0:0:0:
64,192,52972,1,0,0:0:0:100:Snare.wav
448,192,52972,1,0,0:0:0:0:
448,192,53159,1,0,0:0:0:100:Tom.wav
320,192,53159,1,0,0:0:0:100:Snare.wav
192,192,53253,1,0,0:0:0:100:Tom.wav
64,192,53253,1,0,0:0:0:100:Snare.wav
64,192,53347,1,0,0:0:0:100:Kick.wav
320,192,53347,1,0,0:0:0:100:Cymbal.wav
448,192,53347,1,0,0:0:0:0:
320,192,53534,1,0,0:0:0:0:
64,192,53722,1,0,0:0:0:100:Snare.wav
448,192,53722,1,0,0:0:0:100:Kick.wav
192,192,53722,1,0,0:0:0:0:
448,192,53909,1,0,0:0:0:0:
320,192,54097,1,0,0:0:0:100:Kick.wav
192,192,54097,1,0,0:0:0:0:
64,192,54284,1,0,0:0:0:0:
64,192,54472,1,0,0:0:0:100:Snare.wav
320,192,54472,1,0,0:0:0:100:Kick.wav
448,192,54472,1,0,0:0:0:0:
192,192,54659,1,0,0:0:0:0:
320,192,54847,1,0,0:0:0:100:Kick.wav
448,192,54847,1,0,0:0:0:0:
64,192,55034,1,0,0:0:0:0:
448,192,55222,1,0,0:0:0:100:Snare.wav
192,192,55222,1,0,0:0:0:100:Kick.wav
320,192,55222,1,0,0:0:0:0:
320,192,55409,1,0,0:0:0:0:
192,192,55503,1,0,0:0:0:100:Snare.wav
64,192,55503,1,0,0:0:0:0:
320,192,55597,1,0,0:0:0:100:Kick.wav
448,192,55597,128,0,55972:0:0:0:0:
64,192,55784,1,0,0:0:0:0:
320,192,55972,128,0,56347:0:0:0:100:Kick.wav
64,192,55972,1,0,0:0:0:100:Snare.wav
192,192,55972,1,0,0:0:0:0:
448,192,56347,1,0,0:0:0:100:Kick.wav
64,192,56440,1,0,0:0:0:100:Snare.wav
192,192,56440,1,0,0:0:0:0:
448,192,56534,1,0,0:0:0:100:Kick.wav
320,192,56534,1,0,0:0:0:0:
320,192,56628,1,0,0:0:0:100:Kick.wav
448,192,56628,1,0,0:0:0:0:
192,192,56722,1,0,0:0:0:100:Snare.wav
64,192,56722,1,0,0:0:0:0:
320,192,56909,1,0,0:0:0:100:Kick.wav
448,192,56909,1,0,0:0:0:0:
64,192,57003,1,0,0:0:0:100:Snare.wav
192,192,57050,1,0,0:0:0:100:Snare.wav
448,192,57097,1,0,0:0:0:100:Snare.wav
320,192,57097,1,0,0:0:0:0:
64,192,57190,1,0,0:0:0:100:Snare.wav
192,192,57190,1,0,0:0:0:0:
320,192,57284,1,0,0:0:0:100:Snare.wav
448,192,57284,1,0,0:0:0:0:
192,192,57378,1,0,0:0:0:100:Snare.wav
64,192,57378,1,0,0:0:0:0:
448,192,57472,1,0,0:0:0:100:Snare.wav
320,192,57472,1,0,0:0:0:0:
192,192,57565,1,0,0:0:0:100:Snare.wav
64,192,57565,1,0,0:0:0:0:
448,192,57659,1,0,0:0:0:100:Kick.wav
64,192,57659,1,0,0:0:0:100:Cymbal.wav
320,192,57659,1,0,0:0:0:0:
64,192,58034,1,0,0:0:0:100:Cymbal.wav
448,192,58034,1,0,0:0:0:100:Kick.wav
192,192,58034,1,0,0:0:0:0:
192,192,58222,1,0,0:0:0:100:Cymbal.wav
448,192,58222,1,0,0:0:0:100:Kick.wav
64,192,58222,1,0,0:0:0:0:
320,192,58222,1,0,0:0:0:0:
64,192,58597,128,0,58878:0:0:0:0:
192,192,58690,128,0,58972:0:0:0:0:
320,192,58784,128,0,59065:0:0:0:0:
448,192,58878,128,0,59159:0:0:0:0:
64,192,58972,1,0,0:0:0:0:
192,192,59065,1,0,0:0:0:0:
320,192,59159,1,0,0:0:0:0:
448,192,59253,1,0,0:0:0:0:
64,192,59347,1,0,0:0:0:100:Kick.wav
192,192,59347,1,0,0:0:0:100:Cymbal.wav
320,192,59347,1,0,0:0:0:0:
192,192,59534,1,0,0:0:0:0:
64,192,59628,1,0,0:0:0:0:
448,192,59722,1,0,0:0:0:100:Snare.wav
192,192,59722,1,0,0:0:0:0:
320,192,59722,1,0,0:0:0:0:
320,192,59909,1,0,0:0:0:0:
448,192,60003,1,0,0:0:0:0:
64,192,60097,1,0,0:0:0:100:Kick.wav
192,192,60097,1,0,0:0:0:0:
320,192,60190,1,0,0:0:0:0:
192,192,60284,1,0,0:0:0:100:Kick.wav
448,192,60284,1,0,0:0:0:0:
64,192,60472,1,0,0:0:0:100:Snare.wav
448,192,60472,1,0,0:0:0:0:
320,192,60472,1,0,0:0:0:0:
192,192,60659,1,0,0:0:0:100:Kick.wav
64,192,60659,128,0,61034:0:0:0:0:
320,192,61034,1,0,0:0:0:100:Kick.wav
448,192,61034,1,0,0:0:0:0:
64,192,61128,1,0,0:0:0:100:Kick.wav
192,192,61128,1,0,0:0:0:0:
320,192,61222,1,0,0:0:0:100:Snare.wav
448,192,61222,1,0,0:0:0:0:
192,192,61222,1,0,0:0:0:0:
320,192,61409,1,0,0:0:0:100:Kick.wav
448,192,61409,128,0,61784:0:0:0:0:
192,192,61597,1,0,0:0:0:100:Kick.wav
64,192,61690,1,0,0:0:0:100:Snare.wav
320,192,61690,1,0,0:0:0:0:
192,192,61784,1,0,0:0:0:100:Kick.wav
64,192,61972,1,0,0:0:0:100:Snare.wav
320,192,61972,1,0,0:0:0:0:
448,192,61972,1,0,0:0:0:0:
320,192,62159,1,0,0:0:0:100:Kick.wav
64,192,62159,1,0,0:0:0:0:
192,192,62253,1,0,0:0:0:100:Snare.wav
448,192,62253,1,0,0:0:0:0:
64,192,62347,1,0,0:0:0:100:Kick.wav
320,192,62347,1,0,0:0:0:0:
320,192,62534,1,0,0:0:0:0:
448,192,62628,1,0,0:0:0:0:
64,192,62722,1,0,0:0:0:100:Snare.wav
192,192,62722,1,0,0:0:0:0:
320,192,62722,1,0,0:0:0:0:
192,192,62909,1,0,0:0:0:0:
64,192,63003,1,0,0:0:0:0:
320,192,63097,1,0,0:0:0:100:Kick.wav
448,192,63097,1,0,0:0:0:0:
64,192,63284,1,0,0:0:0:100:Kick.wav
192,192,63284,1,0,0:0:0:0:
64,192,63472,1,0,0:0:0:100:Snare.wav
448,192,63472,1,0,0:0:0:0:
320,192,63472,1,0,0:0:0:0:
448,192,63659,1,0,0:0:0:100:Cymbal.wav
192,192,63659,128,0,63847:0:0:0:100:Kick.wav
64,192,63659,128,0,63847:0:0:0:0:
320,192,63659,1,0,0:0:0:0:
192,192,64034,1,0,0:0:0:100:Kick.wav
320,192,64034,1,0,0:0:0:0:
64,192,64222,1,0,0:0:0:100:Snare.wav
192,192,64222,1,0,0:0:0:0:
448,192,64222,1,0,0:0:0:0:
448,192,64409,128,0,64597:0:0:0:0:
320,192,64409,128,0,64597:0:0:0:0:
64,192,64597,1,0,0:0:0:100:Kick.wav
192,192,64597,1,0,0:0:0:0:
320,192,64690,1,0,0:0:0:100:Kick.wav
448,192,64690,1,0,0:0:0:0:
64,192,64784,1,0,0:0:0:100:Kick.wav
192,192,64784,1,0,0:0:0:0:
320,192,64972,1,0,0:0:0:100:Snare.wav
448,192,64972,1,0,0:0:0:0:
64,192,64972,128,0,65159:0:0:0:0:
192,192,65159,1,0,0:0:0:0:
192,192,65347,1,0,0:0:0:100:Kick.wav
320,192,65347,1,0,0:0:0:0:
64,192,65440,1,0,0:0:0:0:
192,192,65534,1,0,0:0:0:0:
320,192,65628,1,0,0:0:0:100:Kick.wav
448,192,65628,1,0,0:0:0:0:
64,192,65722,1,0,0:0:0:100:Snare.wav
192,192,65722,1,0,0:0:0:0:
448,192,65815,1,0,0:0:0:0:
64,192,65909,1,0,0:0:0:100:Snare.wav
192,192,65909,1,0,0:0:0:100:Kick.wav
448,192,66003,1,0,0:0:0:100:Snare.wav
320,192,66050,1,0,0:0:0:100:Snare.wav
192,192,66097,1,0,0:0:0:100:Snare.wav
64,192,66097,1,0,0:0:0:0:
448,192,66190,1,0,0:0:0:100:Snare.wav
320,192,66190,1,0,0:0:0:0:
192,192,66284,1,0,0:0:0:100:Kick.wav
64,192,66284,1,0,0:0:0:100:Cymbal.wav
448,192,66284,1,0,0:0:0:0:
320,192,66472,1,0,0:0:0:100:Kick.wav
192,192,66472,1,0,0:0:0:0:
320,192,66659,1,0,0:0:0:100:Kick.wav
448,192,66659,128,0,67034:0:0:0:100:Cymbal.wav
64,192,66659,128,0,67034:0:0:0:0:
192,192,66659,1,0,0:0:0:0:
320,192,67034,1,0,0:0:0:100:Kick.wav
192,192,67034,1,0,0:0:0:0:
448,192,67222,128,0,67597:0:0:0:100:Snare.wav
64,192,67222,1,0,0:0:0:0:
192,192,67222,1,0,0:0:0:0:
64,192,67409,1,0,0:0:0:100:Kick.wav
192,192,67503,1,0,0:0:0:0:
320,192,67503,1,0,0:0:0:100:Snare.wav
64,192,67597,128,0,67972:0:0:0:100:Kick.wav
448,192,67784,1,0,0:0:0:100:Kick.wav
448,192,67972,128,0,68347:0:0:0:100:Snare.wav
192,192,67972,1,0,0:0:0:0:
320,192,67972,1,0,0:0:0:0:
320,192,68159,1,0,0:0:0:0:
64,192,68253,1,0,0:0:0:0:
192,192,68253,1,0,0:0:0:100:Snare.wav
320,192,68347,1,0,0:0:0:100:Kick.wav
64,192,68534,1,0,0:0:0:100:Kick.wav
192,192,68534,1,0,0:0:0:0:
448,192,68628,1,0,0:0:0:100:Snare.wav
320,192,68628,1,0,0:0:0:0:
192,192,68722,1,0,0:0:0:100:Snare.wav
64,192,68722,1,0,0:0:0:0:
320,192,68722,1,0,0:0:0:0:
320,192,68909,128,0,69284:0:0:0:100:Kick.wav
192,192,68909,128,0,69284:0:0:0:100:Cymbal.wav
64,192,68909,1,0,0:0:0:0:
448,192,68909,1,0,0:0:0:0:
448,192,69284,1,0,0:0:0:100:Kick.wav
64,192,69284,1,0,0:0:0:0:
64,192,69472,1,0,0:0:0:100:Snare.wav
320,192,69472,1,0,0:0:0:0:
448,192,69472,1,0,0:0:0:0:
448,192,69659,128,0,70222:0:0:0:100:Kick.wav
64,192,69659,128,0,70222:0:0:0:100:Cymbal.wav
192,192,69659,1,0,0:0:0:0:
320,192,69659,1,0,0:0:0:0:
192,192,70034,1,0,0:0:0:100:Kick.wav
192,192,70222,1,0,0:0:0:100:Snare.wav
320,192,70222,1,0,0:0:0:0:
448,192,70409,1,0,0:0:0:100:Kick.wav
192,192,70409,1,0,0:0:0:0:
320,192,70503,1,0,0:0:0:100:Kick.wav
192,192,70597,1,0,0:0:0:100:Snare.wav
64,192,70597,1,0,0:0:0:0:
320,192,70690,1,0,0:0:0:100:Snare.wav
448,192,70690,1,0,0:0:0:0:
64,192,70784,1,0,0:0:0:100:Kick.wav
192,192,70784,1,0,0:0:0:0:
320,192,70878,1,0,0:0:0:100:Kick.wav
448,192,70972,1,0,0:0:0:100:Snare.wav
192,192,70972,1,0,0:0:0:100:Cymbal.wav
64,192,70972,1,0,0:0:0:0:
192,192,71159,1,0,0:0:0:100:Tom.wav
448,192,71159,1,0,0:0:0:0:
320,192,71253,1,0,0:0:0:100:Tom.wav
64,192,71253,1,0,0:0:0:0:
192,192,71347,1,0,0:0:0:100:Kick.wav
448,192,71347,1,0,0:0:0:100:Cymbal.wav
320,192,71347,1,0,0:0:0:0:
64,192,71534,1,0,0:0:0:0:
192,192,71628,1,0,0:0:0:0:
448,192,71722,1,0,0:0:0:100:Snare.wav
320,192,71722,1,0,0:0:0:0:
64,192,71722,1,0,0:0:0:0:
448,192,71909,1,0,0:0:0:0:
320,192,72003,1,0,0:0:0:0:
64,192,72097,1,0,0:0:0:100:Kick.wav
192,192,72097,1,0,0:0:0:0:
448,192,72190,1,0,0:0:0:0:
192,192,72284,1,0,0:0:0:100:Kick.wav
320,192,72284,1,0,0:0:0:0:
320,192,72472,1,0,0:0:0:100:Snare.wav
448,192,72472,1,0,0:0:0:0:
64,192,72472,1,0,0:0:0:0:
192,192,72659,1,0,0:0:0:100:Kick.wav
64,192,72659,128,0,73034:0:0:0:0:
320,192,73034,1,0,0:0:0:100:Kick.wav
448,192,73034,1,0,0:0:0:0:
64,192,73128,1,0,0:0:0:100:Kick.wav
192,192,73128,1,0,0:0:0:0:
320,192,73222,1,0,0:0:0:100:Snare.wav
448,192,73222,1,0,0:0:0:0:
192,192,73222,1,0,0:0:0:0:
64,192,73409,1,0,0:0:0:100:Kick.wav
448,192,73409,128,0,73784:0:0:0:0:
320,192,73597,1,0,0:0:0:100:Kick.wav
192,192,73690,1,0,0:0:0:0:
64,192,73690,1,0,0:0:0:100:Snare.wav
320,192,73784,1,0,0:0:0:100:Kick.wav
64,192,73972,1,0,0:0:0:100:Snare.wav
192,192,73972,1,0,0:0:0:0:
448,192,73972,1,0,0:0:0:0:
192,192,74159,1,0,0:0:0:0:
320,192,74253,1,0,0:0:0:100:Snare.wav
448,192,74253,1,0,0:0:0:0:
64,192,74347,1,0,0:0:0:100:Kick.wav
192,192,74347,1,0,0:0:0:0:
320,192,74534,1,0,0:0:0:0:
64,192,74628,1,0,0:0:0:0:
448,192,74722,1,0,0:0:0:100:Snare.wav
192,192,74722,1,0,0:0:0:0:
320,192,74722,1,0,0:0:0:0:
320,192,74909,1,0,0:0:0:100:Kick.wav
64,192,74909,1,0,0:0:0:0:
448,192,75003,1,0,0:0:0:0:
64,192,75097,1,0,0:0:0:100:Kick.wav
192,192,75097,1,0,0:0:0:0:
448,192,75190,1,0,0:0:0:100:Kick.wav
320,192,75190,1,0,0:0:0:0:
192,192,75284,1,0,0:0:0:100:Snare.wav
320,192,75284,1,0,0:0:0:0:
64,192,75284,1,0,0:0:0:0:
192,192,75472,1,0,0:0:0:100:Snare.wav
320,192,75472,1,0,0:0:0:0:
448,192,75472,1,0,0:0:0:0:
64,192,75659,1,0,0:0:0:100:Cymbal.wav
192,192,75659,1,0,0:0:0:100:Kick.wav
448,192,75659,128,0,76034:0:0:0:0:
320,192,75659,1,0,0:0:0:0:
320,192,75940,1,0,0:0:0:70:Tom.wav
64,192,76034,1,0,0:0:0:100:Kick.wav
192,192,76034,1,0,0:0:0:100:Tom.wav
448,192,76128,1,0,0:0:0:100:Kick.wav
192,192,76222,1,0,0:0:0:100:Snare.wav
320,192,76222,1,0,0:0:0:0:
64,192,76222,1,0,0:0:0:0:
320,192,76409,1,0,0:0:0:100:Kick.wav
448,192,76409,1,0,0:0:0:100:Cymbal.wav
64,192,76409,128,0,76784:0:0:0:0:
192,192,76409,1,0,0:0:0:0:
192,192,76784,1,0,0:0:0:100:Kick.wav
448,192,76784,1,0,0:0:0:0:
320,192,76878,1,0,0:0:0:100:Kick.wav
448,192,76878,1,0,0:0:0:0:
192,192,76972,1,0,0:0:0:100:Snare.wav
64,192,76972,1,0,0:0:0:0:
448,192,77065,1,0,0:0:0:100:Snare.wav
320,192,77065,1,0,0:0:0:0:
192,192,77159,1,0,0:0:0:100:Snare.wav
64,192,77159,1,0,0:0:0:100:Kick.wav
448,192,77253,1,0,0:0:0:100:Snare.wav
320,192,77253,1,0,0:0:0:0:
448,192,77347,1,0,0:0:0:100:Cymbal.wav
64,192,77347,1,0,0:0:0:100:Kick.wav
192,192,77347,1,0,0:0:0:0:
192,192,77534,1,0,0:0:0:0:
448,192,77628,1,0,0:0:0:0:
64,192,77722,1,0,0:0:0:100:Snare.wav
192,192,77722,1,0,0:0:0:0:
320,192,77722,1,0,0:0:0:0:
320,192,77909,1,0,0:0:0:0:
192,192,78003,1,0,0:0:0:100:Snare.wav
64,192,78003,1,0,0:0:0:0:
448,192,78003,1,0,0:0:0:0:
320,192,78097,1,0,0:0:0:100:Kick.wav
448,192,78097,1,0,0:0:0:0:
64,192,78190,1,0,0:0:0:0:
320,192,78284,1,0,0:0:0:100:Kick.wav
192,192,78284,1,0,0:0:0:0:
64,192,78472,1,0,0:0:0:100:Snare.wav
320,192,78472,1,0,0:0:0:0:
448,192,78472,1,0,0:0:0:0:
448,192,78659,1,0,0:0:0:100:Kick.wav
192,192,78659,128,0,79034:0:0:0:100:Cymbal.wav
64,192,78659,128,0,79034:0:0:0:0:
320,192,78659,1,0,0:0:0:0:
320,192,79034,1,0,0:0:0:100:Kick.wav
448,192,79034,1,0,0:0:0:0:
64,192,79222,1,0,0:0:0:100:Snare.wav
192,192,79222,1,0,0:0:0:0:
320,192,79222,1,0,0:0:0:0:
448,192,79409,1,0,0:0:0:100:Kick.wav
192,192,79409,1,0,0:0:0:0:
320,192,79503,1,0,0:0:0:100:Snare.wav
64,192,79503,1,0,0:0:0:0:
192,192,79597,1,0,0:0:0:100:Kick.wav
448,192,79597,1,0,0:0:0:0:
64,192,79784,1,0,0:0:0:100:Kick.wav
192,192,79784,1,0,0:0:0:0:
192,192,79972,1,0,0:0:0:100:Snare.wav
320,192,79972,1,0,0:0:0:0:
448,192,79972,1,0,0:0:0:0:
320,192,80253,1,0,0:0:0:0:
64,192,80347,128,0,81472:0:0:0:100:Kick.wav
192,192,80347,1,0,0:0:0:0:
448,192,80347,1,0,0:0:0:0:
448,192,80534,1,0,0:0:0:0:
320,192,80628,1,0,0:0:0:0:
192,192,80722,1,0,0:0:0:100:Snare.wav
448,192,80722,1,0,0:0:0:0:
192,192,80909,1,0,0:0:0:0:
448,192,81003,1,0,0:0:0:100:Snare.wav
320,192,81003,1,0,0:0:0:0:
192,192,81097,1,0,0:0:0:100:Kick.wav
448,192,81284,1,0,0:0:0:100:Kick.wav
192,192,81472,1,0,0:0:0:100:Snare.wav
320,192,81472,1,0,0:0:0:0:
448,192,81659,128,0,82409:0:0:0:100:Kick.wav
320,192,81659,1,0,0:0:0:0:
192,192,81940,1,0,0:0:0:100:Snare.wav
64,192,81940,1,0,0:0:0:0:
320,192,82034,1,0,0:0:0:100:Kick.wav
192,192,82222,1,0,0:0:0:100:Snare.wav
320,192,82222,1,0,0:0:0:0:
64,192,82409,1,0,0:0:0:100:Tom.wav
192,192,82503,1,0,0:0:0:100:Tom.wav
320,192,82597,128,0,82722:0:0:0:100:Kick.wav
448,192,82597,1,0,0:0:0:0:
192,192,82722,128,0,82847:0:0:0:100:Kick.wav
64,192,82722,1,0,0:0:0:0:
64,192,82847,128,0,82972:0:0:0:100:Kick.wav
320,192,82847,1,0,0:0:0:0:
448,192,82972,128,0,83097:0:0:0:100:Kick.wav
192,192,82972,1,0,0:0:0:0:
320,192,83097,128,0,83222:0:0:0:100:Kick.wav
64,192,83097,1,0,0:0:0:0:
192,192,83222,128,0,83347:0:0:0:100:Kick.wav
448,192,83222,1,0,0:0:0:0:
64,192,83347,128,0,83722:0:0:0:100:Cymbal.wav
320,192,83347,1,0,0:0:0:100:Kick.wav
448,192,83347,1,0,0:0:0:0:
320,192,83628,1,0,0:0:0:100:Snare.wav
192,192,83628,1,0,0:0:0:0:
448,192,83722,1,0,0:0:0:100:Snare.wav
320,192,83722,1,0,0:0:0:0:
448,192,83909,128,0,84284:0:0:0:100:Cymbal.wav
64,192,83909,1,0,0:0:0:100:Kick.wav
320,192,83909,1,0,0:0:0:0:
192,192,83909,1,0,0:0:0:0:
64,192,84284,128,0,84472:0:0:0:100:Kick.wav
192,192,84284,1,0,0:0:0:0:
320,192,84472,128,0,84659:0:0:0:100:Snare.wav
448,192,84472,1,0,0:0:0:0:
192,192,84472,1,0,0:0:0:0:
192,192,84659,128,0,85034:0:0:0:100:Kick.wav
64,192,84659,1,0,0:0:0:100:Cymbal.wav
448,192,84659,1,0,0:0:0:0:
448,192,85034,128,0,85222:0:0:0:100:Kick.wav
64,192,85034,1,0,0:0:0:0:
192,192,85128,1,0,0:0:0:100:Kick.wav
64,192,85222,128,0,85409:0:0:0:100:Snare.wav
320,192,85222,1,0,0:0:0:0:
320,192,85409,128,0,85784:0:0:0:100:Cymbal.wav
448,192,85409,1,0,0:0:0:100:Kick.wav
192,192,85409,1,0,0:0:0:0:
192,192,85784,128,0,85972:0:0:0:100:Kick.wav
64,192,85784,1,0,0:0:0:0:
448,192,85972,128,0,86159:0:0:0:100:Snare.wav
320,192,85972,1,0,0:0:0:0:
64,192,86159,128,0,86722:0:0:0:100:Kick.wav
192,192,86159,1,0,0:0:0:100:Cymbal.wav
320,192,86159,1,0,0:0:0:0:
320,192,86534,1,0,0:0:0:100:Kick.wav
192,192,86722,1,0,0:0:0:100:Snare.wav
448,192,86722,1,0,0:0:0:0:
320,192,86909,128,0,87097:0:0:0:0:
192,192,86909,1,0,0:0:0:0:
64,192,87097,128,0,87284:0:0:0:100:Kick.wav
448,192,87097,1,0,0:0:0:0:
448,192,87284,128,0,87472:0:0:0:100:Kick.wav
320,192,87284,1,0,0:0:0:0:
192,192,87472,128,0,87659:0:0:0:100:Snare.wav
64,192,87472,1,0,0:0:0:0:
320,192,87472,1,0,0:0:0:0:
64,192,87659,128,0,88222:0:0:0:0:
320,192,87847,1,0,0:0:0:100:Kick.wav
448,192,88034,1,0,0:0:0:100:Kick.wav
192,192,88222,1,0,0:0:0:100:Snare.wav
320,192,88222,1,0,0:0:0:0:
448,192,88315,1,0,0:0:0:0:
64,192,88409,1,0,0:0:0:100:Snare.wav
320,192,88409,1,0,0:0:0:0:
192,192,88503,1,0,0:0:0:100:Snare.wav
320,192,88597,1,0,0:0:0:100:Snare.wav
448,192,88597,1,0,0:0:0:0:
64,192,88690,1,0,0:0:0:100:Snare.wav
320,192,88784,1,0,0:0:0:100:Tom.wav
192,192,88784,1,0,0:0:0:0:
448,192,88878,1,0,0:0:0:100:Tom.wav
64,192,88972,1,0,0:0:0:100:Tom.wav
192,192,88972,1,0,0:0:0:0:
320,192,89065,1,0,0:0:0:100:Tom.wav
192,192,89159,1,0,0:0:0:100:Cymbal.wav
448,192,89159,128,0,95347:0:0:0:100:Kick.wav
64,192,89159,128,0,95347:0:0:0:0:
