osu file format v14

[General]
AudioFilename: audio.mp3
AudioLeadIn: 0
PreviewTime: 58506
Countdown: 0
SampleSet: Soft
StackLeniency: 0.7
Mode: 3
LetterboxInBreaks: 0
SpecialStyle: 0
WidescreenStoryboard: 0

[Editor]
DistanceSpacing: 1
BeatDivisor: 4
GridSize: 4
TimelineZoom: 2.6

[Metadata]
Title:Philosophyz ~TV Animation Ver.~ (TV Size)
TitleUnicode:Philosophyz ~TV Animation Ver.~ (TV Size)
Artist:Mizutani Runa (NanosizeMir)
ArtistUnicode:水谷瑠奈(NanosizeMir)
Creator:Aikawa
Version:EZ
Source:Rewrite
Tags:- Ly0572 - Rewrite opening visual novel tv size mintjam key visual art's 折戸伸治 orito shinji 都乃河勇人 tonokawa yuuto
BeatmapID:1379271
BeatmapSetID:646298

[Difficulty]
HPDrainRate:5
CircleSize:4
OverallDifficulty:5
ApproachRate:5
SliderMultiplier:1.4
SliderTickRate:1

[Events]
//Background and Video events
Video,0,"BG video.mp4"
0,0,"bg.jpg",0,0
//Break Periods
//Storyboard Layer 0 (Background)
//Storyboard Layer 1 (Fail)
//Storyboard Layer 2 (Pass)
//Storyboard Layer 3 (Foreground)
//Storyboard Layer 4 (Overlay)
//Storyboard Sound Samples
Sample,6753,0,"Tom.wav",70
Sample,6753,0,"Tom.wav",100
Sample,6940,0,"Snare.wav",100
Sample,6940,0,"Snare.wav",100
Sample,7128,0,"Tom.wav",100
Sample,7128,0,"Tom.wav",100
Sample,7222,0,"Tom.wav",100
Sample,7222,0,"Tom.wav",100
Sample,7409,0,"Tom.wav",100
Sample,7409,0,"Tom.wav",100
Sample,7503,0,"Tom.wav",100
Sample,7503,0,"Tom.wav",100
Sample,7597,0,"Tom.wav",100
Sample,7597,0,"Tom.wav",100
Sample,7690,0,"Tom.wav",100
Sample,7690,0,"Tom.wav",100
Sample,7784,0,"Tom.wav",100
Sample,7784,0,"Tom.wav",100
Sample,7878,0,"Tom.wav",100
Sample,7878,0,"Tom.wav",100
Sample,8628,0,"Kick.wav",100
Sample,8628,0,"Kick.wav",100
Sample,8722,0,"Snare.wav",100
Sample,8722,0,"Snare.wav",100
Sample,9659,0,"Kick.wav",100
Sample,9659,0,"Kick.wav",100
Sample,10034,0,"Kick.wav",100
Sample,10034,0,"Kick.wav",100
Sample,10409,0,"Kick.wav",100
Sample,10409,0,"Kick.wav",100
Sample,10690,0,"Kick.wav",100
Sample,10690,0,"Kick.wav",100
Sample,10784,0,"Kick.wav",100
Sample,10784,0,"Kick.wav",100
Sample,11159,0,"Kick.wav",100
Sample,11159,0,"Kick.wav",100
Sample,11253,0,"Snare.wav",100
Sample,11253,0,"Snare.wav",100
Sample,11534,0,"Kick.wav",100
Sample,11534,0,"Kick.wav",100
Sample,11628,0,"Kick.wav",100
Sample,11628,0,"Kick.wav",100
Sample,11722,0,"Snare.wav",100
Sample,11722,0,"Snare.wav",100
Sample,13034,0,"Kick.wav",100
Sample,13034,0,"Kick.wav",100
Sample,13597,0,"Kick.wav",100
Sample,13597,0,"Kick.wav",100
Sample,13690,0,"Snare.wav",100
Sample,13690,0,"Snare.wav",100
Sample,13878,0,"Kick.wav",100
Sample,13878,0,"Kick.wav",100
Sample,14159,0,"Kick.wav",100
Sample,14159,0,"Kick.wav",100
Sample,14253,0,"Kick.wav",100
Sample,14253,0,"Kick.wav",100
Sample,14628,0,"Kick.wav",100
Sample,14628,0,"Kick.wav",100
Sample,14722,0,"Snare.wav",100
Sample,14722,0,"Snare.wav",100
Sample,15284,0,"Kick.wav",100
Sample,15284,0,"Kick.wav",100
Sample,16034,0,"Kick.wav",100
Sample,16034,0,"Kick.wav",100
Sample,16503,0,"Snare.wav",100
Sample,16503,0,"Snare.wav",100
Sample,16784,0,"Kick.wav",100
Sample,16784,0,"Kick.wav",100
Sample,17159,0,"Cymbal.wav",100
Sample,17159,0,"Cymbal.wav",100
Sample,17909,0,"Kick.wav",100
Sample,17909,0,"Kick.wav",100
Sample,18284,0,"Kick.wav",100
Sample,18284,0,"Kick.wav",100
Sample,18659,0,"Cymbal.wav",100
Sample,18659,0,"Cymbal.wav",100
Sample,19597,0,"Tom.wav",100
Sample,19597,0,"Tom.wav",100
Sample,19690,0,"Tom.wav",100
Sample,19690,0,"Tom.wav",100
Sample,19878,0,"Tom.wav",100
Sample,19878,0,"Tom.wav",100
Sample,20065,0,"Tom.wav",100
Sample,20065,0,"Tom.wav",100
Sample,20253,0,"Tom.wav",100
Sample,20253,0,"Tom.wav",100
Sample,26159,0,"Hat.wav",25
Sample,26159,0,"Hat.wav",25
Sample,26253,0,"Hat.wav",25
Sample,26253,0,"Hat.wav",25
Sample,26347,0,"Rim.wav",100
Sample,26347,0,"Rim.wav",100
Sample,37784,0,"Hat.wav",25
Sample,37784,0,"Hat.wav",25
Sample,38253,0,"Hat.wav",25
Sample,38253,0,"Hat.wav",25
Sample,38347,0,"Rim.wav",100
Sample,38347,0,"Rim.wav",100
Sample,44159,0,"Kick.wav",100
Sample,44159,0,"Kick.wav",100
Sample,44347,0,"Cymbal.wav",100
Sample,44347,0,"Cymbal.wav",100
Sample,44534,0,"Hat.wav",50
Sample,44534,0,"Hat.wav",50
Sample,44909,0,"Hat.wav",50
Sample,44909,0,"Hat.wav",50
Sample,45284,0,"Hat.wav",50
Sample,45284,0,"Hat.wav",50
Sample,45659,0,"Hat.wav",50
Sample,45659,0,"Hat.wav",50
Sample,46034,0,"Hat.wav",50
Sample,46034,0,"Hat.wav",50
Sample,46409,0,"Hat.wav",50
Sample,46409,0,"Hat.wav",50
Sample,46784,0,"Hat.wav",50
Sample,46784,0,"Hat.wav",50
Sample,47159,0,"Hat.wav",50
Sample,47159,0,"Hat.wav",50
Sample,47534,0,"Hat.wav",50
Sample,47534,0,"Hat.wav",50
Sample,47909,0,"Hat.wav",50
Sample,47909,0,"Hat.wav",50
Sample,48284,0,"Hat.wav",50
Sample,48284,0,"Hat.wav",50
Sample,48659,0,"Hat.wav",50
Sample,48659,0,"Hat.wav",50
Sample,49034,0,"Hat.wav",50
Sample,49034,0,"Hat.wav",50
Sample,49409,0,"Hat.wav",50
Sample,49409,0,"Hat.wav",50
Sample,49784,0,"Hat.wav",50
Sample,49784,0,"Hat.wav",50
Sample,50159,0,"Hat.wav",50
Sample,50159,0,"Hat.wav",50
Sample,50534,0,"Hat.wav",50
Sample,50534,0,"Hat.wav",50
Sample,50909,0,"Hat.wav",50
Sample,50909,0,"Hat.wav",50
Sample,51284,0,"Hat.wav",50
Sample,51284,0,"Hat.wav",50
Sample,51659,0,"Hat.wav",50
Sample,51659,0,"Hat.wav",50
Sample,52034,0,"Hat.wav",50
Sample,52034,0,"Hat.wav",50
Sample,52409,0,"Hat.wav",50
Sample,52409,0,"Hat.wav",50
Sample,52690,0,"Snare.wav",100
Sample,52690,0,"Snare.wav",100
Sample,52878,0,"Kick.wav",100
Sample,52878,0,"Kick.wav",100
Sample,53159,0,"Snare.wav",100
Sample,53159,0,"Snare.wav",100
Sample,53253,0,"Tom.wav",100
Sample,53253,0,"Snare.wav",100
Sample,53253,0,"Tom.wav",100
Sample,53253,0,"Snare.wav",100
Sample,53347,0,"Cymbal.wav",100
Sample,53347,0,"Cymbal.wav",100
Sample,55503,0,"Snare.wav",100
Sample,55503,0,"Snare.wav",100
Sample,56440,0,"Snare.wav",100
Sample,56440,0,"Snare.wav",100
Sample,56534,0,"Kick.wav",100
Sample,56534,0,"Kick.wav",100
Sample,56628,0,"Kick.wav",100
Sample,56628,0,"Kick.wav",100
Sample,56722,0,"Snare.wav",100
Sample,56722,0,"Snare.wav",100
Sample,56909,0,"Tom.wav",100
Sample,56909,0,"Kick.wav",100
Sample,57003,0,"Snare.wav",100
Sample,57003,0,"Snare.wav",100
Sample,57050,0,"Snare.wav",100
Sample,57050,0,"Snare.wav",100
Sample,57097,0,"Snare.wav",100
Sample,57097,0,"Snare.wav",100
Sample,57190,0,"Snare.wav",100
Sample,57190,0,"Snare.wav",100
Sample,57284,0,"Snare.wav",100
Sample,57284,0,"Snare.wav",100
Sample,57378,0,"Snare.wav",100
Sample,57378,0,"Snare.wav",100
Sample,57472,0,"Snare.wav",100
Sample,57472,0,"Snare.wav",100
Sample,57565,0,"Snare.wav",100
Sample,57565,0,"Snare.wav",100
Sample,57659,0,"Cymbal.wav",100
Sample,57659,0,"Cymbal.wav",100
Sample,58034,0,"Cymbal.wav",100
Sample,58034,0,"Cymbal.wav",100
Sample,58034,0,"Kick.wav",100
Sample,58034,0,"Kick.wav",100
Sample,58222,0,"Kick.wav",100
Sample,58222,0,"Kick.wav",100
Sample,61128,0,"Kick.wav",100
Sample,61128,0,"Kick.wav",100
Sample,61409,0,"Kick.wav",100
Sample,61409,0,"Kick.wav",100
Sample,61690,0,"Snare.wav",100
Sample,61690,0,"Snare.wav",100
Sample,62159,0,"Kick.wav",100
Sample,62159,0,"Kick.wav",100
Sample,62253,0,"Snare.wav",100
Sample,62253,0,"Snare.wav",100
Sample,63659,0,"Kick.wav",100
Sample,63659,0,"Kick.wav",100
Sample,64690,0,"Kick.wav",100
Sample,64690,0,"Kick.wav",100
Sample,65628,0,"Kick.wav",100
Sample,65628,0,"Kick.wav",100
Sample,65722,0,"Snare.wav",100
Sample,65722,0,"Snare.wav",100
Sample,65909,0,"Kick.wav",100
Sample,65909,0,"Kick.wav",100
Sample,66003,0,"Snare.wav",100
Sample,66003,0,"Snare.wav",100
Sample,66050,0,"Snare.wav",100
Sample,66050,0,"Snare.wav",100
Sample,66190,0,"Snare.wav",100
Sample,66190,0,"Snare.wav",100
Sample,66284,0,"Cymbal.wav",100
Sample,66284,0,"Cymbal.wav",100
Sample,67034,0,"Kick.wav",100
Sample,67034,0,"Kick.wav",100
Sample,67409,0,"Kick.wav",100
Sample,67409,0,"Kick.wav",100
Sample,67503,0,"Snare.wav",100
Sample,67503,0,"Snare.wav",100
Sample,67784,0,"Kick.wav",100
Sample,67784,0,"Kick.wav",100
Sample,68253,0,"Snare.wav",100
Sample,68253,0,"Snare.wav",100
Sample,68628,0,"Snare.wav",100
Sample,68628,0,"Snare.wav",100
Sample,68909,0,"Cymbal.wav",100
Sample,68909,0,"Cymbal.wav",100
Sample,70503,0,"Kick.wav",100
Sample,70503,0,"Kick.wav",100
Sample,70690,0,"Snare.wav",100
Sample,70690,0,"Snare.wav",100
Sample,70784,0,"Kick.wav",100
Sample,70784,0,"Kick.wav",100
Sample,70878,0,"Kick.wav",100
Sample,70878,0,"Kick.wav",100
Sample,70972,0,"Cymbal.wav",100
Sample,70972,0,"Cymbal.wav",100
Sample,71159,0,"Tom.wav",100
Sample,71159,0,"Snare.wav",100
Sample,71253,0,"Snare.wav",100
Sample,71253,0,"Tom.wav",100
Sample,71347,0,"Cymbal.wav",100
Sample,71347,0,"Cymbal.wav",100
Sample,73128,0,"Kick.wav",100
Sample,73128,0,"Kick.wav",100
Sample,73409,0,"Kick.wav",100
Sample,73409,0,"Kick.wav",100
Sample,73690,0,"Snare.wav",100
Sample,73690,0,"Snare.wav",100
Sample,74253,0,"Snare.wav",100
Sample,74253,0,"Snare.wav",100
Sample,75190,0,"Kick.wav",100
Sample,75190,0,"Kick.wav",100
Sample,75940,0,"Tom.wav",100
Sample,75940,0,"Kick.wav",100
Sample,76034,0,"Tom.wav",100
Sample,76128,0,"Kick.wav",100
Sample,76128,0,"Kick.wav",100
Sample,76878,0,"Kick.wav",100
Sample,76878,0,"Kick.wav",100
Sample,77065,0,"Snare.wav",100
Sample,77065,0,"Snare.wav",100
Sample,77159,0,"Kick.wav",100
Sample,77159,0,"Kick.wav",100
Sample,77253,0,"Snare.wav",100
Sample,77253,0,"Snare.wav",100
Sample,78003,0,"Snare.wav",100
Sample,78003,0,"Snare.wav",100
Sample,78284,0,"Kick.wav",100
Sample,78284,0,"Kick.wav",100
Sample,79409,0,"Kick.wav",100
Sample,79409,0,"Kick.wav",100
Sample,79503,0,"Snare.wav",100
Sample,79503,0,"Snare.wav",100
Sample,79784,0,"Kick.wav",100
Sample,79784,0,"Kick.wav",100
Sample,81003,0,"Snare.wav",100
Sample,81003,0,"Snare.wav",100
Sample,81284,0,"Kick.wav",100
Sample,81284,0,"Kick.wav",100
Sample,81940,0,"Snare.wav",100
Sample,81940,0,"Snare.wav",100
Sample,82503,0,"Tom.wav",100
Sample,82503,0,"Tom.wav",100
Sample,82722,0,"Kick.wav",100
Sample,82722,0,"Kick.wav",100
Sample,82847,0,"Kick.wav",100
Sample,82847,0,"Kick.wav",100
Sample,83097,0,"Kick.wav",100
Sample,83097,0,"Kick.wav",100
Sample,83222,0,"Kick.wav",100
Sample,83222,0,"Kick.wav",100
Sample,83347,0,"Kick.wav",100
Sample,83347,0,"Kick.wav",100
Sample,83628,0,"Snare.wav",100
Sample,83628,0,"Snare.wav",100
Sample,83722,0,"Snare.wav",100
Sample,83722,0,"Snare.wav",100
Sample,83909,0,"Kick.wav",100
Sample,83909,0,"Kick.wav",100
Sample,84284,0,"Kick.wav",100
Sample,84284,0,"Kick.wav",100
Sample,84659,0,"Cymbal.wav",100
Sample,84659,0,"Cymbal.wav",100
Sample,85034,0,"Kick.wav",100
Sample,85034,0,"Kick.wav",100
Sample,85128,0,"Kick.wav",100
Sample,85128,0,"Kick.wav",100
Sample,85409,0,"Kick.wav",100
Sample,85409,0,"Kick.wav",100
Sample,85784,0,"Kick.wav",100
Sample,85784,0,"Kick.wav",100
Sample,86159,0,"Cymbal.wav",100
Sample,86159,0,"Cymbal.wav",100
Sample,86534,0,"Kick.wav",100
Sample,86534,0,"Kick.wav",100
Sample,87847,0,"Kick.wav",100
Sample,87847,0,"Kick.wav",100
Sample,88034,0,"Kick.wav",100
Sample,88034,0,"Kick.wav",100
Sample,88315,0,"Tom.wav",100
Sample,88503,0,"Snare.wav",100
Sample,88503,0,"Snare.wav",100
Sample,88690,0,"Snare.wav",100
Sample,88690,0,"Snare.wav",100
Sample,88878,0,"Tom.wav",100
Sample,88878,0,"Snare.wav",100
Sample,89065,0,"Snare.wav",100
Sample,89065,0,"Tom.wav",100

[TimingPoints]
847,375,4,2,1,25,1,0
59347,-100,4,2,1,25,0,1
83347,-100,4,2,1,25,0,0

[HitObjects]
320,192,847,128,0,1222:0:0:0:0:
192,192,1409,128,0,1784:0:0:0:0:
320,192,1972,1,0,0:0:0:0:
64,192,2159,128,0,2534:0:0:0:0:
192,192,2722,1,0,0:0:0:0:
448,192,2909,128,0,3284:0:0:0:0:
64,192,3472,1,0,0:0:0:0:
320,192,3847,128,0,4409:0:0:0:0:
192,192,4597,1,0,0:0:0:0:
448,192,4972,1,0,0:0:0:0:
64,192,5159,128,0,5909:0:0:0:0:
320,192,6097,1,0,0:0:0:0:
448,192,6284,1,0,0:0:0:0:
64,192,6472,1,0,0:0:0:0:
192,192,6659,1,0,0:0:0:100:Tom.wav
448,192,6847,128,0,7597:3:3:0:100:Snare.wav
192,192,7972,1,0,0:0:0:100:Snare.wav
320,192,7972,1,0,0:0:0:0:
448,192,8347,1,0,0:0:0:100:Kick.wav
64,192,8347,128,0,8909:0:0:0:0:
448,0,8909,128,0,9284:0:0:0:100:Kick.wav
192,192,9284,1,0,0:0:0:100:Kick.wav
64,192,9472,128,0,10222:0:0:0:100:Snare.wav
448,0,10222,128,0,10597:0:0:0:100:Snare.wav
320,0,10597,128,0,10972:0:0:0:100:Kick.wav
192,0,10972,128,0,11347:0:0:0:100:Snare.wav
448,192,11347,1,0,0:0:0:100:Kick.wav
64,192,11909,1,0,0:0:0:100:Kick.wav
192,192,12097,1,0,0:0:0:0:
320,192,12284,1,0,0:0:0:100:Kick.wav
448,192,12472,1,0,0:0:0:100:Snare.wav
192,0,12659,128,0,13034:0:0:0:100:Kick.wav
64,192,13222,1,0,0:0:0:100:Snare.wav
448,192,13409,1,0,0:0:0:100:Kick.wav
320,192,13784,1,0,0:0:0:100:Kick.wav
448,192,13972,1,0,0:0:0:100:Snare.wav
64,192,13972,1,0,0:0:0:0:
64,0,14347,128,0,14909:0:0:0:100:Kick.wav
448,0,14909,128,0,15472:0:0:0:100:Kick.wav
192,192,15472,1,0,0:0:0:100:Snare.wav
320,0,15659,128,0,16222:0:0:0:100:Kick.wav
64,192,16222,1,0,0:0:0:100:Snare.wav
448,192,16409,1,0,0:0:0:100:Kick.wav
192,192,16597,128,0,16972:0:0:0:100:Kick.wav
448,192,16972,1,0,0:0:0:100:Snare.wav
64,0,17159,128,0,17722:0:0:0:100:Kick.wav
320,192,17722,1,0,0:0:0:100:Snare.wav
192,192,18097,1,0,0:0:0:100:Kick.wav
448,192,18472,1,0,0:0:0:100:Snare.wav
64,0,18659,128,0,19034:0:0:0:100:Kick.wav
448,192,19034,1,0,0:0:0:100:Kick.wav
320,192,19222,5,0,0:0:0:100:Snare.wav
192,192,19409,1,0,0:0:0:100:Kick.wav
448,192,19784,1,0,0:0:0:100:Tom.wav
320,192,19972,1,0,0:0:0:100:Tom.wav
192,192,20159,1,0,0:0:0:100:Tom.wav
448,192,20347,1,0,3:3:0:100:Rim.wav
64,192,20347,1,0,0:0:0:0:
320,192,20722,1,0,3:3:0:100:Rim.wav
192,192,21097,1,0,3:3:0:100:Rim.wav
448,192,21472,1,0,3:3:0:100:Rim.wav
64,192,21847,1,0,3:3:0:100:Rim.wav
192,192,22222,1,0,3:3:0:100:Rim.wav
448,192,22597,1,0,3:3:0:100:Rim.wav
320,192,22784,1,0,0:0:0:0:
192,192,22972,1,0,3:3:0:100:Rim.wav
64,192,23159,1,0,0:0:0:0:
320,192,23347,1,0,3:3:0:100:Rim.wav
448,192,23722,1,0,3:3:0:100:Rim.wav
192,192,24097,1,0,3:3:0:100:Rim.wav
320,192,24472,1,0,3:3:0:100:Rim.wav
64,192,24847,1,0,3:3:0:100:Rim.wav
320,192,25222,1,0,3:3:0:100:Rim.wav
192,192,25409,1,0,0:0:0:0:
448,192,25597,1,0,3:3:0:100:Rim.wav
192,192,25784,1,0,1:1:0:25:Hat.wav
64,192,25972,1,0,3:3:0:100:Rim.wav
192,192,26347,1,0,1:1:0:25:Hat.wav
64,192,26722,1,0,3:3:0:100:Rim.wav
448,192,27097,1,0,3:3:0:100:Rim.wav
64,192,27472,1,0,3:3:0:100:Rim.wav
448,192,27659,1,0,0:0:0:0:
192,192,27847,1,0,3:3:0:100:Rim.wav
320,192,28222,1,0,3:3:0:100:Rim.wav
448,192,28597,1,0,3:3:0:100:Rim.wav
192,192,28972,1,0,3:3:0:100:Rim.wav
320,192,29159,1,0,0:0:0:0:
64,192,29347,1,0,3:3:0:100:Rim.wav
448,192,29722,1,0,3:3:0:100:Rim.wav
320,192,29909,1,0,0:0:0:0:
192,192,30097,1,0,3:3:0:100:Rim.wav
64,192,30472,1,0,3:3:0:100:Rim.wav
192,192,30659,1,0,0:0:0:0:
320,192,30847,1,0,3:3:0:100:Rim.wav
320,192,31222,1,0,3:3:0:100:Rim.wav
64,192,31409,1,0,0:0:0:0:
192,192,31597,1,0,3:3:0:100:Rim.wav
320,192,31784,1,0,1:0:0:25:Hat.wav
448,192,31972,1,0,3:3:0:100:Rim.wav
192,192,32159,1,0,1:0:0:25:Hat.wav
448,192,32347,1,0,3:3:0:100:Rim.wav
320,192,32722,1,0,3:3:0:100:Rim.wav
192,192,33097,1,0,3:3:0:100:Rim.wav
64,192,33472,1,0,3:3:0:100:Rim.wav
448,192,33659,1,0,0:0:0:0:
64,192,33847,1,0,3:3:0:100:Rim.wav
192,192,34222,1,0,3:3:0:100:Rim.wav
320,192,34597,1,0,3:3:0:100:Rim.wav
192,192,34972,1,0,3:3:0:100:Rim.wav
64,192,35159,1,0,0:0:0:0:
448,192,35347,1,0,3:3:0:100:Rim.wav
64,192,35722,1,0,3:3:0:100:Rim.wav
320,192,36097,1,0,3:3:0:100:Rim.wav
448,192,36472,1,0,3:3:0:100:Rim.wav
192,192,36659,1,0,0:0:0:0:
64,192,36847,1,0,3:3:0:100:Rim.wav
448,192,37034,1,0,0:0:0:0:
320,192,37222,1,0,3:3:0:100:Rim.wav
192,192,37597,1,0,3:3:0:100:Rim.wav
320,192,37972,1,0,3:3:0:100:Rim.wav
192,192,38159,1,0,1:0:0:25:Hat.wav
320,192,38347,1,0,1:0:0:25:Hat.wav
64,192,38722,1,0,3:3:0:100:Rim.wav
448,192,39097,1,0,3:3:0:100:Rim.wav
192,192,39472,1,0,3:3:0:100:Rim.wav
320,192,39659,1,0,0:0:0:0:
64,192,39847,1,0,3:3:0:100:Rim.wav
448,192,40222,1,0,3:3:0:100:Rim.wav
192,192,40597,1,0,3:3:0:100:Rim.wav
448,192,40972,1,0,3:3:0:100:Rim.wav
320,192,41159,1,0,0:0:0:0:
64,192,41347,1,0,3:3:0:100:Rim.wav
192,192,41534,1,0,0:0:0:0:
320,192,41722,1,0,3:3:0:100:Rim.wav
448,192,41909,1,0,0:0:0:0:
192,192,42097,1,0,3:3:0:100:Rim.wav
448,192,42472,1,0,3:3:0:100:Rim.wav
64,192,42659,1,0,0:0:0:0:
320,192,42847,1,0,3:3:0:100:Rim.wav
192,192,43222,1,0,3:3:0:100:Rim.wav
320,192,43409,1,0,0:0:0:0:
448,192,43597,1,0,3:3:0:100:Rim.wav
320,192,43972,1,0,0:0:0:100:Snare.wav
192,192,43972,1,0,0:0:0:0:
448,192,44347,1,0,1:0:0:100:Kick.wav
320,192,44722,1,0,1:0:0:100:Kick.wav
192,192,45097,1,0,1:0:0:100:Kick.wav
448,192,45472,1,0,1:0:0:100:Kick.wav
192,192,45847,1,0,1:0:0:100:Kick.wav
64,192,46222,1,0,1:0:0:100:Kick.wav
448,192,46597,1,0,1:0:0:100:Kick.wav
64,192,46972,1,0,1:0:0:100:Kick.wav
320,192,47347,1,0,1:0:0:100:Kick.wav
192,192,47722,1,0,1:0:0:100:Kick.wav
320,192,48097,5,0,1:0:0:100:Kick.wav
192,192,48472,1,0,1:0:0:100:Kick.wav
64,192,48847,1,0,1:0:0:100:Kick.wav
192,0,49222,128,0,49597:1:0:0:100:Kick.wav
320,192,49597,128,0,49972:1:0:0:100:Kick.wav
448,192,49972,128,0,50347:1:0:0:100:Kick.wav
192,192,50347,1,0,1:0:0:100:Kick.wav
64,192,50722,1,0,1:0:0:100:Kick.wav
192,192,51097,1,0,1:0:0:100:Kick.wav
320,192,51472,1,0,1:0:0:100:Kick.wav
448,192,51847,1,0,1:0:0:100:Kick.wav
192,192,52222,1,0,1:0:0:100:Kick.wav
320,192,52597,1,0,1:0:0:100:Kick.wav
192,192,52784,1,0,0:0:0:0:
64,192,52972,1,0,0:0:0:100:Snare.wav
448,192,52972,1,0,0:0:0:0:
320,192,53159,1,0,0:0:0:100:Tom.wav
192,192,53347,1,0,0:0:0:100:Kick.wav
448,192,53722,1,0,0:0:0:100:Snare.wav
320,192,53722,1,0,0:0:0:100:Kick.wav
192,192,54097,1,0,0:0:0:100:Kick.wav
64,192,54472,1,0,0:0:0:100:Snare.wav
448,192,54472,1,0,0:0:0:100:Kick.wav
320,192,54847,1,0,0:0:0:100:Kick.wav
64,192,55222,1,0,0:0:0:100:Snare.wav
192,192,55222,1,0,0:0:0:100:Kick.wav
448,192,55597,1,0,0:0:0:100:Kick.wav
320,192,55972,1,0,0:0:0:100:Kick.wav
64,192,55972,1,0,0:0:0:100:Snare.wav
448,192,56347,128,0,57659:0:0:0:100:Kick.wav
192,0,57659,128,0,58222:0:0:0:100:Kick.wav
448,192,58222,1,0,0:0:0:100:Cymbal.wav
64,192,59347,128,0,59722:0:0:0:100:Kick.wav
448,192,59347,1,0,0:0:0:100:Cymbal.wav
320,192,59722,1,0,0:0:0:100:Snare.wav
448,192,60097,1,0,0:0:0:100:Kick.wav
320,192,60284,1,0,0:0:0:100:Kick.wav
64,192,60472,1,0,0:0:0:100:Snare.wav
192,192,60472,1,0,0:0:0:0:
320,192,60659,1,0,0:0:0:100:Kick.wav
448,192,61034,128,0,61222:0:0:0:100:Kick.wav
64,192,61222,1,0,0:0:0:100:Snare.wav
448,192,61597,1,0,0:0:0:100:Kick.wav
320,192,61784,1,0,0:0:0:100:Kick.wav
192,192,61972,1,0,0:0:0:100:Snare.wav
64,192,61972,1,0,0:0:0:0:
320,192,62347,1,0,0:0:0:100:Kick.wav
64,192,62722,1,0,0:0:0:100:Snare.wav
320,192,63097,1,0,0:0:0:100:Kick.wav
448,192,63097,1,0,0:0:0:0:
64,192,63284,1,0,0:0:0:100:Kick.wav
448,192,63472,1,0,0:0:0:100:Snare.wav
64,192,63659,128,0,64034:0:0:0:100:Cymbal.wav
320,192,64034,1,0,0:0:0:100:Kick.wav
448,192,64222,1,0,0:0:0:100:Snare.wav
320,192,64597,1,0,0:0:0:100:Kick.wav
64,192,64784,1,0,0:0:0:100:Kick.wav
192,192,64972,1,0,0:0:0:100:Snare.wav
448,192,64972,1,0,0:0:0:0:
320,192,65347,1,0,0:0:0:100:Kick.wav
448,192,65534,1,0,0:0:0:0:
64,192,65909,1,0,0:0:0:100:Snare.wav
320,192,66097,1,0,0:0:0:100:Snare.wav
192,192,66284,1,0,0:0:0:100:Kick.wav
64,192,66472,1,0,0:0:0:100:Kick.wav
192,192,66659,1,0,0:0:0:100:Kick.wav
320,192,66659,1,0,0:0:0:100:Cymbal.wav
448,192,67222,1,0,0:0:0:100:Snare.wav
64,192,67222,1,0,0:0:0:0:
192,192,67597,1,0,0:0:0:100:Kick.wav
320,192,67972,1,0,0:0:0:100:Snare.wav
448,192,67972,1,0,0:0:0:0:
448,192,68347,1,0,0:0:0:100:Kick.wav
320,192,68534,1,0,0:0:0:100:Kick.wav
192,192,68722,1,0,0:0:0:100:Snare.wav
64,192,68909,1,0,0:0:0:100:Kick.wav
320,192,69284,1,0,0:0:0:100:Kick.wav
64,192,69472,1,0,0:0:0:100:Snare.wav
320,192,69659,1,0,0:0:0:100:Kick.wav
448,192,69659,1,0,0:0:0:100:Cymbal.wav
320,192,70034,1,0,0:0:0:100:Kick.wav
192,192,70222,1,0,0:0:0:100:Snare.wav
64,192,70409,1,0,0:0:0:100:Kick.wav
448,192,70597,128,0,70972:0:0:0:100:Snare.wav
192,192,70972,128,0,71347:0:0:0:100:Snare.wav
448,192,71347,1,0,0:0:0:100:Kick.wav
64,192,71722,1,0,0:0:0:100:Snare.wav
448,192,71722,1,0,0:0:0:0:
64,192,72097,1,0,0:0:0:100:Kick.wav
192,192,72284,1,0,0:0:0:100:Kick.wav
320,192,72472,1,0,0:0:0:100:Snare.wav
448,192,72472,1,0,0:0:0:0:
64,192,72659,1,0,0:0:0:100:Kick.wav
320,192,73034,1,0,0:0:0:100:Kick.wav
448,192,73222,1,0,0:0:0:100:Snare.wav
64,192,73222,1,0,0:0:0:0:
64,192,73597,1,0,0:0:0:100:Kick.wav
448,192,73784,1,0,0:0:0:100:Kick.wav
320,192,73972,1,0,0:0:0:100:Snare.wav
192,192,73972,1,0,0:0:0:0:
64,192,74347,1,0,0:0:0:100:Kick.wav
448,192,74347,1,0,0:0:0:0:
192,192,74722,1,0,0:0:0:100:Snare.wav
320,192,74722,1,0,0:0:0:0:
448,192,74909,1,0,0:0:0:100:Kick.wav
192,192,75097,1,0,0:0:0:100:Kick.wav
320,192,75284,1,0,0:0:0:100:Snare.wav
192,192,75472,1,0,0:0:0:100:Snare.wav
448,192,75659,1,0,0:0:0:100:Cymbal.wav
64,192,75659,1,0,0:0:0:100:Kick.wav
192,192,76034,1,0,0:0:0:100:Kick.wav
64,192,76222,1,0,0:0:0:100:Snare.wav
320,192,76409,1,0,0:0:0:100:Kick.wav
448,192,76409,1,0,0:0:0:100:Cymbal.wav
64,192,76784,1,0,0:0:0:100:Kick.wav
448,192,76972,1,0,0:0:0:100:Snare.wav
192,192,77159,1,0,0:0:0:100:Snare.wav
448,192,77347,1,0,0:0:0:100:Cymbal.wav
64,192,77347,1,0,0:0:0:0:
192,192,77722,1,0,0:0:0:100:Snare.wav
320,192,77722,1,0,0:0:0:0:
448,192,78097,1,0,0:0:0:100:Kick.wav
192,192,78472,1,0,0:0:0:100:Snare.wav
64,192,78659,1,0,0:0:0:100:Kick.wav
448,192,78659,1,0,0:0:0:100:Cymbal.wav
320,192,79034,1,0,0:0:0:100:Kick.wav
64,192,79222,128,0,79597:0:0:0:100:Snare.wav
192,192,79597,128,0,79972:0:0:0:100:Kick.wav
320,192,79972,128,0,80347:0:0:0:100:Snare.wav
448,192,80347,128,0,80722:0:0:0:100:Kick.wav
64,192,80722,1,0,0:0:0:100:Snare.wav
192,192,81097,1,0,0:0:0:100:Kick.wav
320,192,81472,1,0,0:0:0:100:Snare.wav
448,192,81472,1,0,0:0:0:0:
64,192,81659,1,0,0:0:0:100:Kick.wav
320,192,82034,1,0,0:0:0:100:Kick.wav
448,192,82222,1,0,0:0:0:100:Snare.wav
192,192,82409,1,0,0:0:0:100:Tom.wav
448,192,82597,128,0,82972:0:0:0:100:Kick.wav
64,192,82972,128,0,83347:0:0:0:100:Kick.wav
448,192,83347,128,0,83909:0:0:0:100:Cymbal.wav
192,0,83909,128,0,84472:0:0:0:100:Cymbal.wav
448,192,84472,1,0,0:0:0:100:Snare.wav
64,0,84659,128,0,85222:0:0:0:100:Kick.wav
320,192,85222,1,0,0:0:0:100:Snare.wav
448,0,85409,128,0,85972:0:0:0:100:Cymbal.wav
192,192,85972,1,0,0:0:0:100:Snare.wav
320,0,86159,128,0,86722:0:0:0:100:Kick.wav
192,192,86722,1,0,0:0:0:100:Snare.wav
64,192,86909,1,0,0:0:0:0:
448,192,87097,1,0,0:0:0:100:Kick.wav
64,192,87284,1,0,0:0:0:100:Kick.wav
320,192,87472,1,0,0:0:0:100:Snare.wav
64,192,87659,128,0,88222:0:0:0:0:
448,192,88222,1,0,0:0:0:100:Snare.wav
320,192,88409,1,0,0:0:0:100:Snare.wav
192,192,88597,1,0,0:0:0:100:Snare.wav
64,192,88784,1,0,0:0:0:100:Tom.wav
192,192,88972,1,0,0:0:0:100:Tom.wav
448,0,89159,128,0,95347:0:0:0:100:Cymbal.wav
64,192,89159,1,0,0:0:0:100:Kick.wav
