osu file format v14

[General]
AudioFilename: audio.mp3
AudioLeadIn: 0
PreviewTime: 50467
Countdown: 0
SampleSet: Soft
StackLeniency: 0.4
Mode: 0
LetterboxInBreaks: 0
WidescreenStoryboard: 1

[Editor]
Bookmarks: 88700,212563
DistanceSpacing: 3.1
BeatDivisor: 4
GridSize: 4
TimelineZoom: 1.9

[Metadata]
Title:My Secret (TV Size)
TitleUnicode:My Secret (TV Size)
Artist:Mizuno Saaya
ArtistUnicode:水野佐彩
Creator:Peter
Version:browiec's Normal
Source:Maid-sama!
Tags:meido 会長はメイド様! Kaichou wa Maid Sama! japanese anime opening venix marianna browiec
BeatmapID:2347977
BeatmapSetID:1123648

[Difficulty]
HPDrainRate:4
CircleSize:3.5
OverallDifficulty:4
ApproachRate:5
SliderMultiplier:0.999999999999999
SliderTickRate:1

[Events]
//Background and Video events
0,0,"1577218434_19-45.jpg",0,0
Video,200,"iloveanime.mp4"
//Break Periods
2,17176,18385
//Storyboard Layer 0 (Background)
//Storyboard Layer 1 (Fail)
//Storyboard Layer 2 (Pass)
//Storyboard Layer 3 (Foreground)
//Storyboard Layer 4 (Overlay)
//Storyboard Sound Samples

[TimingPoints]
20,326.086956521739,4,2,1,80,1,0
1324,-100,4,2,1,60,0,0
6541,-100,4,2,1,65,0,0
14367,-100,4,2,1,50,0,0
19585,-100,4,2,1,40,0,0
30019,-100,4,2,1,50,0,0
40128,-100,4,2,1,60,0,0
50563,-100,4,2,1,70,0,0
50889,-100,4,2,1,80,0,0
73063,-100,4,2,1,80,0,0
74367,-100,4,2,1,80,0,0
76976,-100,4,2,1,65,0,0
84802,-100,4,2,1,60,0,0

[Colours]
Combo1 : 209,250,252
Combo2 : 233,255,185
Combo3 : 255,99,23
Combo4 : 210,0,0

[HitObjects]
15,182,1324,6,0,P|58:161|163:262,1,200,6|0,0:0|0:0,0:0:0:0:
201,326,2302,1,2,0:0:0:0:
277,278,2628,2,0,L|388:285,1,99.9999999999999,6|2,0:0|0:0,0:0:0:0:
454,238,3280,2,0,L|461:127,1,99.9999999999999,2|2,0:0|0:0,0:0:0:0:
415,60,3933,6,0,B|322:22|253:90|253:90|209:187|99:163,1,350,6|0,0:0|0:0,0:0:0:0:
64,180,5237,6,0,L|53:286,1,99.9999999999999,8|8,0:0|0:0,0:0:0:0:
80,327,5726,1,8,0:0:0:0:
80,327,5889,1,8,0:0:0:0:
176,354,6215,2,0,L|233:351,1,50,8|8,0:0|0:0,0:0:0:0:
269,326,6541,6,0,P|287:285|268:218,1,99.9999999999999,6|8,0:0|0:0,0:0:0:0:
220,156,7193,1,4,0:3:0:0:
220,156,7356,1,4,0:3:0:0:
277,73,7683,2,0,P|314:52|378:60,1,99.9999999999999,4|0,0:3|0:0,0:0:0:0:
413,89,8172,1,8,0:0:0:0:
413,89,8335,2,0,L|407:194,1,99.9999999999999,2|4,0:2|0:3,0:0:0:0:
441,224,8824,1,8,0:0:0:0:
483,314,9150,6,0,P|442:324|376:297,1,99.9999999999999,4|8,0:3|0:0,0:0:0:0:
318,235,9802,1,4,0:3:0:0:
318,235,9965,1,4,0:3:0:0:
246,305,10291,2,0,L|134:308,1,99.9999999999999,4|4,0:3|0:3,0:0:0:0:
103,281,10780,1,10,0:0:0:0:
103,281,10943,2,0,P|78:234|88:180,1,99.9999999999999,4|0,0:3|0:0,0:0:0:0:
115,150,11433,1,8,0:0:0:0:
212,172,11759,6,0,P|256:187|323:168,1,99.9999999999999,4|8,0:3|0:0,0:0:0:0:
371,101,12411,1,4,0:3:0:0:
371,101,12574,1,4,0:3:0:0:
302,28,12900,2,0,L|192:32,1,99.9999999999999,2|2,0:0|0:0,0:0:0:0:
103,50,13552,2,0,L|107:160,1,99.9999999999999,4|4,0:3|0:3,0:0:0:0:
84,194,14041,1,8,0:0:0:0:
163,253,14367,5,6,0:0:0:0:
256,192,14693,12,2,16976,0:0:0:0:
163,253,19585,5,4,0:0:0:0:
225,175,19911,2,0,P|266:171|318:216,1,99.9999999999999,4|4,0:3|0:3,0:0:0:0:
331,249,20400,1,2,0:0:0:0:
384,333,20726,2,0,P|430:340|488:316,1,99.9999999999999,2|2,0:0|0:0,0:0:0:0:
499,224,21378,2,0,L|493:121,1,99.9999999999999,2|2,0:0|0:0,0:0:0:0:
456,90,21867,1,4,0:3:0:0:
361,58,22193,5,4,0:3:0:0:
277,112,22519,2,0,L|282:224,2,99.9999999999999,4|4|4,0:3|0:3|0:3,0:0:0:0:
207,39,23498,2,0,P|152:33|101:69,1,99.9999999999999,4|4,0:3|0:3,0:0:0:0:
51,131,24150,1,4,0:3:0:0:
103,215,24476,1,4,0:3:0:0:
200,194,24802,6,0,L|317:189,1,99.9999999999999,4|4,0:3|0:3,0:0:0:0:
330,150,25291,2,0,L|447:155,1,99.9999999999999,2|0,0:0|0:0,0:0:0:0:
475,131,25780,2,0,P|465:83|478:23,2,99.9999999999999,4|4|4,0:3|0:3|0:3,0:0:0:0:
501,228,26759,2,0,L|493:340,1,99.9999999999999,4|4,0:3|0:3,0:0:0:0:
403,371,27411,6,0,P|356:367|314:275,1,150,6|6,0:0|0:0,0:0:0:0:
371,145,28389,2,0,P|375:87|284:40,1,150,6|4,0:0|0:3,0:0:0:0:
259,55,29041,1,4,0:3:0:0:
207,140,29367,1,4,0:3:0:0:
264,221,29693,1,8,0:0:0:0:
211,306,30019,5,2,0:0:0:0:
110,302,30346,2,0,P|55:308|1:286,1,99.9999999999999,8|2,0:0|0:0,0:0:0:0:
0,246,30835,1,4,0:3:0:0:
21,148,31161,2,0,P|74:141|128:154,1,99.9999999999999,10|4,0:0|0:3,0:0:0:0:
197,212,31813,2,0,P|250:219|304:206,1,99.9999999999999,2|0,0:0|0:0,0:0:0:0:
325,169,32302,1,10,0:0:0:0:
412,121,32628,5,4,0:3:0:0:
486,187,32954,2,0,L|483:300,1,99.9999999999999,10|2,0:0|0:0,0:0:0:0:
459,331,33443,1,4,0:3:0:0:
366,369,33769,2,0,P|322:357|292:301,1,99.9999999999999,10|4,0:0|0:3,0:0:0:0:
293,263,34259,1,8,0:0:0:0:
325,169,34585,1,4,0:3:0:0:
266,87,34911,1,10,0:0:0:0:
167,103,35237,6,0,P|115:95|65:132,1,99.9999999999999,4|8,0:3|0:0,0:0:0:0:
33,144,35726,2,0,L|39:266,1,99.9999999999999,2|4,0:0|0:3,0:0:0:0:
61,288,36215,1,2,0:0:0:0:
61,288,36378,2,0,P|109:306|200:255,1,150,10|10,0:0|0:0,0:0:0:0:
261,192,37193,2,0,P|308:185|364:207,1,99.9999999999999,2|10,0:0|0:0,0:0:0:0:
438,259,37846,5,4,0:3:0:0:
499,180,38172,2,0,L|503:79,1,99.9999999999999,8|2,0:0|0:0,0:0:0:0:
472,40,38661,1,4,0:3:0:0:
372,43,38987,2,0,P|353:71|347:146,1,99.9999999999999,8|4,0:0|0:3,0:0:0:0:
320,179,39476,2,0,P|339:207|345:282,1,99.9999999999999,8|8,0:0|0:0,0:0:0:0:
320,313,39965,1,8,0:0:0:0:
320,313,40128,1,2,0:0:0:0:
230,356,40454,6,0,L|122:349,1,99.9999999999999,4|4,0:3|0:3,0:0:0:0:
50,288,41106,2,0,L|57:180,1,99.9999999999999,4|8,0:3|0:0,0:0:0:0:
133,123,41759,1,4,0:3:0:0:
220,171,42085,1,4,0:3:0:0:
296,106,42411,2,0,P|343:94|418:159,1,150,4|0,0:3|0:0,0:0:0:0:
401,200,43063,6,0,B|377:257|377:257|406:357,2,150,4|2|10,0:3|0:0|0:0,0:0:0:0:
491,157,44367,2,0,L|495:55,1,99.9999999999999,4|4,0:3|0:3,0:0:0:0:
408,6,45019,1,4,0:3:0:0:
325,63,45346,1,10,0:0:0:0:
356,157,45672,6,0,P|394:183|419:244,2,99.9999999999999,4|8|4,0:3|0:0|0:3,0:0:0:0:
261,190,46650,1,8,0:0:0:0:
261,190,46813,2,0,L|140:182,1,99.9999999999999,2|0,0:0|0:0,0:0:0:0:
119,155,47302,1,8,0:0:0:0:
37,212,47628,2,0,P|20:260|35:315,1,99.9999999999999,4|8,0:3|0:0,0:0:0:0:
109,367,48280,5,8,0:0:0:0:
109,367,48443,2,0,L|220:362,1,99.9999999999999,8|8,0:0|0:0,0:0:0:0:
253,339,48933,1,8,0:0:0:0:
308,255,49259,1,8,0:0:0:0:
308,255,49422,2,0,P|323:200|299:152,1,99.9999999999999,8|8,0:0|0:0,0:0:0:0:
272,126,49911,1,8,0:0:0:0:
314,35,50237,2,0,L|424:27,1,99.9999999999999,8|2,0:0|0:0,0:0:0:0:
492,88,50889,6,0,P|510:126|499:198,1,99.9999999999999,6|8,0:0|0:0,0:0:0:0:
478,224,51378,2,0,L|368:218,1,99.9999999999999,2|4,0:0|0:3,0:0:0:0:
332,237,51867,1,8,0:0:0:0:
332,237,52030,2,0,B|246:233|288:293|178:291,1,150,2|10,0:0|0:0,0:0:0:0:
106,248,52846,1,4,0:3:0:0:
92,148,53172,1,10,0:0:0:0:
170,85,53498,6,0,L|272:91,1,99.9999999999999,6|8,0:0|0:0,0:0:0:0:
310,120,53987,2,0,P|333:164|314:221,1,99.9999999999999,2|2,0:0|0:0,0:0:0:0:
299,257,54476,1,8,0:0:0:0:
299,257,54639,2,0,P|276:301|295:358,1,99.9999999999999,2|0,0:0|0:0,0:0:0:0:
330,373,55128,1,10,0:0:0:0:
427,352,55454,2,0,L|433:244,1,99.9999999999999,2|8,0:0|0:0,0:0:0:0:
441,206,55943,1,2,0:0:0:0:
441,206,56106,6,0,P|386:197|344:154,1,99.9999999999999,6|10,0:0|0:0,0:0:0:0:
328,125,56596,1,2,0:0:0:0:
235,86,56922,1,2,0:0:0:0:
162,155,57248,2,0,L|170:258,1,99.9999999999999,2|4,0:0|0:3,0:0:0:0:
139,294,57737,1,10,0:0:0:0:
39,283,58063,2,0,P|14:248|22:178,1,99.9999999999999,2|10,0:0|0:0,0:0:0:0:
40,150,58552,1,2,0:0:0:0:
40,150,58715,6,0,P|56:98|50:47,2,99.9999999999999,6|8|4,0:0|0:0|0:3,0:0:0:0:
127,197,59693,1,10,0:0:0:0:
127,197,59856,2,0,L|236:202,1,99.9999999999999,2|4,0:0|0:3,0:0:0:0:
260,238,60346,1,10,0:0:0:0:
358,255,60672,1,10,0:0:0:0:
416,173,60998,1,10,0:0:0:0:
368,85,61324,6,0,L|265:76,1,99.9999999999999,6|8,0:0|0:0,0:0:0:0:
220,91,61813,2,0,P|204:131|226:203,1,99.9999999999999,2|2,0:0|0:0,0:0:0:0:
248,223,62302,1,8,0:0:0:0:
248,223,62465,2,0,P|264:263|205:351,1,150,2|8,0:0|0:0,0:0:0:0:
113,345,63280,1,2,0:0:0:0:
49,267,63606,1,8,0:0:0:0:
75,170,63933,6,0,L|183:159,1,99.9999999999999,6|8,0:0|0:0,0:0:0:0:
200,117,64422,2,0,L|308:128,1,99.9999999999999,2|2,0:0|0:0,0:0:0:0:
342,101,64911,1,8,0:0:0:0:
342,101,65074,2,0,P|393:82|452:105,1,99.9999999999999,2|8,0:0|0:0,0:0:0:0:
468,130,65563,1,10,0:0:0:0:
409,211,65889,2,0,L|416:313,1,99.9999999999999,0|10,0:0|0:0,0:0:0:0:
391,354,66378,1,2,0:0:0:0:
391,354,66541,6,0,P|341:364|292:332,1,99.9999999999999,6|8,0:0|0:0,0:0:0:0:
226,273,67193,1,8,0:0:0:0:
136,318,67519,1,8,0:0:0:0:
49,267,67846,2,0,L|39:162,1,99.9999999999999,8|8,0:0|0:0,0:0:0:0:
62,123,68335,1,4,0:3:0:0:
62,123,68498,2,0,P|112:106|170:126,1,99.9999999999999,8|12,0:0|0:0,0:0:0:0:
233,181,69150,6,0,P|283:198|341:178,1,99.9999999999999,4|8,0:3|0:0,0:0:0:0:
378,101,69802,1,8,0:0:0:0:
477,103,70128,1,8,0:0:0:0:
511,196,70454,2,0,L|508:303,1,99.9999999999999,8|8,0:0|0:0,0:0:0:0:
430,358,71106,2,0,P|386:362|334:329,1,99.9999999999999,8|8,0:0|0:0,0:0:0:0:
324,286,71596,1,4,0:3:0:0:
324,286,71759,6,0,L|328:175,1,99.9999999999999,6|8,0:0|0:0,0:0:0:0:
297,146,72248,2,0,P|245:132|192:158,1,99.9999999999999,4|8,0:3|0:0,0:0:0:0:
184,194,72737,1,4,0:3:0:0:
121,272,73063,2,0,L|62:268,1,50,8|8,0:0|0:0,0:0:0:0:
30,239,73389,1,14,0:0:0:0:
308,127,74367,6,0,L|313:22,2,99.9999999999999,6|8|2,0:0|0:0|0:0,0:0:0:0:
355,215,75346,1,12,0:0:0:0:
355,215,75509,2,0,P|403:224|452:273,1,99.9999999999999,4|8,0:3|0:0,0:0:0:0:
438,305,75998,1,8,0:0:0:0:
368,376,76324,1,8,0:0:0:0:
268,363,76650,1,10,0:0:0:0:
220,275,76976,6,0,P|202:234|221:167,1,99.9999999999999,6|8,0:0|0:0,0:0:0:0:
301,134,77628,1,4,0:3:0:0:
301,134,77791,1,4,0:3:0:0:
231,62,78118,2,0,P|194:41|130:49,1,99.9999999999999,4|4,0:3|0:3,0:0:0:0:
95,78,78607,1,8,0:0:0:0:
95,78,78770,2,0,L|101:183,1,99.9999999999999,2|4,0:2|0:3,0:0:0:0:
67,213,79259,1,8,0:0:0:0:
25,304,79585,6,0,P|66:314|132:287,1,99.9999999999999,2|8,0:0|0:0,0:0:0:0:
197,233,80237,1,4,0:3:0:0:
197,233,80400,1,4,0:3:0:0:
266,304,80726,2,0,L|378:307,1,99.9999999999999,2|4,0:0|0:3,0:0:0:0:
409,281,81215,1,10,0:0:0:0:
409,281,81378,2,0,P|434:234|424:180,1,99.9999999999999,4|4,0:3|0:3,0:0:0:0:
397,150,81868,1,8,0:0:0:0:
300,172,82194,6,0,P|256:187|189:168,1,99.9999999999999,4|8,0:3|0:0,0:0:0:0:
141,101,82846,1,4,0:3:0:0:
141,101,83009,1,4,0:3:0:0:
210,28,83335,2,0,L|320:32,1,99.9999999999999,2|2,0:0|0:0,0:0:0:0:
409,50,83987,2,0,L|405:160,1,99.9999999999999,4|2,0:3|0:0,0:0:0:0:
428,194,84476,1,8,0:0:0:0:
349,253,84802,5,4,0:3:0:0:
256,192,85128,12,4,86759,0:3:0:0:
349,253,87411,6,0,P|360:202|352:149,1,99.9999999999999,6|8,0:0|0:0,0:0:0:0:
291,77,88063,2,0,L|232:71,1,50,8|8,0:0|0:0,0:0:0:0:
201,102,88389,1,8,0:0:0:0:
201,102,88552,1,8,0:0:0:0:
