osu file format v14

[General]
AudioFilename: audio.mp3
AudioLeadIn: 0
PreviewTime: 50467
Countdown: 0
SampleSet: Soft
StackLeniency: 0.4
Mode: 0
LetterboxInBreaks: 0
WidescreenStoryboard: 0

[Editor]
Bookmarks: 19570,88700,212563
DistanceSpacing: 1.4
BeatDivisor: 4
GridSize: 8
TimelineZoom: 1.9

[Metadata]
Title:My Secret (TV Size)
TitleUnicode:My Secret (TV Size)
Artist:Mizuno Saaya
ArtistUnicode:水野佐彩
Creator:Peter
Version:Maid
Source:Maid-sama!
Tags:meido 会長はメイド様! Kaichou wa Maid Sama! japanese anime opening venix marianna browiec
BeatmapID:2347976
BeatmapSetID:1123648

[Difficulty]
HPDrainRate:6
CircleSize:4
OverallDifficulty:9
ApproachRate:9.2
SliderMultiplier:2.2
SliderTickRate:1

[Events]
//Background and Video events
0,0,"1577218434_19-45.jpg",0,0
Video,200,"iloveanime.mp4"
//Break Periods
//Storyboard Layer 0 (Background)
//Storyboard Layer 1 (Fail)
//Storyboard Layer 2 (Pass)
//Storyboard Layer 3 (Foreground)
//Storyboard Layer 4 (Overlay)
//Storyboard Sound Samples

[TimingPoints]
20,326.086956521739,4,2,1,80,1,0
1324,-142.857142857143,4,2,1,60,0,0
6541,-111.111111111111,4,2,1,65,0,0
14367,-166.666666666667,4,2,1,50,0,0
19585,-166.666666666667,4,2,1,40,0,0
27818,-166.666666666667,4,2,1,5,0,0
27900,-166.666666666667,4,2,1,40,0,0
28308,-166.666666666667,4,2,1,5,0,0
28389,-166.666666666667,4,2,1,40,0,0
28797,-166.666666666667,4,2,1,10,0,0
28878,-166.666666666667,4,2,1,40,0,0
30019,-166.666666666667,4,2,1,50,0,0
40128,-166.666666666667,4,2,1,60,0,0
50563,-100,4,2,1,70,0,0
50808,-100,4,2,1,5,0,0
50889,-100,4,2,1,80,0,1
73063,-166.666666666667,4,2,1,80,0,0
74367,-100,4,2,1,80,0,0
76976,-111.111111111111,4,2,1,65,0,0
84802,-142.857142857143,4,2,1,60,0,0

[Colours]
Combo1 : 209,250,252
Combo2 : 184,211,143
Combo3 : 255,92,15
Combo4 : 210,0,0

[HitObjects]
0,111,1324,6,0,B|171:125|56:239|278:252,1,307.999990600586,6|0,0:0|0:0,0:0:0:0:
258,250,2302,6,0,P|263:294|266:344,1,76.9999976501466,2|0,0:0|0:0,0:0:0:0:
350,170,2628,2,0,L|364:324,1,153.999995300293,6|2,0:0|0:0,0:0:0:0:
463,0,3280,2,0,L|469:153,1,153.999995300293,2|2,0:0|0:0,0:0:0:0:
37,111,3933,6,0,B|110:80|110:80|189:122,1,153.999995300293,6|0,0:0|0:0,0:0:0:0:
106,177,4422,1,2,0:0:0:0:
229,298,4585,6,0,P|256:185|193:223,1,269.499991775513,2|0,0:0|0:0,0:0:0:0:
151,282,5237,1,8,0:0:0:0:
305,384,5400,1,8,0:0:0:0:
334,360,5481,1,8,0:0:0:0:
376,353,5563,1,8,0:0:0:0:
412,359,5644,1,8,0:0:0:0:
448,384,5726,1,8,0:0:0:0:
363,212,5889,5,8,0:0:0:0:
395,210,5971,1,8,0:0:0:0:
430,208,6052,1,8,0:0:0:0:
462,205,6134,1,8,0:0:0:0:
493,204,6215,1,8,0:0:0:0:
220,215,6378,1,8,0:0:0:0:
238,370,6541,6,0,B|245:267|251:230|271:145,1,197.99999395752,6|8,0:0|0:0,0:0:0:0:
264,174,7193,1,4,0:3:0:0:
157,45,7356,2,0,P|166:105|174:158,1,98.9999969787599,4|12,0:3|0:0,0:0:0:0:
254,26,7682,1,4,0:3:0:0:
73,128,7845,6,0,B|77:227|149:218|133:329,1,197.99999395752,2|8,0:0|0:0,0:0:0:0:
310,365,8334,2,0,P|281:253|180:268,1,197.99999395752,2|4,0:2|0:3,0:0:0:0:
232,332,8824,1,8,0:0:0:0:
336,202,8987,1,2,0:0:0:0:
506,321,9150,6,0,L|309:287,1,197.99999395752,4|8,0:3|0:0,0:0:0:0:
310,287,9802,1,4,0:3:0:0:
386,125,9965,2,0,P|425:162|434:219,1,98.9999969787599,4|8,0:3|0:0,0:0:0:0:
241,71,10291,6,0,B|158:123|158:123|56:70,1,197.99999395752,4|4,0:3|0:3,0:0:0:0:
0,232,10780,1,10,0:0:0:0:
95,207,10943,1,4,0:3:0:0:
0,346,11106,6,0,P|97:357|201:380,1,197.99999395752,2|8,0:0|0:0,0:0:0:0:
376,303,11595,1,2,0:0:0:0:
354,283,11677,1,2,0:0:0:0:
331,265,11758,6,0,B|316:196|316:196|339:144|339:144|325:31,1,197.99999395752,4|8,0:3|0:0,0:0:0:0:
330,74,12411,1,4,0:3:0:0:
198,194,12574,1,4,0:3:0:0:
227,92,12737,1,8,0:0:0:0:
380,195,12900,6,0,P|419:202|492:217,1,98.9999969787599,2|4,0:0|0:3,0:0:0:0:
324,345,13226,2,0,P|285:338|212:323,1,98.9999969787599,2|8,0:0|0:0,0:0:0:0:
0,379,13552,6,0,P|15:330|90:329,1,98.9999969787599,4|0,0:3|0:0,0:0:0:0:
0,122,13878,2,0,P|15:168|60:181,2,98.9999969787599,4|8|0,0:3|0:0|0:0,0:0:0:0:
202,246,14367,5,6,0:0:0:0:
202,246,14693,1,0,0:0:0:0:
202,246,15019,2,0,L|123:258,2,65.9999979858399,2|0|0,0:0|0:0|0:0,0:0:0:0:
316,355,15509,2,0,L|186:339,1,131.99999597168,2|0,0:0|0:0,0:0:0:0:
356,253,15998,1,0,0:0:0:0:
356,253,16161,1,2,0:0:0:0:
356,253,16487,6,0,L|274:231,2,65.9999979858399,0|0|0,0:0|0:0|0:0,0:0:0:0:
332,89,16976,2,0,L|314:178,1,65.9999979858399,2|0,0:0|0:0,0:0:0:0:
280,329,17302,1,2,0:0:0:0:
280,329,17628,6,0,L|361:306,2,65.9999979858399,0|0|0,0:0|0:0|0:0,0:0:0:0:
76,374,18117,2,0,B|112:381|112:381|145:362|145:362|212:376,1,131.99999597168,2|2,0:0|0:0,0:0:0:0:
86,281,18606,1,0,0:0:0:0:
239,204,18769,1,8,0:0:0:0:
216,185,18851,1,8,0:0:0:0:
191,166,18933,6,8,L|192:119,1,32.99999899292,8|0,0:0|0:0,0:0:0:0:
197,28,19096,1,4,0:3:0:0:
318,136,19259,1,8,0:0:0:0:
138,243,19422,1,0,0:0:0:0:
255,361,19585,6,0,L|261:292,1,65.9999979858399,4|0,0:0|0:0,0:0:0:0:
366,212,19911,2,0,L|360:290,1,65.9999979858399,4|0,0:3|0:0,0:0:0:0:
355,384,20237,1,4,0:3:0:0:
260,295,20400,6,0,P|227:302|205:331,1,65.9999979858399,0|4,0:0|0:3,0:0:0:0:
53,384,20726,2,0,L|72:235,1,131.99999597168,2|2,0:0|0:0,0:0:0:0:
69,252,21378,6,0,L|-15:267,1,65.9999979858399,2|4,0:0|0:3,0:0:0:0:
120,172,21704,1,2,0:0:0:0:
60,101,21867,1,4,0:3:0:0:
60,101,22030,1,2,0:0:0:0:
213,192,22193,6,0,L|361:163,1,131.99999597168,4|4,0:3|0:3,0:0:0:0:
342,166,22846,6,0,L|312:96,1,65.9999979858399,4|0,0:3|0:0,0:0:0:0:
382,251,23172,1,4,0:3:0:0:
382,251,23335,1,0,0:0:0:0:
285,326,23498,2,0,L|202:305,1,65.9999979858399,4|0,0:3|0:0,0:0:0:0:
89,383,23824,2,0,L|153:371,1,65.9999979858399,4|0,0:3|0:0,0:0:0:0:
84,251,24150,1,4,0:3:0:0:
84,251,24313,1,2,0:0:0:0:
5,305,24476,1,4,0:3:0:0:
51,174,24639,1,2,0:0:0:0:
191,264,24802,6,0,B|236:267|236:267|266:287|266:287|339:296,1,131.99999597168,4|4,0:3|0:3,0:0:0:0:
397,186,25291,2,0,P|336:161|304:219,1,131.99999597168,2|0,0:0|0:0,0:0:0:0:
316,293,25780,1,4,0:3:0:0:
224,377,25943,6,0,L|94:358,1,131.99999597168,2|0,0:0|0:0,0:0:0:0:
56,195,26433,2,0,L|70:266,1,65.9999979858399,4|0,0:3|0:0,0:0:0:0:
10,384,26759,2,0,L|-2:304,1,65.9999979858399,4|0,0:3|0:0,0:0:0:0:
157,276,27085,2,0,L|239:288,1,65.9999979858399,4|0,0:3|0:0,0:0:0:0:
475,217,27411,6,0,B|422:214|422:214|376:228|376:228|305:221,1,164.9999949646,6|0,0:0|0:0,0:0:0:0:
120,172,27900,2,0,P|175:116|247:146,1,164.9999949646,6|0,0:0|0:0,0:0:0:0:
223,324,28389,2,0,L|59:296,1,164.9999949646,6|0,0:0|0:0,0:0:0:0:
14,214,28878,5,4,0:3:0:0:
104,113,29041,1,4,0:3:0:0:
104,113,29204,1,4,0:3:0:0:
222,234,29367,1,4,0:3:0:0:
323,68,29530,1,4,0:3:0:0:
253,148,29693,1,8,0:0:0:0:
253,148,29856,1,0,0:0:0:0:
298,340,30019,5,2,0:0:0:0:
298,340,30346,6,0,L|375:353,1,65.9999979858399,8|0,0:0|0:0,0:0:0:0:
246,253,30672,1,2,0:0:0:0:
184,358,30835,2,0,L|102:344,1,65.9999979858399,4|0,0:3|0:0,0:0:0:0:
0,217,31161,2,0,B|34:257|34:257|18:363,1,131.99999597168,10|4,0:0|0:3,0:0:0:0:
126,234,31650,1,8,0:0:0:0:
22,335,31813,6,0,P|67:326|125:391,1,131.99999597168,2|0,0:0|0:0,0:0:0:0:
131,239,32302,1,10,0:0:0:0:
131,239,32465,1,2,0:0:0:0:
286,313,32628,2,0,L|223:288,1,65.9999979858399,4|0,0:3|0:0,0:0:0:0:
436,348,32954,2,0,P|426:307|410:191,1,131.99999597168,10|2,0:0|0:0,0:0:0:0:
400,141,33362,1,8,0:0:0:0:
396,117,33443,1,4,0:3:0:0:
507,222,33606,5,2,0:0:0:0:
319,294,33769,1,10,0:0:0:0:
319,294,34096,5,4,0:3:0:0:
202,137,34259,1,8,0:0:0:0:
90,243,34422,5,2,0:0:0:0:
96,253,34503,1,2,0:0:0:0:
101,263,34585,2,0,L|35:270,1,65.9999979858399,4|0,0:3|0:0,0:0:0:0:
164,370,34911,1,10,0:0:0:0:
240,207,35074,1,0,0:0:0:0:
360,333,35237,6,0,L|229:310,1,131.99999597168,4|8,0:3|0:0,0:0:0:0:
348,227,35726,2,0,L|502:251,1,131.99999597168,2|4,0:0|0:3,0:0:0:0:
491,80,36215,1,0,0:0:0:0:
393,125,36378,2,0,L|261:105,1,131.99999597168,10|4,0:0|0:3,0:0:0:0:
219,273,36867,6,0,P|212:223|206:187,1,65.9999979858399,10|0,0:0|0:0,0:0:0:0:
75,307,37193,2,0,L|159:339,1,65.9999979858399,2|0,0:0|0:0,0:0:0:0:
42,192,37519,2,0,L|100:147,1,65.9999979858399,10|0,0:0|0:0,0:0:0:0:
219,273,37846,6,0,B|266:264|266:264|295:279|295:279|371:263,1,131.99999597168,4|8,0:3|0:0,0:0:0:0:
345,268,38498,6,0,L|432:291,2,65.9999979858399,2|4|0,0:0|0:3|0:0,0:0:0:0:
481,212,38987,1,8,0:0:0:0:
481,212,39313,5,0,0:0:0:0:
374,105,39476,2,0,L|389:199,1,65.9999979858399,8|0,0:0|0:0,0:0:0:0:
399,245,39721,1,8,0:0:0:0:
405,266,39802,1,8,0:0:0:0:
411,288,39884,1,8,0:0:0:0:
416,310,39965,1,8,0:0:0:0:
207,359,40128,6,0,P|176:352|134:346,1,65.9999979858399,2|0,0:0|0:0,0:0:0:0:
5,291,40454,2,0,L|85:276,1,65.9999979858399,4|0,0:3|0:0,0:0:0:0:
193,220,40780,2,0,L|128:207,1,65.9999979858399,4|0,0:3|0:0,0:0:0:0:
0,135,41106,2,0,L|80:120,1,65.9999979858399,4|0,0:3|0:0,0:0:0:0:
239,87,41433,1,8,0:0:0:0:
239,87,41759,6,0,L|218:7,1,65.9999979858399,4|0,0:3|0:0,0:0:0:0:
360,30,42085,2,0,L|338:106,1,65.9999979858399,4|0,0:3|0:0,0:0:0:0:
413,251,42411,6,0,P|341:212|287:196,1,131.99999597168,4|8,0:3|0:0,0:0:0:0:
428,158,42900,1,0,0:0:0:0:
296,305,43063,2,0,B|242:325|242:325|215:317|215:317|143:341,1,131.99999597168,4|4,0:3|0:3,0:0:0:0:
35,244,43552,2,0,P|51:299|60:386,1,131.99999597168,2|0,0:0|0:0,0:0:0:0:
139,235,44041,2,0,L|215:214,1,65.9999979858399,10|0,0:0|0:0,0:0:0:0:
130,72,44367,6,0,P|70:93|73:155,1,131.99999597168,4|4,0:3|0:3,0:0:0:0:
218,72,44856,1,2,0:0:0:0:
297,137,45019,2,0,L|299:202,1,65.9999979858399,4|0,0:3|0:0,0:0:0:0:
385,37,45346,2,0,L|390:105,1,65.9999979858399,10|0,0:0|0:0,0:0:0:0:
512,273,45672,6,0,P|451:226|385:236,1,131.99999597168,4|8,0:3|0:0,0:0:0:0:
398,230,46324,6,0,L|413:318,1,65.9999979858399,4|0,0:3|0:0,0:0:0:0:
267,384,46650,1,8,0:0:0:0:
236,298,46813,2,0,P|300:302|346:348,1,131.99999597168,2|0,0:0|0:0,0:0:0:0:
162,354,47302,5,8,0:0:0:0:
134,347,47384,1,8,0:0:0:0:
110,340,47465,1,8,0:0:0:0:
86,334,47547,1,8,0:0:0:0:
63,328,47628,2,0,L|60:376,3,32.99999899292,4|8|8|8,0:3|0:0|0:0|0:0,0:0:0:0:
10,266,47954,2,0,L|16:186,1,65.9999979858399,8|0,0:0|0:0,0:0:0:0:
365,139,48280,5,8,0:0:0:0:
165,216,48443,1,8,0:0:0:0:
155,303,48769,5,8,0:0:0:0:
250,112,48933,1,8,0:0:0:0:
74,136,49259,5,8,0:0:0:0:
285,196,49422,1,8,0:0:0:0:
406,113,49748,5,8,0:0:0:0:
351,322,49911,1,8,0:0:0:0:
206,215,50237,5,8,0:0:0:0:
153,192,50318,1,8,0:0:0:0:
152,147,50400,1,8,0:0:0:0:
193,113,50481,1,8,0:0:0:0:
249,134,50563,6,0,B|298:109|298:109|249:80|194:113,1,165,2|0,0:0|0:0,0:0:0:0:
15,128,50889,6,0,B|138:131|75:214|213:216,1,220,6|8,0:0|0:0,0:0:0:0:
410,31,51378,2,0,P|353:6|307:33,1,110,2|4,0:0|0:3,0:0:0:0:
457,217,51705,1,4,0:3:0:0:
358,96,51868,1,8,0:0:0:0:
288,274,52031,6,0,B|364:287|364:287|420:323|420:323|511:332,1,220,2|0,0:0|0:0,0:0:0:0:
183,97,52520,2,0,P|193:169|196:221,1,110,10|0,0:0|0:0,0:0:0:0:
0,347,52846,2,0,P|10:275|13:223,1,110,4|4,0:3|0:3,0:0:0:0:
273,307,53172,1,10,0:0:0:0:
126,382,53335,1,2,0:0:0:0:
368,227,53498,6,0,P|295:161|184:236,1,220,6|8,0:0|0:0,0:0:0:0:
402,357,53987,2,0,L|528:334,1,110,2|4,0:0|0:3,0:0:0:0:
347,118,54313,2,0,L|368:229,1,110,2|8,0:0|0:0,0:0:0:0:
187,353,54639,6,0,B|266:366|266:366|327:346|327:346|403:357,1,220,2|0,0:0|0:0,0:0:0:0:
75,361,55128,2,0,P|79:307|123:276,1,110,10|0,0:0|0:0,0:0:0:0:
64,55,55455,2,0,P|116:47|139:195,1,220,2|8,0:0|0:0,0:0:0:0:
25,186,55944,1,2,0:0:0:0:
237,249,56107,6,0,B|358:258|326:174|481:209,1,220,6|10,0:0|0:0,0:0:0:0:
162,78,56596,2,0,B|137:127|137:127|169:194,1,110,2|0,0:0|0:0,0:0:0:0:
0,384,56922,2,0,B|25:335|25:335|-7:268,1,110,2|8,0:0|0:0,0:0:0:0:
294,382,57248,6,0,P|314:266|207:272,1,220,2|4,0:0|0:3,0:0:0:0:
440,14,57737,2,0,P|402:58|436:102,1,110,10|0,0:0|0:0,0:0:0:0:
237,249,58063,2,0,P|258:201|221:165,1,110,2|0,0:0|0:0,0:0:0:0:
368,384,58389,1,10,0:0:0:0:
461,215,58552,1,2,0:0:0:0:
231,362,58715,6,0,B|293:362|325:310|325:310|363:353|462:324,2,220,6|8|4,0:0|0:0|0:3,0:0:0:0:
231,362,59694,1,10,0:0:0:0:
395,228,59857,2,0,P|398:124|274:128,1,220,2|4,0:0|0:3,0:0:0:0:
105,282,60346,5,10,0:0:0:0:
187,121,60509,1,2,0:0:0:0:
140,384,60672,5,10,0:0:0:0:
63,176,60835,1,2,0:0:0:0:
311,229,60998,5,10,0:0:0:0:
140,384,61161,1,6,0:3:0:0:
183,376,61242,1,4,0:3:0:0:
230,366,61324,6,0,L|262:118,1,220,6|8,0:0|0:0,0:0:0:0:
44,264,61813,2,0,P|97:264|137:227,1,110,2|4,0:0|0:3,0:0:0:0:
329,78,62139,2,0,P|289:41|235:41,1,110,2|8,0:0|0:0,0:0:0:0:
307,273,62465,6,0,B|422:284|380:184|545:229,1,220,2|8,0:0|0:0,0:0:0:0:
329,78,62955,1,8,0:0:0:0:
329,78,63281,6,0,P|225:93|284:147,1,220,2|8,0:0|0:0,0:0:0:0:
474,309,63770,1,0,0:0:0:0:
114,337,63933,6,0,P|213:290|321:270,1,220,6|8,0:0|0:0,0:0:0:0:
57,91,64422,2,0,P|75:148|86:230,1,110,2|0,0:0|0:0,0:0:0:0:
294,376,64748,2,0,P|303:321|320:269,1,110,2|8,0:0|0:0,0:0:0:0:
476,45,65074,6,0,P|330:53|341:113,1,220,2|8,0:0|0:0,0:0:0:0:
444,233,65563,1,10,0:0:0:0:
150,235,65726,2,0,B|269:248|230:166|369:179,1,220,2|0,0:0|1:0,0:0:0:0:
223,369,66215,1,10,0:0:0:0:
344,323,66378,1,2,0:0:0:0:
150,235,66541,2,0,B|102:234|102:234|86:246|86:246|36:243,1,110,6|0,0:0|0:0,0:0:0:0:
150,72,66868,5,8,0:0:0:0:
341,182,67031,1,4,0:3:0:0:
310,57,67194,5,8,0:0:0:0:
231,291,67357,1,4,0:3:0:0:
470,274,67520,5,8,0:0:0:0:
233,159,67683,1,4,0:3:0:0:
348,358,67846,5,8,0:0:0:0:
348,358,68009,1,4,0:3:0:0:
405,146,68172,1,8,0:0:0:0:
312,199,68335,1,4,0:3:0:0:
184,10,68498,6,0,P|195:63|200:118,1,110,8|4,0:0|0:3,0:0:0:0:
469,274,68824,2,0,P|474:222|488:158,1,110,12|4,0:0|0:3,0:0:0:0:
251,279,69150,6,0,B|159:257|127:332|127:332|203:378,1,220,4|8,0:3|0:0,0:0:0:0:
187,368,69802,1,8,0:0:0:0:
178,136,69965,1,4,0:3:0:0:
12,347,70128,5,8,0:0:0:0:
281,210,70291,1,4,0:3:0:0:
51,158,70455,5,8,0:0:0:0:
251,318,70618,1,4,0:3:0:0:
207,69,70781,5,8,0:0:0:0:
129,244,70944,1,4,0:3:0:0:
327,218,71107,1,8,0:0:0:0:
222,167,71270,1,4,0:3:0:0:
168,349,71433,5,8,0:0:0:0:
127,154,71596,1,4,0:3:0:0:
326,324,71759,6,0,B|193:313|246:242|124:243,1,220,6|8,0:0|0:0,0:0:0:0:
0,384,72248,1,4,0:3:0:0:
3,143,72411,1,4,0:3:0:0:
4,178,72493,1,8,0:0:0:0:
3,214,72574,1,8,0:0:0:0:
170,89,72737,1,4,0:3:0:0:
155,35,72818,1,4,0:3:0:0:
117,76,72900,5,4,0:3:0:0:
173,287,73063,1,8,0:0:0:0:
355,133,73226,1,8,0:0:0:0:
156,306,73389,1,14,0:0:0:0:
270,107,74367,6,0,B|208:207|323:208|246:326,1,220,6|8,0:0|0:0,0:0:0:0:
366,161,74856,1,2,0:0:0:0:
500,334,75019,2,0,P|411:309|379:303,1,110,2|0,0:0|0:0,0:0:0:0:
122,207,75346,6,0,P|190:326|281:288,1,220,12|0,0:0|0:0,0:0:0:0:
283,105,75835,1,8,0:0:0:0:
203,241,75998,1,8,0:0:0:0:
147,77,76161,5,8,0:0:0:0:
335,195,76324,1,8,0:0:0:0:
113,306,76487,1,8,0:0:0:0:
352,345,76650,5,10,0:0:0:0:
321,321,76731,1,2,0:0:0:0:
283,310,76813,1,10,0:0:0:0:
244,320,76894,1,2,0:0:0:0:
217,347,76976,6,0,P|226:234|250:122,1,197.99999395752,6|8,0:0|0:0,0:0:0:0:
242,151,77628,1,4,0:3:0:0:
115,282,77791,2,0,P|69:263|21:252,1,98.9999969787599,4|12,0:3|0:0,0:0:0:0:
47,375,78117,1,4,0:3:0:0:
121,195,78280,6,0,B|127:77|153:-9,1,197.99999395752,2|8,0:0|0:0,0:0:0:0:
454,78,78769,2,0,B|318:73|384:154|238:137,1,197.99999395752,2|4,0:2|0:3,0:0:0:0:
121,195,79259,1,8,0:0:0:0:
222,226,79422,1,2,0:0:0:0:
188,22,79585,6,0,P|276:47|274:139,1,197.99999395752,2|8,0:0|0:0,0:0:0:0:
274,139,80237,1,4,0:3:0:0:
18,97,80400,2,0,P|76:105|116:109,1,98.9999969787599,4|8,0:3|0:0,0:0:0:0:
246,268,80726,6,0,B|188:244|178:198|178:198|140:234|65:219,1,197.99999395752,2|4,0:0|0:3,0:0:0:0:
215,358,81215,1,10,0:0:0:0:
328,235,81378,1,4,0:3:0:0:
511,343,81541,6,0,P|389:362|310:377,1,197.99999395752,2|8,0:0|0:0,0:0:0:0:
484,243,82030,1,2,0:0:0:0:
495,201,82112,1,2,0:0:0:0:
506,163,82193,6,0,P|399:130|445:56,1,197.99999395752,4|8,0:3|0:0,0:0:0:0:
415,73,82846,1,4,0:3:0:0:
353,216,83009,1,4,0:3:0:0:
285,119,83172,1,8,0:0:0:0:
179,316,83335,6,0,P|218:323|291:338,1,98.9999969787599,2|4,0:0|0:3,0:0:0:0:
122,156,83661,2,0,P|83:163|10:178,1,98.9999969787599,2|8,0:0|0:0,0:0:0:0:
46,380,83987,6,0,P|69:316|88:256,1,98.9999969787599,4|0,0:3|0:0,0:0:0:0:
89,62,84313,2,0,P|106:109|122:156,2,98.9999969787599,2|8|0,0:0|0:0|0:0,0:0:0:0:
229,316,84802,6,0,L|73:285,1,153.999995300293,4|8,0:3|0:0,0:0:0:0:
77,285,85454,1,4,0:3:0:0:
196,140,85617,2,0,L|121:155,1,76.9999976501466,0|8,0:0|0:0,0:0:0:0:
304,328,85943,6,0,L|228:315,2,76.9999976501466,2|4|0,0:0|0:3|0:0,0:0:0:0:
403,190,86433,1,8,0:0:0:0:
411,380,86596,2,0,L|408:287,2,76.9999976501466,0|4|0,0:0|0:3|0:0,0:0:0:0:
287,209,87085,1,10,0:0:0:0:
260,215,87166,1,2,0:0:0:0:
213,181,87248,1,2,0:0:0:0:
159,183,87329,1,2,0:0:0:0:
116,221,87411,6,0,L|135:40,1,153.999995300293,6|8,0:0|0:0,0:0:0:0:
282,10,87900,1,8,0:0:0:0:
282,10,87981,1,8,0:0:0:0:
282,10,88063,1,8,0:0:0:0:
409,191,88226,1,8,0:0:0:0:
419,156,88308,1,8,0:0:0:0:
428,121,88389,1,8,0:0:0:0:
373,349,88552,6,0,L|278:370,1,76.9999976501466,8|2,0:0|0:0,0:0:0:0:
