osu file format v14

[General]
AudioFilename: audio.mp3
AudioLeadIn: 0
PreviewTime: 50467
Countdown: 0
SampleSet: Soft
StackLeniency: 0.4
Mode: 0
LetterboxInBreaks: 0
WidescreenStoryboard: 1

[Editor]
Bookmarks: 88700,212563
DistanceSpacing: 1.4
BeatDivisor: 4
GridSize: 8
TimelineZoom: 1.9

[Metadata]
Title:My Secret (TV Size)
TitleUnicode:My Secret (TV Size)
Artist:Mizuno Saaya
ArtistUnicode:水野佐彩
Creator:Peter
Version:Hard
Source:Maid-sama!
Tags:meido 会長はメイド様! Kaichou wa Maid Sama! japanese anime opening venix marianna browiec
BeatmapID:2347975
BeatmapSetID:1123648

[Difficulty]
HPDrainRate:5
CircleSize:4
OverallDifficulty:6
ApproachRate:7.5
SliderMultiplier:1.3
SliderTickRate:1

[Events]
//Background and Video events
0,0,"1577218434_19-45.jpg",0,0
Video,200,"iloveanime.mp4"
//Break Periods
//Storyboard Layer 0 (Background)
//Storyboard Layer 1 (Fail)
//Storyboard Layer 2 (Pass)
//Storyboard Layer 3 (Foreground)
//Storyboard Layer 4 (Overlay)
//Storyboard Sound Samples

[TimingPoints]
20,326.086956521739,4,2,1,80,1,0
1324,-125,4,2,1,80,0,0
6541,-100,4,2,1,80,0,0
14367,-125,4,2,1,50,0,0
19585,-111.111111111111,4,2,1,40,0,0
27818,-111.111111111111,4,2,1,5,0,0
27900,-111.111111111111,4,2,1,40,0,0
28308,-111.111111111111,4,2,1,5,0,0
28389,-111.111111111111,4,2,1,40,0,0
28797,-111.111111111111,4,2,1,5,0,0
28878,-111.111111111111,4,2,1,40,0,0
30019,-111.111111111111,4,2,1,50,0,0
40128,-111.111111111111,4,2,1,60,0,0
50563,-111.111111111111,4,2,1,70,0,0
50889,-90.9090909090909,4,2,1,80,0,1
73063,-100,4,2,1,80,0,0
74367,-100,4,2,1,80,0,0
76976,-100,4,2,1,65,0,0
84802,-111.111111111111,4,2,1,60,0,0

[Colours]
Combo1 : 209,250,252
Combo2 : 233,255,185
Combo3 : 255,99,23
Combo4 : 210,0,0

[HitObjects]
475,121,1325,6,0,B|253:76,1,208,6|0,0:0|0:0,0:0:0:0:
147,156,2303,2,0,P|144:205|141:220,1,52,2|0,0:0|0:0,0:0:0:0:
94,261,2629,6,0,B|141:249|141:249|156:254|156:254|214:246,1,104,6|2,0:0|0:0,0:0:0:0:
317,169,3281,2,0,P|364:213|344:264,1,104,2|2,0:0|0:0,0:0:0:0:
230,176,3934,6,0,B|205:55,1,104,6|0,0:0|0:0,0:0:0:0:
259,21,4423,1,2,0:0:0:0:
316,65,4586,2,0,B|411:62|370:100|462:107,1,156,2|0,0:0|0:0,0:0:0:0:
494,172,5238,5,8,0:0:0:0:
459,239,5401,1,8,0:0:0:0:
459,239,5482,1,8,0:0:0:0:
459,239,5564,2,0,L|462:288,2,26,8|8|8,0:0|0:0|0:0,0:0:0:0:
383,213,5890,1,8,0:0:0:0:
383,213,5972,1,8,0:0:0:0:
383,213,6053,2,0,L|387:166,2,26,8|8|8,0:0|0:0|0:0,0:0:0:0:
244,330,6542,6,0,B|251:227|274:181,1,130,6|8,0:0|0:0,0:0:0:0:
97,132,7194,1,4,0:3:0:0:
131,47,7357,2,0,P|191:38|218:37,1,65,4|12,0:3|0:0,0:0:0:0:
279,2,7683,1,4,0:3:0:0:
334,74,7846,6,0,P|393:111|444:69,1,130,2|8,0:0|0:0,0:0:0:0:
486,159,8335,2,0,L|470:299,1,130,2|4,0:2|0:3,0:0:0:0:
457,378,8825,1,8,0:0:0:0:
457,378,8988,1,2,0:0:0:0:
369,354,9151,6,0,P|314:372|269:307,1,130,4|8,0:3|0:0,0:0:0:0:
94,377,9803,1,4,0:3:0:0:
23,320,9966,2,0,L|35:231,1,65,4|8,0:3|0:0,0:0:0:0:
45,165,10292,6,0,B|107:189|107:189|164:153,1,130,4|4,0:3|0:3,0:0:0:0:
230,96,10781,1,10,0:0:0:0:
230,96,10944,1,4,0:3:0:0:
227,5,11107,2,0,B|302:12|267:49|353:49,1,130,2|8,0:0|0:0,0:0:0:0:
365,146,11596,1,2,0:0:0:0:
365,146,11678,1,2,0:0:0:0:
365,146,11759,6,0,B|338:275,1,130,4|8,0:3|0:0,0:0:0:0:
498,185,12412,1,4,0:3:0:0:
451,107,12575,2,0,L|444:28,1,65,4|8,0:3|0:0,0:0:0:0:
360,10,12901,6,0,P|321:17|271:28,1,65,2|4,0:0|0:3,0:0:0:0:
224,77,13227,2,0,P|185:70|133:60,1,65,2|8,0:0|0:0,0:0:0:0:
94,127,13553,2,0,L|120:264,1,130,4|4,0:3|0:3,0:0:0:0:
366,368,14368,5,6,0:0:0:0:
460,256,14694,1,0,0:0:0:0:
326,198,15020,2,0,L|343:270,2,52,2|0|0,0:0|0:0|0:0,0:0:0:0:
267,153,15510,6,0,L|146:129,1,104,2|0,0:0|0:0,0:0:0:0:
93,117,15999,1,0,0:0:0:0:
93,117,16162,1,2,0:0:0:0:
125,258,16488,2,0,L|56:247,2,52
179,306,16977,6,0,L|161:372,1,52,2|0,0:0|0:0,0:0:0:0:
235,375,17303,1,2,0:0:0:0:
366,312,17629,2,0,L|432:333,2,52
355,240,18118,6,0,B|380:198|380:198|360:136,1,104,2|2,0:0|0:0,0:0:0:0:
341,76,18607,1,0,0:0:0:0:
407,35,18770,1,8,0:0:0:0:
407,35,18852,1,8,0:0:0:0:
407,35,18934,2,8,L|408:-1,2,26,8|4|4,0:0|0:3|0:3,0:0:0:0:
456,88,19260,1,8,0:0:0:0:
492,247,19586,5,4,0:0:0:0:
343,315,19912,2,0,L|269:303,1,58.4999982147217,4|0,0:3|0:0,0:0:0:0:
231,367,20238,1,4,0:3:0:0:
157,330,20401,2,0,P|124:337|98:360,1,58.4999982147217,0|4,0:0|0:3,0:0:0:0:
26,377,20727,6,0,L|45:236,1,116.999996429443,2|2,0:0|0:0,0:0:0:0:
148,136,21379,2,0,L|66:152,1,58.4999982147217,2|0,0:0|0:0,0:0:0:0:
45,86,21705,2,0,L|-19:101,2,58.4999982147217,2|4|2,0:0|0:3|0:0,0:0:0:0:
90,25,22194,6,0,L|232:2,1,116.999996429443,4|4,0:3|0:3,0:0:0:0:
261,163,22847,2,0,L|271:105,1,58.4999982147217,4|0,0:3|0:0,0:0:0:0:
344,64,23173,1,4,0:3:0:0:
344,64,23336,1,0,0:0:0:0:
407,115,23499,6,0,L|475:133,1,58.4999982147217,4|0,0:3|0:0,0:0:0:0:
488,207,23825,1,4,0:3:0:0:
348,291,24151,2,0,L|363:361,2,58.4999982147217,4|2|4,0:3|0:0|0:3,0:0:0:0:
290,233,24640,1,2,0:0:0:0:
227,286,24803,6,0,B|173:291|173:291|168:300|168:300|100:308,1,116.999996429443,4|4,0:3|0:3,0:0:0:0:
60,246,25292,2,0,P|2:223|17:167,1,116.999996429443,2|0,0:0|0:0,0:0:0:0:
56,112,25781,1,4,0:3:0:0:
128,149,25944,6,0,L|249:135,1,116.999996429443,2|0,0:0|0:0,0:0:0:0:
299,196,26434,2,0,L|291:264,1,58.4999982147217,4|0,0:3|0:0,0:0:0:0:
372,267,26760,2,0,L|382:198,1,58.4999982147217,4|0,0:3|0:0,0:0:0:0:
461,219,27086,2,0,L|452:277,1,58.4999982147217,4|0,0:3|0:0,0:0:0:0:
403,359,27412,6,0,B|350:356|350:356|313:369|313:369|242:361,1,146.249995536804,6|0,0:0|0:0,0:0:0:0:
219,353,27901,2,0,P|215:274|159:251,1,146.249995536804,6|0,0:0|0:0,0:0:0:0:
120,261,28390,2,0,L|83:103,1,146.249995536804,6|0,0:0|0:0,0:0:0:0:
77,78,28879,6,0,L|1:66,2,58.4999982147217,4|4|4,0:3|0:3|0:3,0:0:0:0:
150,41,29368,1,4,0:3:0:0:
150,41,29531,1,4,0:3:0:0:
223,87,29694,1,8,0:0:0:0:
372,19,30020,5,2,0:0:0:0:
468,152,30347,2,0,L|456:223,1,58.4999982147217,8|0,0:0|0:0,0:0:0:0:
441,289,30673,1,2,0:0:0:0:
376,239,30836,2,0,L|297:226,1,58.4999982147217,4|0,0:3|0:0,0:0:0:0:
256,185,31162,6,0,B|282:217|282:217|264:300,1,116.999996429443,10|4,0:0|0:3,0:0:0:0:
246,369,31651,1,8,0:0:0:0:
184,315,31814,2,0,P|139:306|89:351,1,116.999996429443,2|0,0:0|0:0,0:0:0:0:
19,308,32303,1,10,0:0:0:0:
19,308,32466,1,2,0:0:0:0:
51,232,32629,6,0,L|29:168,1,58.4999982147217,4|0,0:3|0:0,0:0:0:0:
70,104,32955,2,0,L|200:127,1,116.999996429443,10|2,0:0|0:0,0:0:0:0:
225,131,33363,1,8,0:0:0:0:
225,131,33444,2,0,L|222:57,1,58.4999982147217,4|2,0:3|0:0,0:0:0:0:
291,28,33770,1,10,0:0:0:0:
391,157,34097,5,4,0:3:0:0:
431,228,34260,1,8,0:0:0:0:
323,351,34586,2,0,L|262:355,1,58.4999982147217,4|0,0:3|0:0,0:0:0:0:
215,296,34912,1,10,0:0:0:0:
215,296,35075,1,0,0:0:0:0:
147,342,35238,6,0,P|101:303|115:237,1,116.999996429443,4|8,0:3|0:0,0:0:0:0:
32,211,35727,2,0,B|52:169|52:169|33:93,1,116.999996429443,2|4,0:0|0:3,0:0:0:0:
73,28,36216,1,0,0:0:0:0:
138,77,36379,2,0,L|256:63,1,116.999996429443,10|4,0:0|0:3,0:0:0:0:
298,131,36868,6,0,P|291:181|287:214,1,58.4999982147217,10|0,0:0|0:0,0:0:0:0:
224,238,37194,2,0,L|244:315,1,58.4999982147217,2|0,0:0|0:0,0:0:0:0:
313,325,37520,2,0,L|364:282,1,58.4999982147217,10|0,0:0|0:0,0:0:0:0:
397,215,37847,6,0,B|435:209|435:209|463:219|463:219|532:211,1,116.999996429443,4|8,0:3|0:0,0:0:0:0:
445,63,38499,2,0,L|462:-3,2,58.4999982147217,2|4|0,0:0|0:3|0:0,0:0:0:0:
387,121,38988,1,8,0:0:0:0:
260,16,39314,5,0,0:0:0:0:
199,70,39477,2,0,L|211:151,1,58.4999982147217,8|0,0:0|0:0,0:0:0:0:
231,161,39722,2,0,L|241:212,3,29.2499991073609,8|8|8|8,0:0|0:0|0:0|0:0,0:0:0:0:
185,253,40129,1,2,0:0:0:0:
314,352,40455,6,0,L|386:338,1,58.4999982147217,4|0,0:3|0:0,0:0:0:0:
453,341,40781,2,0,L|471:275,1,58.4999982147217,4|0,0:3|0:0,0:0:0:0:
408,229,41107,2,0,L|389:154,1,58.4999982147217,4|0,0:3|0:0,0:0:0:0:
376,91,41434,1,8,0:0:0:0:
224,153,41760,6,0,L|156:140,1,58.4999982147217,4|0,0:3|0:0,0:0:0:0:
119,75,42086,2,0,L|37:92,1,58.4999982147217,4|0,0:3|0:0,0:0:0:0:
22,158,42412,2,0,P|46:215|68:283,1,116.999996429443,4|8,0:3|0:0,0:0:0:0:
95,342,42901,1,0,0:0:0:0:
168,306,43064,6,0,B|206:321|206:321|229:317|229:317|299:337,1,116.999996429443,4|4,0:3|0:3,0:0:0:0:
358,352,43553,2,0,P|350:286|298:261,1,116.999996429443,2|0,0:0|0:0,0:0:0:0:
256,201,44042,2,0,L|277:134,1,58.4999982147217,10|0,0:0|0:0,0:0:0:0:
334,90,44368,6,0,P|394:69|403:15,1,116.999996429443,4|4,0:3|0:3,0:0:0:0:
486,12,44857,1,2,0:0:0:0:
503,91,45020,2,0,L|493:158,1,58.4999982147217,4|0,0:3|0:0,0:0:0:0:
427,197,45347,2,0,L|440:259,1,58.4999982147217,10|0,0:0|0:0,0:0:0:0:
477,326,45673,6,0,P|422:287|356:306,1,116.999996429443,4|8,0:3|0:0,0:0:0:0:
216,329,46325,2,0,L|225:271,1,58.4999982147217,4|0,0:3|0:0,0:0:0:0:
240,190,46651,1,8,0:0:0:0:
215,111,46814,2,0,P|279:115|316:155,1,116.999996429443,2|0,0:0|0:0,0:0:0:0:
351,223,47303,2,0,L|395:215,3,29.2499991073609,8|8|8|8,0:0|0:0|0:0|0:0,0:0:0:0:
408,247,47629,2,0,L|453:242,3,29.2499991073609,4|8|8|8,0:3|0:0|0:0|0:0,0:0:0:0:
463,270,47954,2,0,L|469:345,1,58.4999982147217,8|0,0:0|0:0,0:0:0:0:
408,375,48281,5,8,0:0:0:0:
339,331,48444,1,8,0:0:0:0:
180,373,48770,5,8,0:0:0:0:
205,294,48934,1,8,0:0:0:0:
97,170,49260,5,8,0:0:0:0:
174,144,49423,1,8,0:0:0:0:
277,16,49749,5,8,0:0:0:0:
329,78,49912,1,8,0:0:0:0:
461,174,50238,2,0,L|445:221,3,29.2499991073609,8|0|8|0,0:0|0:0|0:0|0:0,0:0:0:0:
432,238,50564,6,0,B|447:310,1,58.4999982147217,2|0,0:0|0:0,0:0:0:0:
331,332,50890,6,0,P|257:306|214:350,1,143.000004364014,6|8,0:0|0:0,0:0:0:0:
135,384,51379,2,0,L|122:294,1,71.5000021820069,2|4,0:0|0:3,0:0:0:0:
59,246,51704,1,4,0:3:0:0:
121,176,51867,1,8,0:0:0:0:
109,83,52030,6,0,B|157:90|157:90|180:112|180:112|256:120,1,143.000004364014,2|0,0:0|0:0,0:0:0:0:
327,48,52519,2,0,P|346:120|340:128,1,71.5000021820069,10|0,0:0|0:0,0:0:0:0:
312,194,52846,2,0,P|322:266|321:286,1,71.5000021820069,4|4,0:3|0:3,0:0:0:0:
263,336,53172,1,10,0:0:0:0:
345,379,53335,1,2,0:0:0:0:
441,325,53498,6,0,L|460:182,1,143.000004364014,6|8,0:0|0:0,0:0:0:0:
505,102,53988,2,0,L|494:28,1,71.5000021820069,2|4,0:0|0:3,0:0:0:0:
408,66,54314,2,0,L|332:31,1,71.5000021820069,2|8,0:0|0:0,0:0:0:0:
278,102,54640,6,0,B|228:104|228:104|204:89|204:89|132:94,1,143.000004364014,2|0,0:0|0:0,0:0:0:0:
86,0,55129,2,0,P|43:31|32:67,1,71.5000021820069,10|0,0:0|0:0,0:0:0:0:
17,138,55454,2,0,P|62:179|83:259,1,143.000004364014,2|8,0:0|0:0,0:0:0:0:
35,336,55943,1,2,0:0:0:0:
155,361,56106,6,0,B|225:362|204:315|297:318,1,143.000004364014,6|10,0:0|0:0,0:0:0:0:
375,287,56597,2,0,B|361:369,1,71.5000021820069,2|0,0:0|0:0,0:0:0:0:
455,370,56923,2,0,B|469:280,1,71.5000021820069,2|8,0:0|0:0,0:0:0:0:
430,192,57249,6,0,P|413:122|474:93,1,143.000004364014,2|4,0:0|0:3,0:0:0:0:
409,17,57738,2,0,L|322:30,1,71.5000021820069,10|0,0:0|0:0,0:0:0:0:
266,86,58064,2,0,L|188:77,1,71.5000021820069,2|0,0:0|0:0,0:0:0:0:
117,26,58390,1,10,0:0:0:0:
44,84,58553,1,2,0:0:0:0:
84,189,58716,6,0,B|60:237|60:237|84:339,2,143.000004364014,6|8|4,0:0|0:0|0:3,0:0:0:0:
217,319,59693,1,10,0:0:0:0:
294,269,59856,6,0,L|448:284,1,143.000004364014,2|4,0:0|0:3,0:0:0:0:
473,196,60346,2,0,L|448:110,1,71.5000021820069,10|2,0:0|0:0,0:0:0:0:
426,38,60672,1,10,0:0:0:0:
349,91,60835,1,2,0:0:0:0:
267,28,60999,1,10,0:0:0:0:
202,92,61162,1,6,0:3:0:0:
202,92,61243,1,4,0:3:0:0:
202,92,61325,6,0,L|217:246,1,143.000004364014,6|8,0:0|0:0,0:0:0:0:
244,322,61814,2,0,P|191:322|163:299,1,71.5000021820069,2|4,0:0|0:3,0:0:0:0:
125,235,62140,2,0,P|72:235|44:258,1,71.5000021820069,2|8,0:0|0:0,0:0:0:0:
3,319,62466,6,0,B|-24:249|40:262|-10:159,1,143.000004364014,2|8,0:0|0:0,0:0:0:0:
35,94,62954,1,8,0:0:0:0:
210,33,63280,2,0,P|314:48|355:60,1,143.000004364014,2|8,0:0|0:0,0:0:0:0:
432,15,63769,1,0,0:0:0:0:
482,117,63933,6,0,P|435:216|427:265,1,143.000004364014,6|8,0:0|0:0,0:0:0:0:
350,297,64422,2,0,L|363:378,1,71.5000021820069,2|0,0:0|0:0,0:0:0:0:
269,380,64748,2,0,L|257:297,1,71.5000021820069,2|8,0:0|0:0,0:0:0:0:
173,237,65075,6,0,P|107:220|77:277,1,143.000004364014,2|8,0:0|0:0,0:0:0:0:
4,218,65564,1,10,0:0:0:0:
61,145,65727,2,0,B|32:-7,1,143.000004364014,2|0,0:0|1:0,0:0:0:0:
122,32,66216,1,10,0:0:0:0:
122,32,66379,1,2,0:0:0:0:
211,6,66542,2,0,B|295:29,1,71.5000021820069,6|0,0:0|0:0,0:0:0:0:
361,49,66867,5,8,0:0:0:0:
328,128,67030,1,4,0:3:0:0:
395,180,67193,2,0,L|373:264,1,71.5000021820069,8|4,0:0|0:3,0:0:0:0:
421,322,67519,1,8,0:0:0:0:
345,363,67683,6,0,L|255:374,2,71.5000021820069,4|8|4,0:3|0:0|0:3,0:0:0:0:
298,290,68173,1,8,0:0:0:0:
215,311,68336,1,4,0:3:0:0:
175,235,68499,2,0,P|186:182|187:146,1,71.5000021820069,8|4,0:0|0:3,0:0:0:0:
162,82,68825,2,0,P|214:87|250:96,1,71.5000021820069,12|4,0:0|0:3,0:0:0:0:
317,10,69151,6,0,B|329:176,1,143.000004364014,4|8,0:3|0:0,0:0:0:0:
293,320,69803,1,8,0:0:0:0:
217,279,69966,1,4,0:3:0:0:
161,344,70129,2,0,L|69:331,1,71.5000021820069,8|4,0:0|0:3,0:0:0:0:
33,269,70455,6,0,P|66:203|61:190,1,71.5000021820069,8|4,0:0|0:3,0:0:0:0:
24,143,70781,1,8,0:0:0:0:
24,143,70943,1,4,0:3:0:0:
57,66,71106,1,8,0:0:0:0:
57,66,71269,1,4,0:3:0:0:
138,95,71433,2,0,L|210:121,1,71.5000021820069,8|4,0:0|0:3,0:0:0:0:
309,32,71760,6,0,B|331:184,1,143.000004364014,6|8,0:0|0:0,0:0:0:0:
341,258,72249,1,4,0:3:0:0:
417,215,72411,1,4,0:3:0:0:
417,215,72492,1,8,0:0:0:0:
417,215,72574,1,8,0:0:0:0:
451,293,72737,2,0,L|444:339,2,35.7500010910034,4|4|4,0:3|0:3|0:3,0:0:0:0:
508,231,73064,5,8,0:0:0:0:
492,147,73227,1,8,0:0:0:0:
476,63,73390,1,14,0:0:0:0:
52,104,74368,6,0,B|30:263,1,130,6|8,0:0|0:0,0:0:0:0:
16,321,74857,1,2,0:0:0:0:
102,293,75020,2,0,P|144:313|178:340,1,65,2|0,0:0|0:0,0:0:0:0:
250,316,75347,6,0,P|271:348|355:325,1,130,12|0,0:0|0:0,0:0:0:0:
429,287,75836,2,0,L|441:210,1,65,8|8,0:0|0:0,0:0:0:0:
449,132,76162,1,8,0:0:0:0:
367,172,76325,1,8,0:0:0:0:
306,104,76488,1,8,0:0:0:0:
229,153,76651,2,0,L|182:165,3,32.5,10|2|10|2,0:0|0:0|0:0|0:0,0:0:0:0:
156,140,76977,6,0,P|149:212|89:186,1,130,6|8,0:0|0:0,0:0:0:0:
221,351,77629,1,4,0:3:0:0:
302,312,77792,2,0,P|340:319|390:333,1,65,4|12,0:3|0:0,0:0:0:0:
450,356,78117,2,0,B|442:279|479:213,1,130,2|4,0:0|0:3,0:0:0:0:
509,147,78606,5,8,0:0:0:0:
502,55,78770,2,0,B|423:62|451:105|365:106,1,130,2|4,0:2|0:3,0:0:0:0:
300,70,79260,1,8,0:0:0:0:
260,151,79423,1,2,0:0:0:0:
188,96,79586,6,0,L|54:125,1,130,2|8,0:0|0:0,0:0:0:0:
161,275,80238,1,4,0:3:0:0:
246,306,80401,2,0,L|232:384,1,65,4|8,0:3|0:0,0:0:0:0:
325,378,80727,6,0,B|428:341|465:342,1,130,2|4,0:0|0:3,0:0:0:0:
396,269,81216,1,10,0:0:0:0:
443,191,81379,2,0,P|433:131|373:129,1,130,2|4,0:0|0:3,0:0:0:0:
283,113,81868,1,8,0:0:0:0:
256,35,82031,1,2,0:0:0:0:
256,35,82113,1,2,0:0:0:0:
256,35,82194,6,0,P|181:58|110:73,1,130,4|8,0:3|0:0,0:0:0:0:
10,204,82847,1,4,0:3:0:0:
70,271,83010,2,0,L|150:255,1,65,4|8,0:3|0:0,0:0:0:0:
206,313,83336,6,0,P|245:320|288:333,1,65,2|4,0:0|0:3,0:0:0:0:
351,287,83662,2,0,P|390:280|433:267,1,65,2|8,0:0|0:0,0:0:0:0:
394,184,83988,2,0,P|417:120|421:115,1,65,4|0,0:3|0:0,0:0:0:0:
340,70,84314,2,0,L|319:-2,2,65,2|8|0,0:0|0:0|0:0,0:0:0:0:
283,129,84803,6,0,L|163:107,1,116.999996429443,4|8,0:3|0:0,0:0:0:0:
111,261,85455,1,4,0:3:0:0:
42,215,85618,2,0,L|25:149,1,58.4999982147217,0|8,0:0|0:0,0:0:0:0:
10,78,85944,6,0,L|-1:13,2,58.4999982147217,2|4|0,0:0|0:3|0:0,0:0:0:0:
89,98,86434,1,8,0:0:0:0:
149,43,86597,2,0,L|226:27,2,58.4999982147217,0|4|0,0:0|0:3|0:0,0:0:0:0:
165,123,87086,2,0,L|176:176,3,29.2499991073609,10|2|2|2,0:0|0:0|0:0|0:0,0:0:0:0:
182,191,87412,6,0,L|306:218,1,116.999996429443,6|8,0:0|0:0,0:0:0:0:
384,238,87901,1,0,0:0:0:0:
384,238,87982,1,8,0:0:0:0:
384,238,88064,1,8,0:0:0:0:
353,162,88227,2,0,L|357:107,2,29.2499991073609,8|8|8,0:0|0:0|0:0,0:0:0:0:
428,176,88553,6,0,L|438:101,1,58.4999982147217,8|2,0:0|0:0,0:0:0:0:
