osu file format v14

[General]
AudioFilename: audio.mp3
AudioLeadIn: 0
PreviewTime: 50467
Countdown: 0
SampleSet: Soft
StackLeniency: 0.4
Mode: 0
LetterboxInBreaks: 0
WidescreenStoryboard: 0

[Editor]
Bookmarks: 983,19570,30004,40439,61309,76961,88700,212563
DistanceSpacing: 1.4
BeatDivisor: 4
GridSize: 32
TimelineZoom: 1.9

[Metadata]
Title:My Secret (TV Size)
TitleUnicode:My Secret (TV Size)
Artist:Mizuno Saaya
ArtistUnicode:水野佐彩
Creator:Peter
Version:Collab Insane
Source:Maid-sama!
Tags:meido 会長はメイド様! Kaichou wa Maid Sama! japanese anime opening venix marianna browiec
BeatmapID:2347978
BeatmapSetID:1123648

[Difficulty]
HPDrainRate:5.5
CircleSize:4
OverallDifficulty:7
ApproachRate:9
SliderMultiplier:1.62
SliderTickRate:1

[Events]
//Background and Video events
0,0,"1577218434_19-45.jpg",0,0
Video,200,"iloveanime.mp4"
//Break Periods
//Storyboard Layer 0 (Background)
//Storyboard Layer 1 (Fail)
//Storyboard Layer 2 (Pass)
//Storyboard Layer 3 (Foreground)
//Storyboard Layer 4 (Overlay)
//Storyboard Sound Samples

[TimingPoints]
20,326.086956521739,4,2,1,55,1,0
1324,-250.000000000001,4,2,1,60,0,0
5237,-100,4,2,1,60,0,0
6541,-100,4,2,1,65,0,0
14367,-142.857142857143,4,2,1,50,0,0
19585,-142.857142857143,4,2,1,40,0,0
27818,-142.857142857143,4,2,1,5,0,0
27900,-142.857142857143,4,2,1,40,0,0
28308,-142.857142857143,4,2,1,5,0,0
28389,-142.857142857143,4,2,1,40,0,0
30019,-125,4,2,1,50,0,0
40128,-125,4,2,1,60,0,0
50563,-166.666666666667,4,2,1,70,0,0
50808,-166.666666666667,4,2,1,5,0,0
50889,-83.3333333333333,4,2,1,80,0,1
51378,-100,4,2,1,80,0,1
65726,-83.3333333333333,4,2,1,80,0,1
66052,-66.6666666666667,4,2,1,80,0,1
66541,-100,4,2,1,80,0,1
67193,-125,4,2,1,80,0,1
69150,-100,4,2,1,80,0,1
69802,-125,4,2,1,80,0,1
71759,-100,4,2,1,80,0,1
73063,-166.666666666667,4,2,1,80,0,0
74041,-166.666666666667,4,2,1,80,0,0
74367,-100,4,2,1,80,0,0
76976,-111.111111111111,4,2,1,65,0,0
84802,-142.857142857143,4,2,1,60,0,0

[Colours]
Combo1 : 209,250,252
Combo2 : 233,255,185
Combo3 : 255,99,23
Combo4 : 210,0,0

[HitObjects]
117,74,998,5,2,0:0:0:0:
117,74,1324,6,0,B|221:53|202:124|305:98,1,194.4,6|2,0:0|0:0,0:0:0:0:
386,81,2628,2,0,L|375:145,1,64.8,6|2,0:0|0:0,0:0:0:0:
324,212,3280,2,0,L|335:276,1,64.8,2|2,0:0|0:0,0:0:0:0:
397,332,3933,2,0,P|337:310|277:331,1,129.6,6|2,0:0|0:0,0:0:0:0:
48,246,5237,5,8,0:0:0:0:
126,195,5400,1,8,0:0:0:0:
139,219,5481,1,8,0:0:0:0:
144,247,5563,1,8,0:0:0:0:
139,275,5644,1,8,0:0:0:0:
125,300,5726,1,8,0:0:0:0:
48,246,5889,1,8,0:0:0:0:
34,221,5970,1,8,0:0:0:0:
29,193,6052,1,8,0:0:0:0:
34,165,6133,1,8,0:0:0:0:
48,140,6215,6,0,P|67:143|87:140,1,40.5,8|0,0:0|0:0,0:0:0:0:
147,95,6378,2,0,P|166:91|186:95,1,40.5,8|0,0:0|0:0,0:0:0:0:
256,173,6541,6,0,P|336:161|416:154,1,162,6|8,0:0|0:0,0:0:0:0:
416,154,7193,1,4,0:3:0:0:
322,52,7356,2,0,P|328:91|334:132,1,81,4|12,0:3|0:0,0:0:0:0:
509,264,7683,6,0,P|438:229|366:262,1,162,4|0,0:3|0:0,0:0:0:0:
436,341,8172,1,8,0:0:0:0:
319,207,8335,2,0,B|229:197|258:261|170:255,1,162,2|4,0:2|0:3,0:0:0:0:
74,216,8824,1,8,0:0:0:0:
229,147,8987,1,2,0:0:0:0:
126,99,9150,6,0,P|148:176|170:254,1,162,4|8,0:3|0:0,0:0:0:0:
170,254,9802,1,4,0:3:0:0:
29,209,9965,2,0,P|67:197|107:190,1,81,4|8,0:3|0:0,0:0:0:0:
261,92,10291,6,0,P|186:133|120:90,1,162,4|4,0:3|0:3,0:0:0:0:
194,31,10780,1,10,0:0:0:0:
268,207,10943,1,4,0:3:0:0:
49,163,11106,2,0,P|115:120|190:142,1,162,2|8,0:0|0:0,0:0:0:0:
130,220,11596,1,2,0:0:0:0:
35,40,11759,6,0,B|105:32|105:32|122:40|122:40|194:32,1,162,4|8,0:3|0:0,0:0:0:0:
195,32,12411,2,0,L|167:108,1,81,4|4,0:3|0:3,0:0:0:0:
130,220,12737,1,8,0:0:0:0:
6,149,12900,6,0,P|44:139|83:147,1,81,2|4,0:0|0:3,0:0:0:0:
90,290,13226,2,0,P|61:262|49:223,1,81,2|8,0:0|0:0,0:0:0:0:
166,151,13552,2,0,P|156:189|129:219,1,81,4|0,0:3|0:0,0:0:0:0:
8,323,13878,2,0,L|169:309,1,162,4|0,0:3|0:0,0:0:0:0:
279,260,14367,6,0,P|263:314|256:370,1,113.399996539307,6|0,0:0|0:0,0:0:0:0:
179,178,15019,2,0,P|190:203|199:230,2,56.6999982696534,2|0|0,0:0|0:0|0:0,0:0:0:0:
314,124,15509,6,0,P|370:116|426:112,1,113.399996539307,2|0,0:0|0:0,0:0:0:0:
382,41,15998,1,0,0:0:0:0:
382,41,16161,2,0,P|374:97|370:153,1,113.399996539307,2|0,0:0|0:0,0:0:0:0:
349,234,16650,2,0,P|357:260|363:288,1,56.6999982696534,0|0,0:0|0:0,0:0:0:0:
293,172,16976,6,0,P|238:159|184:174,1,113.399996539307,2|2,0:0|0:0,0:0:0:0:
346,78,17628,2,0,P|318:86|291:91,2,56.6999982696534,0|0|0,0:0|0:0|0:0,0:0:0:0:
207,53,18117,6,0,P|218:108|232:163,1,113.399996539307,2|2,0:0|0:0,0:0:0:0:
291,91,18606,1,0,0:0:0:0:
141,113,18769,1,8,0:0:0:0:
112,116,18850,1,8,0:0:0:0:
84,119,18932,1,8,0:0:0:0:
232,163,19096,1,4,0:3:0:0:
144,254,19259,2,0,L|152:197,1,56.6999982696534,8|0,0:0|0:0,0:0:0:0:
301,293,19585,6,0,L|245:305,1,56.6999982696534,4|0,0:0|0:0,0:0:0:0:
371,223,19911,2,0,L|425:238,1,56.6999982696534,4|0,0:3|0:0,0:0:0:0:
327,126,20237,1,4,0:3:0:0:
381,59,20400,6,0,L|363:-19,1,56.6999982696534,0|4,0:0|0:3,0:0:0:0:
219,90,20726,2,0,L|342:130,1,113.399996539307,2|2,0:0|0:0,0:0:0:0:
326,125,21378,6,0,L|253:138,1,56.6999982696534,2|4,0:0|0:3,0:0:0:0:
152,161,21704,1,2,0:0:0:0:
95,46,21867,1,4,0:3:0:0:
171,76,22030,1,2,0:0:0:0:
29,141,22193,6,0,B|51:177|51:177|35:268,1,113.399996539307,4|4,0:3|0:3,0:0:0:0:
38,247,22846,6,0,L|103:222,1,56.6999982696534,4|0,0:3|0:0,0:0:0:0:
152,289,23172,1,4,0:3:0:0:
152,289,23335,1,0,0:0:0:0:
56,383,23498,2,0,L|71:324,1,56.6999982696534,4|0,0:3|0:0,0:0:0:0:
203,367,23824,2,0,L|131:379,1,56.6999982696534,4|0,0:3|0:0,0:0:0:0:
90,226,24150,1,4,0:3:0:0:
152,289,24313,1,2,0:0:0:0:
177,159,24476,1,4,0:3:0:0:
177,159,24639,1,2,0:0:0:0:
274,248,24802,6,0,P|331:226|332:169,1,113.399996539307,4|4,0:3|0:3,0:0:0:0:
315,57,25291,2,0,P|370:70|423:89,1,113.399996539307,2|0,0:0|0:0,0:0:0:0:
336,179,25780,1,4,0:3:0:0:
332,278,25943,6,0,P|378:293|402:230,1,113.399996539307,2|0,0:0|0:0,0:0:0:0:
478,318,26433,2,0,L|473:397,1,56.6999982696534,4|0,0:3|0:0,0:0:0:0:
498,218,26759,2,0,L|505:146,1,56.6999982696534,4|0,0:3|0:0,0:0:0:0:
362,128,27085,2,0,L|427:172,1,56.6999982696534,4|0,0:3|0:0,0:0:0:0:
364,5,27411,6,0,B|274:-7|303:49|217:28,1,141.749995674133,6|0,0:0|0:0,0:0:0:0:
115,0,27900,6,0,P|129:73|74:97,1,141.749995674133,6|0,0:0|0:0,0:0:0:0:
22,185,28389,6,0,L|133:208,1,113.399996539307,6|0,0:0|0:0,0:0:0:0:
270,234,28878,5,4,0:3:0:0:
204,333,29041,2,0,L|190:259,1,56.6999982696534,4|4,0:3|0:3,0:0:0:0:
176,139,29367,1,4,0:3:0:0:
114,289,29530,1,4,0:3:0:0:
270,234,29693,2,0,L|277:160,1,56.6999982696534,8|0,0:0|0:0,0:0:0:0:
351,287,30019,5,2,0:0:0:0:
351,287,30346,2,0,P|348:319|346:351,1,64.8,8|0,0:0|0:0,0:0:0:0:
266,304,30672,1,2,0:0:0:0:
314,216,30835,2,0,B|364:205|364:205|386:211|386:211|440:199,2,129.6,4|10|4,0:3|0:0|0:3,0:0:0:0:
389,130,31650,1,8,0:0:0:0:
297,70,31813,1,2,0:0:0:0:
297,70,31894,1,0,0:0:0:0:
297,70,31976,2,0,B|290:103|290:103|296:133,1,64.8,0|0,0:0|0:0,0:0:0:0:
314,216,32302,2,0,B|321:249|321:249|314:279,1,64.8,10|2,0:0|0:0,0:0:0:0:
168,340,32628,6,0,L|103:332,1,64.8,4|0,0:3|0:0,0:0:0:0:
184,226,32954,2,0,P|248:220|313:215,1,129.6,10|2,0:0|0:0,0:0:0:0:
321,224,33362,1,8,0:0:0:0:
328,233,33443,1,4,0:3:0:0:
370,135,33606,1,2,0:0:0:0:
238,49,33769,5,10,0:0:0:0:
238,49,34096,1,4,0:3:0:0:
248,139,34259,2,0,P|251:171|256:203,1,64.8,8|0,0:0|0:0,0:0:0:0:
316,82,34585,5,4,0:3:0:0:
166,123,34748,1,0,0:0:0:0:
330,182,34911,1,10,0:0:0:0:
180,223,35074,1,0,0:0:0:0:
372,173,35237,6,0,P|354:235|347:299,1,129.6,4|8,0:3|0:0,0:0:0:0:
260,204,35726,2,0,P|253:139|234:77,1,129.6,2|4,0:0|0:3,0:0:0:0:
307,24,36215,1,0,0:0:0:0:
363,118,36378,2,0,B|426:112|426:112|432:114|432:114|491:107,1,129.6,10|4,0:0|0:3,0:0:0:0:
392,198,36867,6,0,P|386:229|389:261,1,64.8,10|0,0:0|0:0,0:0:0:0:
313,183,37193,2,0,P|288:161|258:148,1,64.8,2|0,0:0|0:0,0:0:0:0:
363,118,37519,2,0,P|393:107|419:88,1,64.8,10|0,0:0|0:0,0:0:0:0:
501,222,37846,6,0,P|437:220|388:261,1,129.6,4|8,0:3|0:0,0:0:0:0:
388,261,38498,2,0,L|395:325,2,64.8,2|4|0,0:0|0:3|0:0,0:0:0:0:
239,316,38987,6,0,L|175:329,1,64.8,8|0,0:0|0:0,0:0:0:0:
95,287,39313,1,0,0:0:0:0:
221,174,39476,2,0,P|199:234|199:299,1,129.6,8|8,0:0|0:0,0:0:0:0:
123,193,39965,5,8,0:0:0:0:
123,193,40047,1,0,0:0:0:0:
123,193,40128,2,0,L|108:129,1,64.8,10|0,0:0|0:0,0:0:0:0:
198,298,40454,2,0,P|230:305|262:313,1,64.8,4|0,0:3|0:0,0:0:0:0:
125,356,40780,2,0,L|62:370,1,64.8,4|0,0:3|0:0,0:0:0:0:
123,193,41106,2,0,L|109:280,1,64.8,4|0,0:3|0:0,0:0:0:0:
138,96,41433,1,8,0:0:0:0:
138,96,41759,6,0,L|51:121,1,64.8,4|0,0:3|0:0,0:0:0:0:
206,157,42085,2,0,L|293:182,1,64.8,4|0,0:3|0:0,0:0:0:0:
140,243,42411,6,0,P|79:226|30:264,1,129.6,4|8,0:3|0:0,0:0:0:0:
98,326,42900,1,0,0:0:0:0:
231,264,43063,2,0,B|287:276|287:276|305:298|305:298|376:317,1,129.6,4|0,0:3|0:0,0:0:0:0:
449,376,43552,2,0,P|489:317|459:258,1,129.6,2|0,0:0|0:0,0:0:0:0:
396,137,44041,2,0,P|382:159|371:219,1,64.8,10|0,0:0|0:0,0:0:0:0:
446,20,44367,6,0,P|386:41|309:38,1,129.6,4|4,0:3|0:3,0:0:0:0:
221,0,44856,1,2,0:0:0:0:
257,160,45019,2,0,P|251:120|243:93,1,64.8,4|0,0:3|0:0,0:0:0:0:
122,24,45346,2,0,P|113:55|109:87,1,64.8,10|0,0:0|0:0,0:0:0:0:
59,243,45672,6,0,P|133:245|152:174,1,129.6,4|8,0:3|0:0,0:0:0:0:
156,202,46324,2,0,L|172:283,1,64.8,4|0,0:3|0:0,0:0:0:0:
213,115,46650,1,8,0:0:0:0:
298,164,46813,2,0,P|362:168|386:91,1,129.6,2|0,0:0|0:0,0:0:0:0:
463,240,47302,5,8,0:0:0:0:
461,260,47384,1,8,0:0:0:0:
459,279,47465,1,8,0:0:0:0:
457,299,47547,1,8,0:0:0:0:
456,319,47628,2,0,L|505:321,3,32.4,4|8|8|8,0:3|0:0|0:0|0:0,0:0:0:0:
455,344,47954,2,0,L|375:336,1,64.8,8|0,0:0|0:0,0:0:0:0:
286,223,48280,5,8,0:0:0:0:
256,359,48443,1,8,0:0:0:0:
256,359,48769,5,8,0:0:0:0:
215,186,48933,1,8,0:0:0:0:
215,186,49259,5,8,0:0:0:0:
178,382,49422,1,8,0:0:0:0:
178,382,49748,5,8,0:0:0:0:
143,156,49911,1,8,0:0:0:0:
143,156,50237,5,8,0:0:0:0:
131,123,50318,1,8,0:0:0:0:
150,95,50400,1,8,0:0:0:0:
183,92,50481,1,8,0:0:0:0:
206,118,50563,6,0,P|236:110|286:91,1,72.8999977752686,2|0,0:0|0:0,0:0:0:0:
313,182,50889,6,0,P|408:202|404:315,1,194.399994067383,6|8,0:0|0:0,0:0:0:0:
297,384,51378,2,0,P|240:359|196:337,1,81,2|4,0:0|0:3,0:0:0:0:
15,351,51705,1,4,0:3:0:0:
133,216,51868,1,8,0:0:0:0:
0,240,52031,6,0,B|101:242|40:294|176:297,1,162,2|0,0:0|0:0,0:0:0:0:
154,116,52520,2,0,P|82:126|58:140,1,81,10|0,0:0|0:0,0:0:0:0:
147,295,52846,2,0,P|137:223|123:199,1,81,4|4,0:3|0:3,0:0:0:0:
52,349,53172,1,10,0:0:0:0:
140,384,53335,1,2,0:0:0:0:
245,258,53498,6,0,P|321:258|349:329,1,162,6|8,0:0|0:0,0:0:0:0:
509,232,53987,2,0,P|461:219|424:209,1,81,2|4,0:0|0:3,0:0:0:0:
279,145,54313,2,0,L|376:131,1,81,2|8,0:0|0:0,0:0:0:0:
472,50,54639,6,0,B|417:57|417:57|375:36|375:36|291:47,1,162,2|0,0:0|0:0,0:0:0:0:
174,123,55128,2,0,P|197:74|248:59,1,81,10|0,0:0|0:0,0:0:0:0:
0,142,55455,2,0,P|57:160|75:282,1,162,2|8,0:0|0:0,0:0:0:0:
0,227,55944,1,2,0:0:0:0:
78,356,56107,6,0,B|168:362|128:306|262:309,1,162,6|10,0:0|0:0,0:0:0:0:
347,194,56596,2,0,P|323:224|269:214,1,81,2|0,0:0|0:0,0:0:0:0:
407,320,56922,2,0,P|446:319|471:350,1,81,2|8,0:0|0:0,0:0:0:0:
466,207,57248,6,0,P|461:136|379:97,1,162,2|4,0:0|0:3,0:0:0:0:
220,0,57737,2,0,P|258:44|257:84,1,81,10|0,0:0|0:0,0:0:0:0:
273,223,58063,2,0,P|283:184|313:158,1,81,2|0,0:0|0:0,0:0:0:0:
255,319,58389,1,10,0:0:0:0:
196,162,58552,1,2,0:0:0:0:
19,229,58715,6,0,B|66:242|66:242|115:233|115:233|175:252,2,162,6|8|4,0:0|0:0|0:3,0:0:0:0:
19,229,59694,1,10,0:0:0:0:
169,86,59857,2,0,P|245:83|280:152,1,162,2|4,0:0|0:3,0:0:0:0:
318,330,60346,5,10,0:0:0:0:
415,192,60509,1,2,0:0:0:0:
221,237,60672,2,0,L|302:242,1,81,10|2,0:0|0:0,0:0:0:0:
96,229,60998,1,10,0:0:0:0:
171,117,61161,1,6,0:3:0:0:
171,99,61243,1,4,0:3:0:0:
168,82,61324,6,0,B|130:76|112:51|112:51|127:106|120:146,1,162,6|8,0:0|0:0,0:0:0:0:
62,324,61813,2,0,L|142:314,1,81,2|4,0:0|0:3,0:0:0:0:
177,221,62139,2,0,L|96:230,1,81,2|8,0:0|0:0,0:0:0:0:
363,357,62465,6,0,B|374:277|374:277|372:276|372:276|384:197,1,162,2|8,0:0|0:0,0:0:0:0:
289,273,62954,1,8,0:0:0:0:
289,273,63280,2,0,B|344:301|383:263|383:263|408:282|439:278,1,162,2|8,0:0|0:0,0:0:0:0:
512,226,63769,1,0,0:0:0:0:
256,158,63933,6,0,B|170:137|170:137|126:140|107:170,1,162,6|8,0:0|0:0,0:0:0:0:
165,291,64422,2,0,B|175:252|175:252|166:211,1,81,2|0,0:0|0:0,0:0:0:0:
39,131,64748,2,0,B|30:171|30:171|40:210,1,81,2|8,0:0|0:0,0:0:0:0:
248,56,65074,6,0,B|113:44|113:44|132:61,1,162,2|8,0:0|0:0,0:0:0:0:
210,146,65563,1,10,0:0:0:0:
210,146,65726,2,0,B|318:171|295:109|400:141,1,194.399994067383,2|0,0:0|1:0,0:0:0:0:
320,224,66215,1,10,0:0:0:0:
283,68,66378,1,2,0:0:0:0:
396,264,66541,6,0,P|332:309|259:284,1,162,6|8,0:0|0:0,0:0:0:0:
171,189,67030,1,4,0:3:0:0:
320,224,67193,5,8,0:0:0:0:
151,270,67356,1,4,0:3:0:0:
247,187,67519,5,8,0:0:0:0:
259,284,67683,1,4,0:3:0:0:
99,108,67846,5,8,0:0:0:0:
300,122,68009,1,4,0:3:0:0:
155,248,68172,5,8,0:0:0:0:
143,162,68335,1,4,0:3:0:0:
327,43,68498,5,8,0:0:0:0:
296,219,68661,1,4,0:3:0:0:
226,106,68824,1,12,0:0:0:0:
243,118,69150,6,0,B|309:108|309:108|331:113|331:113|402:101,1,162,4|8,0:3|0:0,0:0:0:0:
459,33,69639,1,0,0:0:0:0:
397,182,69802,5,8,0:0:0:0:
350,27,69965,1,4,0:3:0:0:
485,131,70128,5,8,0:0:0:0:
402,101,70291,1,4,0:3:0:0:
304,234,70454,5,8,0:0:0:0:
474,214,70617,1,4,0:3:0:0:
401,315,70780,6,0,L|336:309,1,64.8,8|4,0:0|0:3,0:0:0:0:
239,239,71106,2,0,L|303:233,1,64.8,8|4,0:0|0:3,0:0:0:0:
325,207,71351,1,8,0:0:0:0:
335,176,71432,1,10,0:0:0:0:
333,144,71514,1,8,0:0:0:0:
321,114,71595,1,4,0:3:0:0:
299,90,71677,1,8,0:0:0:0:
269,76,71759,6,0,P|255:113|264:151,1,81,6|0,0:0|0:0,0:0:0:0:
327,18,72085,1,8,0:0:0:0:
192,55,72248,1,4,0:3:0:0:
366,117,72411,1,4,0:3:0:0:
398,112,72492,1,8,0:0:0:0:
430,107,72574,1,8,0:0:0:0:
264,151,72737,1,4,0:3:0:0:
232,146,72818,1,4,0:3:0:0:
200,141,72900,1,4,0:3:0:0:
414,186,73063,5,8,0:0:0:0:
391,263,73226,1,8,0:0:0:0:
370,341,73389,1,14,0:0:0:0:
414,186,74041,6,0,L|410:161,3,24.2999992584229,2|2|2|2,0:0|0:0|0:0|0:0,0:0:0:0:
421,136,74367,6,0,P|348:164|276:133,1,162,6|8,0:0|0:0,0:0:0:0:
348,55,74856,1,2,0:0:0:0:
421,136,75019,2,0,P|428:175|419:214,2,81,2|0|12,0:0|0:0|0:0,0:0:0:0:
276,133,75509,6,0,P|268:172|277:211,1,81,4|0,0:3|0:0,0:0:0:0:
344,326,75835,1,8,0:0:0:0:
237,300,75998,1,8,0:0:0:0:
410,245,76161,5,8,0:0:0:0:
227,308,76324,1,8,0:0:0:0:
442,237,76487,5,8,0:0:0:0:
277,211,76650,1,10,0:0:0:0:
249,206,76731,1,2,0:0:0:0:
221,201,76813,1,10,0:0:0:0:
193,197,76894,1,2,0:0:0:0:
168,197,76976,6,0,P|132:144|202:113,1,145.799995550537,6|8,0:0|0:0,0:0:0:0:
187,107,77628,1,4,0:3:0:0:
67,226,77791,2,0,P|33:212|0:198,1,72.8999977752686,4|12,0:3|0:0,0:0:0:0:
31,309,78117,1,4,0:3:0:0:
181,384,78280,6,0,B|183:293|213:216,1,145.799995550537,2|8,0:0|0:0,0:0:0:0:
420,299,78769,2,0,B|334:290|359:357|269:336,1,145.799995550537,2|4,0:2|0:3,0:0:0:0:
358,214,79259,1,8,0:0:0:0:
289,260,79422,1,2,0:0:0:0:
162,139,79585,6,0,P|254:133|263:193,1,145.799995550537,2|8,0:0|0:0,0:0:0:0:
267,168,80237,1,4,0:3:0:0:
374,80,80400,2,0,P|418:88|447:93,1,72.8999977752686,4|8,0:3|0:0,0:0:0:0:
480,253,80726,6,0,P|417:270|438:332,1,145.799995550537,2|4,0:0|0:3,0:0:0:0:
316,377,81215,1,10,0:0:0:0:
314,271,81378,1,4,0:3:0:0:
166,316,81541,6,0,B|96:341|96:341|30:295,1,145.799995550537,2|8,0:0|0:0,0:0:0:0:
105,204,82030,1,2,0:0:0:0:
106,178,82112,1,2,0:0:0:0:
107,157,82193,6,0,P|96:88|86:5,1,145.799995550537,4|8,0:3|0:0,0:0:0:0:
86,12,82846,1,4,0:3:0:0:
216,89,83009,1,4,0:3:0:0:
173,12,83172,1,8,0:0:0:0:
307,74,83335,6,0,P|346:81|399:84,1,72.8999977752686,2|4,0:0|0:3,0:0:0:0:
267,179,83661,2,0,P|228:186|175:189,1,72.8999977752686,2|8,0:0|0:0,0:0:0:0:
98,327,83987,6,0,P|121:263|135:234,1,72.8999977752686,4|0,0:3|0:0,0:0:0:0:
76,98,84313,2,0,P|93:145|104:170,2,72.8999977752686,2|8|0,0:0|0:0|0:0,0:0:0:0:
234,279,84802,6,0,L|108:255,1,113.399996539307,4|8,0:3|0:0,0:0:0:0:
122,257,85454,1,4,0:3:0:0:
203,125,85617,2,0,L|196:188,1,56.6999982696534,0|8,0:0|0:0,0:0:0:0:
225,335,85943,2,0,L|235:267,2,56.6999982696534,2|4|0,0:0|0:3|0:0,0:0:0:0:
316,206,86433,1,8,0:0:0:0:
409,317,86596,2,0,L|344:305,2,56.6999982696534,0|4|0,0:0|0:3|0:0,0:0:0:0:
476,208,87085,1,10,0:0:0:0:
487,184,87166,1,2,0:0:0:0:
463,133,87248,1,2,0:0:0:0:
414,132,87329,1,2,0:0:0:0:
379,171,87411,6,0,L|254:149,1,113.399996539307,6|8,0:0|0:0,0:0:0:0:
159,139,87900,1,8,0:0:0:0:
159,139,87981,1,8,0:0:0:0:
159,139,88063,1,8,0:0:0:0:
110,227,88226,1,8,0:0:0:0:
110,227,88308,1,8,0:0:0:0:
110,227,88389,1,8,0:0:0:0:
49,125,88552,6,0,L|60:69,1,56.6999982696534,8|2,0:0|0:0,0:0:0:0:
