osu file format v14

[General]
AudioFilename: audio.mp3
AudioLeadIn: 0
PreviewTime: 70626
Countdown: 0
SampleSet: Soft
StackLeniency: 0.7
Mode: 0
LetterboxInBreaks: 0
WidescreenStoryboard: 0

[Editor]
Bookmarks: 4552,18455,32650,42016,52552,61918,71138,89870
DistanceSpacing: 2.7
BeatDivisor: 4
GridSize: 4
TimelineZoom: 1.9

[Metadata]
Title:Kakumei Dualism -Anime Version-
TitleUnicode:革命デュアリズム -アニメバージョン-
Artist:Mizuki Nana x T.M.Revolution
ArtistUnicode:水樹奈々×T.M.Revolution
Creator:-Yuzuriha
Version:Extra
Source:革命機ヴァルヴレイヴ
Tags:-pico- joker
BeatmapID:1151158
BeatmapSetID:543124

[Difficulty]
HPDrainRate:7.5
CircleSize:4
OverallDifficulty:8
ApproachRate:9.5
SliderMultiplier:2
SliderTickRate:2

[Events]
//Background and Video events
0,0,"bg.jpg",0,0
//Break Periods
//Storyboard Layer 0 (Background)
//Storyboard Layer 1 (Fail)
//Storyboard Layer 2 (Pass)
//Storyboard Layer 3 (Foreground)
//Storyboard Sound Samples

[TimingPoints]
4553,292.682926829268,4,2,2,50,1,0
4553,-133.333333333333,4,2,2,50,0,0
8357,-133.333333333333,4,2,2,40,0,0
8650,-133.333333333333,4,2,2,60,0,0
8943,-133.333333333333,4,2,2,80,0,0
9235,-133.333333333333,4,2,5,70,0,0
18162,-200,4,2,5,70,0,0
18382,-200,4,2,5,5,0,0
18455,-100,4,2,1,80,0,0
31626,-100,4,2,5,80,0,0
32650,-133.333333333333,4,2,2,70,0,0
39674,-133.333333333333,4,2,2,50,0,0
41138,-200,4,2,2,50,0,0
41723,-100,4,2,1,70,0,0
42016,-100,4,2,1,80,0,0
50357,-100,4,2,1,50,0,0
50796,-100,4,2,1,60,0,0
51382,-100,4,2,1,70,0,0
51967,-100,4,2,1,80,0,0
52552,-133.333333333333,4,2,6,50,0,0
52626,-133.333333333333,4,2,5,70,0,0
59284,-133.333333333333,4,2,1,70,0,0
59577,-100,4,2,1,80,0,0
66601,-100,4,2,1,50,0,0
67187,-100,4,2,1,60,0,0
67772,-100,4,2,1,70,0,0
68357,-100,4,2,1,80,0,0
71138,-90.9090909090909,4,2,6,60,0,1
71211,-90.9090909090909,4,2,1,90,0,1
78309,-100,4,2,1,80,0,0
80504,-90.9090909090909,4,2,1,90,0,1
89138,-90.9090909090909,4,2,5,90,0,1
89577,-200,4,2,5,90,0,1
89796,-200,4,2,5,5,0,1
89870,-100,4,2,1,80,0,0

[HitObjects]
286,271,4552,5,8,0:0:0:0:
415,210,4699,1,8,0:0:0:0:
265,287,4845,1,0,0:0:0:0:
394,226,4992,2,0,B|378:191|378:191|372:141,1,75.0000028610231,8|0,0:0|0:0,0:0:0:0:
367,304,5284,1,0,0:0:0:0:
268,176,5431,1,8,0:0:0:0:
126,158,5577,1,8,0:0:0:0:
293,179,5723,5,0,0:0:0:0:
159,162,5870,2,0,B|154:199|154:199|133:238,1,75.0000028610231,8|0,0:0|0:0,0:0:0:0:
241,28,6162,2,0,L|227:155,1,112.500004291535,2|0,0:0|0:0,0:0:0:0:
262,284,6455,2,0,L|256:341,1,37.5000014305115,2|0,0:0|0:0,0:0:0:0:
342,265,6601,2,0,L|336:322,1,37.5000014305115,2|0,0:0|0:0,0:0:0:0:
284,208,6748,1,2,0:0:0:0:
301,190,6894,5,8,0:0:0:0:
159,199,7040,1,8,0:0:0:0:
268,106,7187,1,0,0:0:0:0:
98,250,7333,2,0,P|128:273|170:276,1,75.0000028610231,8|0,0:0|0:0,0:0:0:0:
353,119,7626,1,0,0:0:0:0:
339,310,7772,1,8,0:0:0:0:
441,211,7918,1,8,0:0:0:0:
299,186,8065,5,0,0:0:0:0:
468,135,8211,1,8,0:0:0:0:
251,246,8357,2,0,P|239:266|216:289,1,37.5000014305115,2|0,0:0|0:0,0:0:0:0:
175,217,8504,2,0,P|156:232|133:242,1,37.5000014305115,2|0,0:0|0:0,0:0:0:0:
112,165,8650,2,0,P|87:174|64:176,1,37.5000014305115,2|0,0:0|0:0,0:0:0:0:
188,112,8796,2,0,P|197:128|209:142,1,37.5000014305115,2|0,0:0|0:0,0:0:0:0:
263,82,8943,2,0,P|277:94|293:103,1,37.5000014305115,2|0,0:0|0:0,0:0:0:0:
326,31,9089,2,0,P|343:38|361:41,1,37.5000014305115,2|0,0:0|0:0,0:0:0:0:
471,37,9235,5,2,0:0:0:0:
377,242,9382,1,2,0:0:0:0:
452,70,9674,1,0,0:0:0:0:
387,212,9821,2,0,P|377:168|376:112,1,75.0000028610231,8|0,0:0|0:0,0:0:0:0:
452,70,10113,1,2,0:0:0:0:
360,257,10260,6,0,P|341:182|337:89,1,150.000005722046,10|0,0:0|0:0,0:0:0:0:
431,318,10699,1,0,0:0:0:0:
279,158,10845,2,0,P|311:128|340:107,1,75.0000028610231
465,218,11138,1,0,0:0:0:0:
189,185,11284,2,0,P|192:140|203:99,1,75.0000028610231
278,37,11577,5,2,0:0:0:0:
70,123,11723,1,2,0:0:0:0:
251,52,12016,1,0,0:0:0:0:
103,107,12162,2,0,P|149:126|181:149,1,75.0000028610231,8|0,0:0|0:0,0:0:0:0:
251,52,12455,1,2,0:0:0:0:
151,283,12601,6,0,B|186:225|126:217|171:136,1,150.000005722046,10|0,0:0|0:0,0:0:0:0:
82,240,13040,1,0,0:0:0:0:
233,195,13187,1,0,0:0:0:0:
303,321,13333,1,0,0:0:0:0:
329,135,13479,1,0,0:0:0:0:
334,347,13626,2,0,P|335:295|340:258,1,75.0000028610231
248,66,13918,5,2,0:0:0:0:
337,272,14065,1,2,0:0:0:0:
283,66,14357,1,0,0:0:0:0:
386,240,14504,2,0,L|293:244,1,75.0000028610231,8|0,0:0|0:0,0:0:0:0:
106,189,14796,1,2,0:0:0:0:
337,272,14943,6,0,L|498:266,1,150.000005722046,10|0,0:0|0:0,0:0:0:0:
473,295,15309,1,0,0:0:0:0:
462,322,15382,1,0,0:0:0:0:
419,127,15528,1,0,0:0:0:0:
216,224,15674,1,0,0:0:0:0:
371,59,15821,1,0,0:0:0:0:
289,268,15967,1,0,0:0:0:0:
159,84,16113,1,0,0:0:0:0:
384,88,16260,5,2,0:0:0:0:
101,34,16406,1,2,0:0:0:0:
131,279,16699,1,4,0:0:0:0:
156,295,16772,1,4,0:0:0:0:
185,318,16845,2,0,P|214:319|240:313,1,37.5000014305115,4|0,0:0|0:0,0:0:0:0:
333,244,16992,2,0,P|314:245|295:243,1,37.5000014305115,4|0,0:0|0:0,0:0:0:0:
143,171,17138,2,4,P|161:172|180:170,1,37.5000014305115
375,105,17284,2,4,P|356:106|337:104,1,37.5000014305115
61,298,17723,5,4,0:0:0:0:
210,128,17870,1,4,0:0:0:0:
13,236,18016,1,4,0:0:0:0:
214,56,18162,6,0,B|211:70|211:70|214:84|214:84|208:98|208:98|213:113|213:113|209:128|209:128,1,75,4|0,0:0|0:0,0:0:0:0:
240,326,18455,6,0,P|296:326|311:206,1,200,6|2,0:0|0:0,0:0:0:0:
474,341,18894,1,8,0:0:0:0:
267,261,19040,1,0,0:0:0:0:
472,262,19187,1,2,0:0:0:0:
293,185,19333,1,2,0:0:0:0:
302,175,19406,1,0,0:0:0:0:
311,167,19479,1,8,0:0:0:0:
78,87,19626,6,0,B|39:197|124:188|61:305,1,200,6|2,0:0|0:0,0:0:0:0:
429,336,20065,2,0,P|365:355|319:345,1,100,8|0,0:0|0:0,0:0:0:0:
158,143,20357,1,2,0:0:0:0:
376,141,20504,1,2,0:0:0:0:
389,158,20577,1,0,0:0:0:0:
401,174,20650,1,8,0:0:0:0:
149,340,20796,6,0,P|167:274|183:246,1,100,6|0,0:0|0:0,0:0:0:0:
411,192,21089,1,2,0:0:0:0:
251,82,21235,1,8,0:0:0:0:
258,274,21382,1,0,0:0:0:0:
411,192,21528,2,0,P|405:160|394:140,1,50,2|0,0:0|0:0,0:0:0:0:
309,173,21674,2,0,P|287:159|257:157,1,50,2|0,0:0|0:0,0:0:0:0:
186,227,21821,1,8,0:0:0:0:
451,203,21967,6,0,P|443:147|398:85,1,100,6|0,0:0|0:0,0:0:0:0:
251,82,22260,1,2,0:0:0:0:
252,330,22406,1,8,0:0:0:0:
336,63,22552,1,4,0:0:0:0:
148,273,22699,1,2,0:0:0:0:
422,323,22845,1,2,0:0:0:0:
199,151,22992,1,8,0:0:0:0:
483,254,23138,6,0,B|381:200|378:295|281:225,1,200,6|2,0:0|0:0,0:0:0:0:
422,323,23577,1,8,0:0:0:0:
365,121,23723,2,0,P|363:139|345:171,1,50,2|0,0:0|0:0,0:0:0:0:
281,115,23870,1,2,0:0:0:0:
292,325,24016,1,2,0:0:0:0:
424,175,24162,1,8,0:0:0:0:
106,300,24309,6,0,B|159:291|159:291|205:350|291:324,1,200,6|2,0:0|0:0,0:0:0:0:
431,142,24748,1,8,0:0:0:0:
224,91,24894,1,2,0:0:0:0:
224,91,24967,1,0,0:0:0:0:
224,91,25040,1,2,0:0:0:0:
424,175,25187,1,2,0:0:0:0:
215,116,25333,1,8,0:0:0:0:
460,248,25479,6,0,P|369:233|366:120,1,200,6|2,0:0|0:0,0:0:0:0:
94,194,25918,1,8,0:0:0:0:
368,233,26065,2,0,P|354:255|333:271,1,50,2|0,0:0|0:0,0:0:0:0:
298,202,26211,1,2,0:0:0:0:
133,318,26357,1,2,0:0:0:0:
361,154,26504,1,8,0:0:0:0:
121,46,26650,6,0,P|55:83|54:170,1,150,6|0,0:0|0:0,0:0:0:0:
73,192,26943,1,2,0:0:0:0:
361,154,27089,1,8,0:0:0:0:
121,46,27235,2,0,P|61:76|95:205,1,200,6|2,0:0|0:0,0:0:0:0:
480,216,27674,1,8,0:0:0:0:
438,186,27748,1,8,0:0:0:0:
392,164,27821,1,8,0:0:0:0:
343,152,27894,1,8,0:0:0:0:
295,138,27967,6,0,P|260:129|188:134,1,100,4|0,0:0|0:0,0:0:0:0:
305,334,28260,2,0,P|340:343|412:338,1,100,8|0,0:0|0:0,0:0:0:0:
461,292,28479,1,0,0:0:0:0:
461,292,28552,2,0,P|446:228|445:170,1,100,8|0,0:0|0:0,0:0:0:0:
111,179,28845,1,8,0:0:0:0:
431,48,28992,6,0,P|423:122|412:184,1,100,0|8,0:0|0:0,0:0:0:0:
272,284,29284,1,0,0:0:0:0:
176,74,29431,1,8,0:0:0:0:
262,314,29577,1,0,0:0:0:0:
259,44,29723,1,8,0:0:0:0:
168,248,29870,1,0,0:0:0:0:
401,165,30016,1,8,0:0:0:0:
116,116,30162,1,0,0:0:0:0:
123,132,30235,1,0,0:0:0:0:
131,146,30309,6,0,P|176:192|227:225,1,100,12|0,0:0|0:0,0:0:0:0:
482,113,30601,1,8,0:0:0:0:
290,62,30748,1,0,0:0:0:0:
485,194,30894,1,8,0:0:0:0:
254,26,31040,2,0,L|265:147,1,100,0|8,0:0|0:0,0:0:0:0:
396,341,31333,1,4,0:0:0:0:
372,320,31626,6,0,P|360:340|337:363,1,37.5000014305115,4|0,0:0|0:0,0:0:0:0:
296,291,31773,2,0,P|277:306|254:316,1,37.5000014305115,4|0,0:0|0:0,0:0:0:0:
233,239,31919,2,0,P|208:248|185:250,1,37.5000014305115,4|0,0:0|0:0,0:0:0:0:
309,186,32065,2,0,P|318:202|330:216,1,37.5000014305115,4|0,0:0|0:0,0:0:0:0:
384,156,32212,2,0,P|398:168|414:177,1,37.5000014305115,4|0,0:0|0:0,0:0:0:0:
447,105,32358,2,0,L|470:113,6,25,4|0|4|0|4|0|4,0:0|0:0|0:0|0:0|0:0|0:0|0:0,0:0:0:0:
375,78,32650,6,0,P|322:86|195:79,1,150.000005722046,2|0,0:0|0:0,0:0:0:0:
65,262,33089,2,0,P|118:254|245:261,1,150.000005722046,2|0,0:0|0:0,0:0:0:0:
121,143,33528,1,0,0:0:0:0:
198,331,33674,6,0,P|271:312|291:239,1,150.000005722046,2|0,0:0|0:0,0:0:0:0:
401,36,34113,2,0,P|397:74|398:132,1,75.0000028610231
214,255,34406,1,0,0:0:0:0:
302,78,34552,1,0,0:0:0:0:
143,210,34699,1,2,0:0:0:0:
363,136,34845,1,0,0:0:0:0:
97,139,34992,6,0,P|71:167|59:220,1,75.0000028610231,2|0,0:0|0:0,0:0:0:0:
261,296,35284,1,2,0:0:0:0:
236,68,35431,2,0,P|196:78|160:96,1,75.0000028610231,2|0,0:0|0:0,0:0:0:0:
355,226,35723,2,0,P|346:171|335:145,1,75.0000028610231,2|0,0:0|0:0,0:0:0:0:
49,321,36016,6,0,B|106:283|146:355|214:306,1,150.000005722046,2|0,0:0|0:0,0:0:0:0:
245,133,36455,1,0,0:0:0:0:
320,267,36601,1,0,0:0:0:0:
165,237,36748,2,0,P|124:203|106:171,1,75.0000028610231
362,102,37040,1,2,0:0:0:0:
205,157,37187,1,0,0:0:0:0:
359,183,37333,6,0,P|342:127|337:10,1,150.000005722046,2|0,0:0|0:0,0:0:0:0:
274,223,37772,2,0,P|272:287|266:316,1,75.0000028610231,2|0,0:0|0:0,0:0:0:0:
205,157,38065,1,0,0:0:0:0:
189,280,38211,2,0,P|179:341|169:370,1,75.0000028610231
466,262,38504,6,0,P|427:298|334:236,1,150.000005722046,2|0,0:0|0:0,0:0:0:0:
219,85,38943,2,0,B|204:116|204:116|205:168,1,75.0000028610231,2|0,0:0|0:0,0:0:0:0:
384,149,39235,1,0,0:0:0:0:
271,309,39382,1,0,0:0:0:0:
291,129,39528,1,0,0:0:0:0:
226,359,39674,6,0,P|235:305|217:198,1,150.000005722046
136,123,40113,1,0,0:0:0:0:
160,336,40260,2,0,P|165:288|158:243,1,75.0000028610231
215,101,40552,1,0,0:0:0:0:
162,261,40699,6,0,L|329:256,1,150.000005722046
67,297,41138,6,0,L|258:290,1,175
311,256,41723,6,0,B|273:194|306:151|306:151|298:82,1,150
267,63,42016,6,0,P|329:88|376:93,1,100,6|0,0:0|0:0,0:0:0:0:
203,241,42309,1,8,0:0:0:0:
385,175,42455,1,0,0:0:0:0:
166,150,42601,1,2,0:0:0:0:
368,252,42748,1,2,0:0:0:0:
124,221,42894,1,8,0:0:0:0:
446,194,43040,6,0,B|375:167|375:167|322:180|322:180|291:162|240:171,1,200,6|2,0:0|0:0,0:0:0:0:
418,71,43479,1,8,0:0:0:0:
271,257,43626,1,2,0:0:0:0:
285,277,43699,1,2,0:0:0:0:
302,296,43772,2,0,P|314:228|336:188,1,100,2|2,0:0|0:0,0:0:0:0:
176,52,44065,1,8,0:0:0:0:
271,257,44211,1,0,0:0:0:0:
56,185,44357,6,0,B|105:199|105:199|166:196,1,100,6|2,0:0|0:0,0:0:0:0:
338,117,44650,1,8,0:0:0:0:
189,328,44796,1,10,0:0:0:0:
468,46,45089,1,10,0:0:0:0:
124,271,45382,6,0,B|219:199|253:313|339:242,1,200,6|2,0:0|0:0,0:0:0:0:
189,328,45821,1,8,0:0:0:0:
241,104,45967,1,0,0:0:0:0:
124,271,46113,1,2,0:0:0:0:
339,141,46260,1,2,0:0:0:0:
92,179,46406,1,8,0:0:0:0:
272,346,46552,1,0,0:0:0:0:
252,66,46699,6,0,P|238:118|232:183,1,100,6|0,0:0|0:0,0:0:0:0:
272,346,46992,1,8,0:0:0:0:
315,112,47138,2,0,P|310:137|306:165,1,50,2|2,0:0|0:0,0:0:0:0:
310,242,47284,2,0,P|361:253|412:251,1,100,2|2,0:0|0:0,0:0:0:0:
181,268,47577,1,8,0:0:0:0:
385,161,47723,1,0,0:0:0:0:
108,227,47870,6,0,P|101:283|125:330,1,100,6|0,0:0|0:0,0:0:0:0:
377,305,48162,1,8,0:0:0:0:
221,169,48309,1,2,0:0:0:0:
221,169,48382,1,2,0:0:0:0:
221,169,48455,1,2,0:0:0:0:
434,252,48601,1,2,0:0:0:0:
218,336,48748,1,8,0:0:0:0:
349,148,48894,1,0,0:0:0:0:
133,68,49040,6,0,P|111:131|107:167,1,100,6|2,0:0|0:0,0:0:0:0:
292,302,49333,1,8,0:0:0:0:
318,74,49479,2,0,P|250:57|209:59,1,100,8|0,0:0|0:0,0:0:0:0:
365,237,49772,2,0,P|433:254|474:252,1,100,8|0,0:0|0:0,0:0:0:0:
198,248,50065,1,12,0:0:0:0:
218,227,50357,5,8,0:0:0:0:
431,95,50504,1,8,0:0:0:0:
186,143,50650,1,8,0:0:0:0:
358,323,50796,1,8,0:0:0:0:
303,77,50943,1,8,0:0:0:0:
239,318,51089,1,8,0:0:0:0:
378,111,51235,1,8,0:0:0:0:
127,121,51382,5,8,0:0:0:0:
375,337,51528,1,8,0:0:0:0:
220,46,51674,1,8,0:0:0:0:
73,343,51821,1,8,0:0:0:0:
388,247,51967,1,8,0:0:0:0:
64,183,52113,1,8,0:0:0:0:
358,335,52260,1,8,0:0:0:0:
145,83,52406,1,8,0:0:0:0:
221,354,52552,6,0,P|243:307|241:210,1,150.000005722046,4|0,0:0|0:0,0:0:0:0:
169,78,52992,1,0,0:0:0:0:
315,211,53138,2,0,P|253:212|229:208,1,75.0000028610231,8|0,0:0|0:0,0:0:0:0:
271,49,53431,1,2,0:0:0:0:
393,232,53577,6,0,P|314:246|219:237,1,150.000005722046,2|0,0:0|0:0,0:0:0:0:
364,134,54016,1,4,3:0:0:0:
349,321,54162,1,0,0:0:0:0:
438,137,54309,2,0,B|398:134|398:134|339:134,1,75.0000028610231,8|0,0:0|0:0,0:0:0:0:
160,131,54601,1,0,0:0:0:0:
244,242,54748,1,0,0:0:0:0:
95,173,54894,6,0,P|83:125|164:53,1,150.000005722046,4|0,3:0|0:0,0:0:0:0:
339,137,55333,1,0,0:0:0:0:
339,137,55406,1,0,0:0:0:0:
339,137,55479,2,0,P|287:152|234:159,1,75.0000028610231,8|0,0:0|0:0,0:0:0:0:
144,54,55772,1,2,0:0:0:0:
237,226,55918,6,0,B|265:260|265:260|249:207|273:131,1,150.000005722046,2|0,0:0|0:0,0:0:0:0:
177,313,56357,1,4,3:0:0:0:
349,228,56504,1,0,0:0:0:0:
123,233,56650,1,8,0:0:0:0:
317,313,56796,1,0,0:0:0:0:
177,148,56943,2,0,P|192:126|213:107,1,37.5000014305115,2|0,0:0|0:0,0:0:0:0:
292,62,57089,2,0,P|310:56|335:51,1,37.5000014305115,2|0,0:0|0:0,0:0:0:0:
454,132,57235,6,0,B|399:210|301:155,1,150.000005722046,4|0,3:0|0:0,0:0:0:0:
108,281,57674,1,2,0:0:0:0:
120,294,57748,1,0,0:0:0:0:
132,307,57821,2,0,P|191:306|221:299,1,75.0000028610231,10|0,0:0|0:0,0:0:0:0:
384,224,58113,1,2,0:0:0:0:
183,158,58260,6,0,B|230:232|160:251|223:327,1,150.000005722046,2|0,0:0|0:0,0:0:0:0:
312,123,58699,1,4,3:0:0:0:
107,212,58845,1,2,0:0:0:0:
89,206,58918,1,2,0:0:0:0:
67,198,58992,1,10,0:0:0:0:
222,81,59138,1,0,0:0:0:0:
50,191,59284,1,8,0:0:0:0:
222,295,59431,1,8,0:0:0:0:
222,81,59577,6,0,B|185:79|163:65|163:65|180:124|168:218,1,200,6|8,0:0|0:0,0:0:0:0:
441,247,60016,2,0,B|480:227|480:227|429:239|319:231,1,200,6|2,0:0|0:0,0:0:0:0:
144,324,60455,1,8,0:0:0:0:
298,149,60601,1,8,0:0:0:0:
52,96,60748,6,0,P|70:139|99:187,1,100,6|0,0:0|0:0,0:0:0:0:
290,317,61040,1,8,0:0:0:0:
363,100,61187,2,0,P|306:67|216:166,1,200,6|10,0:0|0:0,0:0:0:0:
394,312,61626,1,8,0:0:0:0:
394,312,61699,1,8,0:0:0:0:
394,312,61772,1,8,0:0:0:0:
394,312,61845,1,8,0:0:0:0:
394,312,61918,6,0,P|355:258|342:224,1,100,6|2,0:0|0:0,0:0:0:0:
341,41,62211,1,8,0:0:0:0:
194,247,62357,2,0,L|383:221,1,150,6|0,0:0|0:0,0:0:0:0:
372,186,62650,1,8,0:0:0:0:
358,138,62723,1,8,0:0:0:0:
325,100,62796,1,8,0:0:0:0:
275,87,62870,1,8,0:0:0:0:
226,96,62943,1,8,0:0:0:0:
193,133,63016,1,8,0:0:0:0:
190,182,63089,6,0,P|212:127|200:68,1,100,6|2,0:0|0:0,0:0:0:0:
24,197,63382,1,8,0:0:0:0:
176,329,63528,2,0,P|234:298|296:204,1,150,6|0,0:0|0:0,0:0:0:0:
289,182,63821,1,8,0:0:0:0:
273,134,63894,1,8,0:0:0:0:
226,96,63967,1,8,0:0:0:0:
177,83,64040,1,8,0:0:0:0:
128,94,64113,1,8,0:0:0:0:
93,130,64187,1,8,0:0:0:0:
81,178,64260,6,0,P|98:125|93:76,1,100,6|2,0:0|0:0,0:0:0:0:
36,263,64552,1,8,0:0:0:0:
300,299,64699,2,0,B|349:275|349:275|297:287|220:278,1,150,6|0,0:0|0:0,0:0:0:0:
204,272,64992,1,8,0:0:0:0:
175,231,65065,1,8,0:0:0:0:
188,182,65138,1,8,0:0:0:0:
233,161,65211,1,8,0:0:0:0:
282,166,65284,1,8,0:0:0:0:
330,156,65357,1,8,0:0:0:0:
373,129,65431,6,0,P|359:196|368:243,1,100,6|2,0:0|0:0,0:0:0:0:
464,71,65723,1,8,0:0:0:0:
263,55,65870,2,0,B|215:77|215:77|160:67|108:72,1,150,6|0,0:0|0:0,0:0:0:0:
78,101,66162,1,8,0:0:0:0:
56,145,66235,1,8,0:0:0:0:
71,193,66309,1,8,0:0:0:0:
102,231,66382,1,8,0:0:0:0:
148,249,66455,1,8,0:0:0:0:
197,239,66528,1,8,0:0:0:0:
239,212,66601,5,12,0:0:0:0:
395,337,66748,1,8,0:0:0:0:
322,150,66894,1,8,0:0:0:0:
222,322,67040,1,8,0:0:0:0:
166,128,67187,1,8,0:0:0:0:
330,241,67333,1,8,0:0:0:0:
131,258,67479,1,8,0:0:0:0:
316,336,67626,1,8,0:0:0:0:
260,144,67772,5,8,0:0:0:0:
473,353,67918,1,8,0:0:0:0:
385,64,68065,1,8,0:0:0:0:
198,298,68211,1,8,0:0:0:0:
467,168,68357,1,8,0:0:0:0:
192,43,68504,1,8,0:0:0:0:
276,330,68650,1,8,0:0:0:0:
41,143,68796,1,8,0:0:0:0:
322,36,68943,5,12,0:0:0:0:
153,346,69235,1,8,0:0:0:0:
207,40,69528,1,12,0:0:0:0:
326,248,69674,1,8,0:0:0:0:
30,94,69967,6,0,P|84:117|197:113,1,150,12|0,0:0|0:0,0:0:0:0:
254,103,70260,1,8,0:0:0:0:
37,349,70406,1,12,0:0:0:0:
297,93,71138,6,0,B|317:82|332:61|332:61|356:131|330:173|330:173|355:237,1,220.000006713867,8|0,0:0|0:0,0:0:0:0:
62,286,71577,2,0,B|109:276|109:276|137:253|183:250,1,110.000003356934,8|0,0:0|0:0,0:0:0:0:
400,126,71870,2,0,B|353:116|353:116|325:93|279:90,1,110.000003356934,2|2,0:0|0:0,0:0:0:0:
62,286,72162,1,8,0:0:0:0:
241,39,72309,6,0,B|212:79|214:124|256:155|256:155|248:210|248:210|215:153,1,220.000006713867,6|2,0:0|0:0,0:0:0:0:
463,344,72748,2,0,P|415:287|389:242,1,110.000003356934,8|0,0:0|0:0,0:0:0:0:
152,333,73040,1,2,0:0:0:0:
346,172,73187,1,2,0:0:0:0:
262,354,73333,1,8,0:0:0:0:
274,111,73479,6,0,B|313:95|313:95|251:82|251:82|195:118|131:88,1,220.000006713867,6|2,0:0|0:0,0:0:0:0:
358,314,73918,1,8,0:0:0:0:
138,237,74065,1,2,0:0:0:0:
116,228,74138,1,0,0:0:0:0:
91,227,74211,1,2,0:0:0:0:
371,203,74357,1,2,0:0:0:0:
175,338,74504,1,8,0:0:0:0:
441,158,74650,6,0,B|467:228|416:271|416:271|405:305|405:305|458:267,1,220.000006713867,6|2,0:0|0:0,0:0:0:0:
478,86,75089,1,8,0:0:0:0:
227,207,75235,1,2,0:0:0:0:
237,225,75309,1,0,0:0:0:0:
256,239,75382,1,2,0:0:0:0:
385,52,75528,1,2,0:0:0:0:
281,254,75674,1,8,0:0:0:0:
85,44,75821,6,0,B|50:67|50:67|115:119|147:19|234:100,1,220.000006713867,6|2,0:0|0:0,0:0:0:0:
169,146,76187,1,0,0:0:0:0:
169,146,76260,2,0,P|173:209|157:254,1,110.000003356934,8|0,0:0|0:0,0:0:0:0:
305,112,76552,1,2,0:0:0:0:
85,194,76699,1,2,0:0:0:0:
263,331,76845,1,8,0:0:0:0:
404,153,76992,6,0,P|363:127|279:111,1,110.000003356934,6|0,0:0|0:0,0:0:0:0:
211,265,77284,1,2,0:0:0:0:
418,74,77431,2,0,P|366:50|286:39,1,110.000003356934,8|0,0:0|0:0,0:0:0:0:
211,265,77723,1,2,0:0:0:0:
314,39,77870,1,2,0:0:0:0:
301,265,78016,1,8,0:0:0:0:
198,39,78163,1,2,0:0:0:0:
85,250,78309,5,2,0:0:0:0:
407,217,79040,1,4,3:0:0:0:
386,234,79113,1,4,3:0:0:0:
370,251,79187,1,4,3:0:0:0:
126,96,79333,6,0,B|101:46|101:46|135:137|113:213,1,200,6|2,0:0|0:0,0:0:0:0:
310,351,79772,2,0,P|307:331|295:296,1,50,10|0,0:0|0:0,0:0:0:0:
386,273,79918,2,0,P|389:253|401:218,1,50,2|0,0:0|0:0,0:0:0:0:
463,138,80065,1,8,0:0:0:0:
408,163,80138,1,8,0:0:0:0:
348,171,80211,1,8,0:0:0:0:
296,140,80284,1,8,0:0:0:0:
239,121,80357,1,8,0:0:0:0:
179,134,80431,1,8,0:0:0:0:
128,176,80504,6,0,P|201:158|156:48,1,220.000006713867,6|2,0:0|0:0,0:0:0:0:
394,292,80943,2,0,B|341:291|341:291|287:260,1,110.000003356934,8|0,0:0|0:0,0:0:0:0:
338,48,81235,1,2,0:0:0:0:
128,176,81382,1,2,0:0:0:0:
372,150,81528,1,8,0:0:0:0:
143,284,81674,6,0,P|139:220|120:156,1,110.000003356934,6|0,0:0|0:0,0:0:0:0:
372,150,81967,1,2,0:0:0:0:
147,71,82113,2,0,B|126:107|126:107|127:184,1,110.000003356934,8|0,0:0|0:0,0:0:0:0:
342,349,82406,1,2,0:0:0:0:
285,136,82552,1,2,0:0:0:0:
234,353,82699,1,8,0:0:0:0:
369,120,82845,6,0,P|332:67|200:122,1,220.000006713867,6|2,0:0|0:0,0:0:0:0:
477,110,83284,2,0,P|410:111|364:121,1,110.000003356934,8|0,0:0|0:0,0:0:0:0:
95,235,83577,2,0,P|162:234|208:224,1,110.000003356934,2|2,0:0|0:0,0:0:0:0:
477,110,83870,1,8,0:0:0:0:
297,205,84016,6,0,P|302:264|317:316,1,110.000003356934,6|0,0:0|0:0,0:0:0:0:
471,198,84309,1,2,0:0:0:0:
227,216,84455,2,0,P|232:275|247:327,1,110.000003356934,8|0,0:0|0:0,0:0:0:0:
352,101,84748,1,8,0:0:0:0:
291,74,84821,1,8,0:0:0:0:
225,74,84894,1,8,0:0:0:0:
166,104,84967,1,8,0:0:0:0:
127,157,85040,1,8,0:0:0:0:
116,222,85113,1,8,0:0:0:0:
129,287,85187,6,0,B|145:349|145:349|139:278|177:182,1,220.000006713867,6|2,0:0|0:0,0:0:0:0:
486,267,85626,2,0,P|422:278|371:271,1,110.000003356934,8|0,0:0|0:0,0:0:0:0:
245,98,85918,1,2,0:0:0:0:
281,291,86065,1,2,0:0:0:0:
325,52,86211,1,8,0:0:0:0:
171,295,86357,6,0,P|221:298|296:287,1,110.000003356934,6|0,0:0|0:0,0:0:0:0:
439,162,86650,1,2,0:0:0:0:
226,81,86796,1,8,0:0:0:0:
387,280,86943,1,0,0:0:0:0:
318,42,87089,1,2,0:0:0:0:
342,339,87235,2,0,P|352:261|351:210,1,110.000003356934,2|8,0:0|0:0,0:0:0:0:
106,38,87528,6,0,B|166:24|166:24|222:48|222:48|272:26|333:46,1,220.000006713867,6|2,0:0|0:0,0:0:0:0:
188,306,87967,1,8,0:0:0:0:
321,172,88113,1,2,0:0:0:0:
303,159,88187,1,0,0:0:0:0:
286,153,88260,1,2,0:0:0:0:
402,347,88406,1,2,0:0:0:0:
169,209,88552,1,8,0:0:0:0:
388,64,88699,1,2,0:0:0:0:
402,347,88845,5,2,0:0:0:0:
413,316,89138,1,4,0:0:0:0:
245,202,89284,1,4,0:0:0:0:
424,101,89431,1,4,0:0:0:0:
186,71,89577,2,0,B|183:85|183:85|186:99|186:99|180:113|180:113|185:128|185:128|181:143|181:143,1,75,4|0,0:0|0:0,0:0:0:0:
165,339,89870,6,0,P|109:339|94:219,1,200,6|2,0:0|0:0,0:0:0:0:
406,212,90309,1,8,0:0:0:0:
138,274,90455,2,0,P|170:265|190:242,1,50,2|0,0:0|0:0,0:0:0:0:
217,177,90601,1,2,0:0:0:0:
61,339,90748,1,2,0:0:0:0:
22,160,90894,1,8,0:0:0:0:
281,124,91040,6,0,B|298:181|298:181|277:226|298:263|298:263|279:333,1,200,6|2,0:0|0:0,0:0:0:0:
375,124,91479,1,8,0:0:0:0:
161,123,91626,1,2,0:0:0:0:
161,123,91699,1,0,0:0:0:0:
161,123,91772,1,2,0:0:0:0:
404,227,91918,1,2,0:0:0:0:
134,203,92065,1,8,0:0:0:0:
409,310,92211,6,0,P|469:273|438:154,1,200,6|2,0:0|0:0,0:0:0:0:
250,82,92650,1,8,0:0:0:0:
459,57,92796,1,10,0:0:0:0:
62,111,93089,1,8,0:0:0:0:
409,310,93382,1,10,0:0:0:0:
239,52,93674,5,8,0:0:0:0:
169,314,93821,1,8,0:0:0:0:
424,227,93967,1,12,0:0:0:0:
