osu file format v14

[General]
AudioFilename: audio.mp3
AudioLeadIn: 0
PreviewTime:66696
Countdown: 0
SampleSet: Normal
StackLeniency: 0.3
Mode: 0
LetterboxInBreaks: 0
WidescreenStoryboard: 1

[Editor]
DistanceSpacing: 1.9
BeatDivisor: 4
GridSize: 4
TimelineZoom: 1.6

[Metadata]
Title:Kakumei Dualism (TV Size)
TitleUnicode:革命デュアリズム (TV Size)
Artist:Mizuki Nana x T.M.Revolution
ArtistUnicode:水樹奈々×T.M.Revolution
Creator:Gorou
Version:Insane
Source:革命機ヴァルヴレイヴ
Tags:jieusieu nyar kiiwa skystar amamiya yuko kaedehara kazuha kaedeharakazuha addy2607 wanpachi kakumeiki valvrave the liberator japanese rock jrock j-rock anime takanori nishikawa makes revolution 西川貴教 opening op s2 season two 2nd
BeatmapID:4264595
BeatmapSetID:2043452

[Difficulty]
HPDrainRate:5.5
CircleSize:4
OverallDifficulty:7
ApproachRate:9
SliderMultiplier:1.6
SliderTickRate:2

[Events]
//Background and Video events
0,0,"bg.jpg",0,0
//Break Periods
2,28920,35744
//Storyboard Layer 0 (Background)
//Storyboard Layer 1 (Fail)
//Storyboard Layer 2 (Pass)
//Storyboard Layer 3 (Foreground)
//Storyboard Layer 4 (Overlay)
//Storyboard Sound Samples

[TimingPoints]
623,292.682926829268,4,2,3,40,1,0
623,-133.333333333333,4,2,3,40,0,0
5305,-133.333333333333,4,2,4,40,0,0
14086,-250,4,2,4,40,0,0
14232,-250,4,2,3,40,0,0
14525,-83.3333333333333,4,1,1,60,0,0
14671,-100,4,1,1,60,0,0
14818,-100,4,1,1,50,0,0
15696,-83.3333333333333,4,1,1,60,0,0
15842,-100,4,1,1,60,0,0
15988,-100,4,1,1,50,0,0
16866,-83.3333333333333,4,1,1,60,0,0
17012,-100,4,1,1,60,0,0
17159,-100,4,1,1,50,0,0
18622,-100,4,1,1,60,0,0
18769,-100,4,1,1,50,0,0
19208,-83.3333333333333,4,1,1,60,0,0
19354,-100,4,1,1,60,0,0
19501,-100,4,1,1,50,0,0
20379,-83.3333333333333,4,1,1,60,0,0
20525,-100,4,1,1,60,0,0
20671,-100,4,1,1,50,0,0
21549,-83.3333333333333,4,1,1,60,0,0
21695,-100,4,1,1,60,0,0
21842,-100,4,1,1,50,0,0
23305,-83.3333333333333,4,1,1,60,0,0
23452,-100,4,1,1,50,0,0
24037,-100,4,1,1,40,0,0
24330,-100,4,1,1,50,0,0
26379,-83.3333333333333,4,1,1,40,0,0
26671,-83.3333333333333,4,1,1,50,0,0
28720,-83.3333333333333,4,2,3,40,0,0
28793,-200,4,2,3,40,0,0
37647,-200,4,1,1,40,0,0
37757,-100,4,1,1,40,0,0
38086,-111.111111111111,4,1,2,50,0,0
46720,-111.111111111111,4,1,2,36,0,0
46866,-111.111111111111,4,1,2,38,0,0
47013,-111.111111111111,4,1,2,40,0,0
47159,-111.111111111111,4,1,2,42,0,0
47305,-111.111111111111,4,1,2,44,0,0
47452,-111.111111111111,4,1,2,46,0,0
47598,-111.111111111111,4,1,2,48,0,0
47744,-111.111111111111,4,1,2,50,0,0
47891,-111.111111111111,4,1,2,52,0,0
48037,-111.111111111111,4,1,2,54,0,0
48183,-111.111111111111,4,1,2,56,0,0
48330,-111.111111111111,4,1,2,58,0,0
48476,-111.111111111111,4,1,2,60,0,0
48622,-133.333333333333,4,2,3,40,0,0
48769,-133.333333333333,4,1,2,40,0,0
55647,-111.111111111111,4,1,2,40,0,0
56086,-90.9090909090908,4,1,1,50,0,0
56232,-111.111111111111,4,1,1,50,0,0
56818,-111.111111111111,4,1,2,40,0,0
57257,-111.111111111111,4,1,1,50,0,0
57988,-100,4,1,2,40,0,0
58427,-100,4,1,1,50,0,0
59159,-100,4,1,2,40,0,0
59598,-100,4,1,1,50,0,0
60330,-100,4,1,2,40,0,0
60769,-100,4,1,1,50,0,0
61501,-100,4,1,2,40,0,0
61940,-100,4,1,1,50,0,0
62671,-100,4,1,1,32,0,0
62818,-100,4,1,1,34,0,0
62964,-100,4,1,1,36,0,0
63110,-100,4,1,1,38,0,0
63257,-100,4,1,1,40,0,0
63403,-100,4,1,1,42,0,0
63549,-100,4,1,1,44,0,0
63696,-100,4,1,1,46,0,0
63842,-100,4,1,1,48,0,0
63988,-100,4,1,1,50,0,0
64135,-100,4,1,1,52,0,0
64281,-100,4,1,1,54,0,0
64427,-100,4,1,1,56,0,0
64574,-100,4,1,1,58,0,0
65013,-100,4,1,1,60,0,0
66037,-83.3333333333333,4,1,1,60,0,0
66183,-100,4,1,1,60,0,0
66769,-133.333333333333,4,1,1,60,0,0
67208,-83.3333333333333,4,1,99,60,0,1
67354,-100,4,1,99,60,0,1
67501,-100,4,1,1,60,0,1
68379,-83.3333333333333,4,1,1,60,0,1
68525,-100,4,1,1,60,0,1
69549,-83.3333333333333,4,1,1,60,0,1
69695,-100,4,1,1,60,0,1
70720,-83.3333333333333,4,1,1,60,0,1
70866,-100,4,1,1,60,0,1
71891,-83.3333333333333,4,1,1,60,0,1
72037,-100,4,1,1,60,0,1
73062,-83.3333333333333,4,1,1,60,0,1
73208,-100,4,1,1,60,0,1
73501,-100,4,1,1,50,0,1
74379,-100,4,1,1,40,0,0
75403,-83.3333333333333,4,1,1,50,0,1
75549,-100,4,1,1,50,0,1
76574,-83.3333333333333,4,1,99,60,0,1
76720,-100,4,1,99,60,0,1
76866,-100,4,1,1,60,0,1
77744,-83.3333333333333,4,1,1,60,0,1
77890,-100,4,1,1,60,0,1
78915,-83.3333333333333,4,1,1,60,0,1
79061,-100,4,1,1,60,0,1
80086,-83.3333333333333,4,1,1,60,0,1
80232,-100,4,1,1,60,0,1
81257,-83.3333333333333,4,1,1,60,0,1
81403,-100,4,1,1,60,0,1
82427,-83.3333333333333,4,1,1,60,0,1
82573,-100,4,1,1,60,0,1
83598,-83.3333333333333,4,1,1,60,0,1
83744,-100,4,1,1,60,0,1
84330,-100,4,1,1,50,0,1
84915,-83.3333333333333,4,1,1,40,0,0
85208,-83.3333333333333,4,2,3,40,0,0
85501,-166.666666666667,4,2,3,40,0,0
85940,-83.3333333333333,4,1,1,50,0,1
86086,-100,4,1,1,50,0,0
87110,-83.3333333333333,4,1,1,50,0,1
87257,-100,4,1,1,50,0,0
88281,-83.3333333333333,4,1,1,50,0,1
90037,-83.3333333333333,4,1,1,50,0,0

[Colours]
Combo1 : 237,174,156
Combo2 : 125,198,240
Combo3 : 240,155,157
Combo4 : 75,132,194

[HitObjects]
408,228,623,6,0,P|438:234|468:260,1,60.0000022888184,2|0,0:0|0:0,0:0:0:0:
404,308,915,1,0,0:0:0:0:
341,263,1062,2,0,P|335:203|380:156,1,120.000004577637,2|0,0:0|0:0,0:0:0:0:
384,152,1427,1,0,0:0:0:0:
396,146,1501,6,0,L|405:76,1,60.0000022888184,2|0,0:0|0:0,0:0:0:0:
324,100,1793,1,0,0:0:0:0:
256,28,1940,2,0,L|240:146,1,120.000004577637,2|0,0:0|0:0,0:0:0:0:
156,152,2379,6,0,L|161:196,3,30.0000011444092
155,152,2671,2,0,L|160:107,3,30.0000011444092
155,152,2964,6,0,P|112:168|84:160,1,60.0000022888184,2|0,0:0|0:0,0:0:0:0:
88,88,3257,1,0,0:0:0:0:
28,136,3403,2,0,P|28:200|68:240,1,120.000004577637,2|0,0:0|0:0,0:0:0:0:
144,244,3842,6,0,L|208:232,1,60.0000022888184,2|0,0:0|0:0,0:0:0:0:
304,248,4135,1,0,0:0:0:0:
240,300,4281,2,0,L|264:172,1,120.000004577637,2|0,0:0|0:0,0:0:0:0:
262,182,4866,2,0,P|258:150|262:122,2,60.0000022888184
395,271,5305,5,2,0:0:0:0:
479,243,5452,2,0,B|359:227|359:227|295:251,1,180.000006866455,2|8,0:0|0:0,0:0:0:0:
303,247,6183,5,2,0:0:0:0:
336,152,6330,2,0,P|344:88|336:32,2,120.000004577637,10|0|0,0:0|0:0|0:0,0:0:0:0:
200,56,7062,2,0,L|260:44,1,60.0000022888184,0|8,0:0|0:0,0:0:0:0:
258,143,7354,2,0,L|200:132,1,60.0000022888184
48,92,7647,5,2,0:0:0:0:
112,36,7793,2,0,B|131:93|131:93|112:151|112:151|131:208,1,180.000006866455,2|2,0:0|0:0,0:0:0:0:
130,206,8525,5,2,0:0:0:0:
217,286,8671,2,0,P|159:284|116:324,2,120.000004577637,2|0|0,0:0|0:0|0:0,0:0:0:0:
376,348,9403,2,0,B|388:320|388:320|384:284,1,60.0000022888184
295,337,9696,2,0,B|292:308|292:308|304:280,1,60.0000022888184
364,160,9988,5,2,0:0:0:0:
444,208,10135,2,0,B|332:228|376:168|268:188,1,180.000006866455,2|8,0:0|0:0,0:0:0:0:
270,187,10866,5,2,0:0:0:0:
176,248,11013,2,0,B|188:192|188:192|172:124,2,120.000004577637,10|0|0,0:0|0:0|0:0,0:0:0:0:
96,356,11744,2,0,P|104:320|124:292,1,60.0000022888184,0|8,0:0|0:0,0:0:0:0:
232,304,12037,2,0,P|246:337|246:372,1,60.0000022888184
128,172,12330,5,2,0:0:0:0:
176,248,12476,2,0,B|212:200|212:200|220:116|144:88,1,180.000006866455,10|0,0:0|0:0,0:0:0:0:
148,88,12988,6,0,L|96:92,2,30.0000011444092
148,88,13208,2,0,L|200:92,3,30.0000011444092
388,192,13793,5,0,0:0:0:0:
388,192,13940,1,0,0:0:0:0:
388,192,14086,2,0,L|480:200,1,80
488,212,14525,6,0,B|548:152|504:72|504:72|440:96,1,191.999994140625,4|2,0:0|0:2,0:0:0:0:
324,128,14964,2,0,P|312:88|328:40,1,80,8|2,0:0|2:0,0:0:0:0:
384,208,15257,1,0,0:0:0:0:
340,312,15403,2,0,P|380:300|428:316,1,80,2|8,0:2|0:0,0:0:0:0:
224,232,15696,6,0,B|92:216|92:216|12:252,1,191.999994140625,4|2,0:0|0:2,0:0:0:0:
76,368,16135,2,0,B|96:356|96:356|116:324|100:276,1,80,8|2,0:0|2:0,0:0:0:0:
38,240,16427,1,0,0:0:0:0:
28,152,16574,2,0,L|44:72,1,80,2|8,0:2|0:0,0:0:0:0:
188,48,16866,6,0,B|252:80|320:52|320:52|284:68|264:120,1,191.999994140625,4|2,0:0|0:2,0:0:0:0:
224,232,17305,1,8,0:0:0:0:
328,276,17452,2,0,P|336:232|328:192,1,80,2|0,2:0|0:0,0:0:0:0:
192,144,17744,1,0,0:0:0:0:
192,144,17818,1,0,0:0:0:0:
192,144,17891,1,8,0:0:0:0:
104,216,18037,6,0,B|224:232|224:232|172:260,1,160,4|2,0:0|0:2,0:0:0:0:
36,340,18476,5,8,0:0:0:0:
189,250,18622,1,4,0:0:0:0:
16,332,18769,5,0,0:0:0:0:
124,360,18915,2,0,B|128:340|128:340|124:320,3,40,0|0|8|0,0:0|0:0|0:0|0:0,0:0:0:0:
112,376,19208,6,0,B|160:380|196:340|196:340|256:328|296:384,1,191.999994140625,4|2,0:0|0:2,0:0:0:0:
436,284,19647,2,0,B|444:244|444:244|436:204,1,80,8|2,0:0|2:0,0:0:0:0:
316,244,19940,1,0,0:0:0:0:
380,364,20086,2,0,L|468:380,1,80,2|8,0:2|0:0,0:0:0:0:
296,260,20379,6,0,B|236:204|284:132|284:132|340:168,1,191.999994140625,4|2,0:0|0:2,0:0:0:0:
184,208,20818,2,0,P|140:220|100:208,1,80,8|2,0:0|2:0,0:0:0:0:
244,64,21110,1,0,0:0:0:0:
263,58,21183,1,0,0:0:0:0:
282,52,21256,1,0,0:0:0:0:
40,128,21403,1,8,0:0:0:0:
92,224,21549,6,0,P|66:185|152:88,1,191.999994140625,4|2,0:0|2:0,0:0:0:0:
192,240,21988,2,0,L|180:348,1,80,8|2,0:0|0:2,0:0:0:0:
280,204,22281,2,0,L|367:268,1,80
360,260,22501,1,0,0:0:0:0:
376,268,22574,1,8,0:0:0:0:
480,120,22720,6,0,B|420:132|375:93|375:93|332:112,1,160,4|2,0:0|0:2,0:0:0:0:
152,100,23159,1,8,0:0:0:0:
220,48,23305,2,0,B|272:120|232:192|232:192|192:164,1,191.999994140625,4|0,0:0|0:0,0:0:0:0:
46,227,23744,1,8,0:0:0:0:
59,229,23817,1,8,0:0:0:0:
72,233,23890,1,8,0:0:0:0:
83,239,23963,1,8,0:0:0:0:
108,252,24037,6,0,L|116:164,1,80,4|0,0:0|0:0,0:0:0:0:
188,352,24330,2,0,L|196:264,1,80,8|2,0:0|2:0,0:0:0:0:
372,232,24622,1,8,0:0:0:0:
284,264,24769,2,0,L|291:184,1,80,2|8,2:0|0:0,0:0:0:0:
212,44,25062,6,0,B|232:92|216:144|216:144|232:116|260:108,1,160,2|2,2:0|2:0,0:0:0:0:
140,96,25501,2,0,B|104:84|104:84|52:96,1,80,8|2,0:0|2:0,0:0:0:0:
292,32,25793,2,0,B|328:44|328:44|380:32,1,80,8|2,0:0|2:0,0:0:0:0:
216,144,26086,1,8,0:0:0:0:
208,148,26159,1,0,0:0:0:0:
200,152,26232,2,0,L|190:216,1,40,2|0,2:0|0:0,0:0:0:0:
128,236,26379,6,0,B|104:216|104:216|60:212|24:244,1,95.9999970703126
340,264,26671,2,0,B|364:284|364:284|408:288|444:256,1,95.9999970703126,4|0,0:0|2:0,0:0:0:0:
288,176,26964,5,0,0:0:0:0:
196,367,27110,2,0,P|228:283|176:175,1,191.999994140625,0|4,0:0|0:0,0:0:0:0:
256,192,27476,12,2,28720,0:0:0:0:
380,72,37208,6,0,B|472:52|472:52|448:84,1,120,2|0,0:0|0:0,0:0:0:0:
311,118,37793,6,0,P|300:60|331:9,1,120
357,7,38086,6,0,P|378:36|380:72,1,71.9999978027344,2|0,0:0|0:0,0:0:0:0:
296,144,38379,1,8,0:0:0:0:
384,216,38525,2,0,L|456:204,2,71.9999978027344,2|0|2,0:0|2:0|0:0,0:0:0:0:
280,260,38964,1,8,0:0:0:0:
374,349,39110,6,0,P|402:284|384:216,1,143.999995605469,2|2,0:0|0:0,0:0:0:0:
212,196,39549,2,0,P|184:261|202:329,1,143.999995605469,8|0,0:0|0:0,0:0:0:0:
280,260,39988,1,2,0:0:0:0:
304,172,40135,2,0,B|312:136|312:136|304:100,1,71.9999978027344,8|0,0:0|0:0,0:0:0:0:
136,164,40427,2,0,B|128:200|128:200|136:236,1,71.9999978027344,2|0,0:0|0:0,0:0:0:0:
200,80,40720,1,8,0:0:0:0:
100,68,40866,5,2,0:0:0:0:
104,72,41159,2,0,L|184:80,1,71.9999978027344,2|8,0:0|0:0,0:0:0:0:
340,8,41452,6,0,B|300:48|316:108|316:108|348:132,1,143.999995605469,2|0,0:0|0:0,0:0:0:0:
228,220,41891,2,0,P|224:176|236:136,1,71.9999978027344,8|2,0:0|0:0,0:0:0:0:
344,248,42183,2,0,P|348:292|336:332,2,71.9999978027344,0|2|8,0:0|0:0|0:0,0:0:0:0:
368,144,42622,1,0,0:0:0:0:
486,228,42769,6,0,L|344:248,1,143.999995605469,0|8,0:0|0:0,0:0:0:0:
191,304,43208,2,0,B|223:320|223:320|263:268|223:212,1,143.999995605469,2|2,0:0|0:0,0:0:0:0:
144,132,43647,2,0,P|108:124|64:132,1,71.9999978027344,8|0,0:0|0:0,0:0:0:0:
227,219,43940,6,0,B|243:115|243:115|223:67,1,143.999995605469,0|8,0:0|0:0,0:0:0:0:
369,4,44379,2,0,B|353:108|353:108|373:156,1,143.999995605469,2|2,0:0|0:0,0:0:0:0:
440,216,44818,1,8,0:0:0:0:
440,216,45110,6,0,P|480:200|520:208,1,71.9999978027344
380,300,45403,1,8,0:0:0:0:
320,224,45549,2,0,P|252:251|184:237,1,143.999995605469,2|2,0:0|0:0,0:0:0:0:
96,168,45988,1,0,0:0:0:0:
184,237,46135,6,0,B|172:124|172:124|140:92,1,143.999995605469,2|8,0:0|0:0,0:0:0:0:
112,12,46574,2,0,B|76:20|76:20|36:16,1,71.9999978027344,8|8,0:0|0:0,0:0:0:0:
150,102,46866,2,0,B|186:94|186:94|226:98,1,71.9999978027344,8|8,0:0|0:0,0:0:0:0:
11,187,47159,2,0,L|24:116,1,71.9999978027344,8|8,0:0|0:0,0:0:0:0:
202,335,47452,5,8,0:0:0:0:
85,252,47598,1,8,0:0:0:0:
184,237,47744,1,8,0:0:0:0:
104,350,47890,1,8,0:0:0:0:
60,256,48037,6,0,P|56:220|60:180,1,71.9999978027344,8|8,0:0|0:0,0:0:0:0:
201,263,48330,2,0,P|205:299|201:339,1,71.9999978027344,8|8,0:0|0:0,0:0:0:0:
336,220,48622,6,0,P|392:256|508:220,1,180.000006866455,2|0,0:0|0:0,0:0:0:0:
420,180,49208,2,0,B|396:133|431:89|431:89|455:124,1,120.000004577637,8|2,0:0|0:0,0:0:0:0:
420,180,49647,2,0,P|353:122|349:34,1,180.000006866455,2|0,0:0|0:0,0:0:0:0:
224,76,50232,5,2,0:0:0:0:
290,25,50379,2,0,L|362:37,1,60.0000022888184,8|2,0:0|0:0,0:0:0:0:
264,148,50671,2,0,L|192:160,1,60.0000022888184,8|2,0:0|0:0,0:0:0:0:
36,168,50964,6,0,B|88:144|88:144|152:172|124:260,1,180.000006866455,2|2,0:0|0:0,0:0:0:0:
80,316,51549,2,0,P|160:292|204:308,1,120.000004577637,8|2,0:0|0:0,0:0:0:0:
144,368,51988,2,0,L|128:248,2,120.000004577637,0|8|10,0:0|0:0|0:0,0:0:0:0:
228,376,52720,5,8,0:0:0:0:
228,376,52866,1,2,0:0:0:0:
300,344,53013,2,0,P|304:328|300:312,1,30.0000011444092
240,264,53159,2,0,L|210:260,1,30.0000011444092,2|0,0:0|0:0,0:0:0:0:
316,232,53305,6,0,B|368:196|428:224|428:224|444:260|488:268,1,180.000006866455,2|0,0:0|0:0,0:0:0:0:
316,232,53891,2,0,B|300:144|300:144|316:112,1,120.000004577637,8|2,0:0|0:0,0:0:0:0:
436,45,54330,2,0,P|440:102|391:131,2,120.000004577637,8|8|8,0:0|0:0|0:0,0:0:0:0:
300,44,55062,6,0,B|330:40|330:40|360:56,1,60.0000022888184,8|2,0:0|0:0,0:0:0:0:
332,184,55354,2,0,B|301:187|301:187|272:172,1,60.0000022888184,0|2,0:0|0:0,0:0:0:0:
152,40,55647,6,0,B|180:20|180:20|232:52|204:116,1,143.999995605469,4|0,2:0|2:0,0:0:0:0:
148,32,56086,6,0,B|182:7|182:7|245:46|211:124,1,176.000005371094,4|0,0:0|0:0,0:0:0:0:
124,164,56525,2,0,P|88:156|48:164,1,71.9999978027344,8|0,0:0|0:0,0:0:0:0:
168,300,56818,6,0,P|204:308|244:300,1,71.9999978027344,4|0,0:2|0:0,0:0:0:0:
204,224,57110,1,8,0:0:0:0:
84,252,57257,2,0,B|96:360|96:360|56:316,1,143.999995605469,4|0,0:0|0:0,0:0:0:0:
83,252,57696,2,0,P|92:236|108:220,1,35.9999989013672,8|0,0:0|0:0,0:0:0:0:
180,196,57842,2,0,P|197:196|219:204,1,35.9999989013672
280,256,57988,6,0,L|368:240,1,80,4|2,0:2|0:0,0:0:0:0:
332,332,58281,1,8,0:0:0:0:
436,160,58427,2,0,B|372:176|324:140|324:140|281:147,1,160,4|0,0:0|0:0,0:0:0:0:
268,136,58793,1,0,0:0:0:0:
256,124,58866,2,0,P|248:104|248:72,3,40
260,64,59159,6,0,P|196:24|104:72,1,160,4|8,0:2|0:0,0:0:0:0:
28,136,59598,2,0,P|101:161|167:121,1,160,4|0,0:0|0:0,0:0:0:0:
148,128,59964,1,0,0:0:0:0:
128,136,60037,2,0,L|116:188,1,40
168,316,60183,2,0,L|176:277,1,40
96,252,60330,6,0,B|196:276|152:212|268:232,1,160,4|8,0:2|0:0,0:0:0:0:
444,308,60769,2,0,B|404:320|404:320|336:280|384:204,1,160,4|0,0:0|0:0,0:0:0:0:
396,208,61135,1,0,0:0:0:0:
416,200,61208,2,0,L|504:208,1,80
512,188,61427,1,0,0:0:0:0:
496,168,61501,6,0,P|456:152|484:56,1,160,4|8,0:2|0:0,0:0:0:0:
348,4,61940,2,0,B|351:38|360:61|360:61|344:100|344:100|360:128|352:164,1,160,4|0,0:0|0:0,0:0:0:0:
204,204,62379,2,0,L|156:196,1,40,8|8,0:0|0:0,0:0:0:0:
276,168,62525,2,0,P|284:188|286:210,1,40,8|8,0:0|0:0,0:0:0:0:
164,300,62671,6,0,P|148:260|144:216,1,80,8|8,0:0|0:0,0:0:0:0:
248,360,62964,1,8,0:0:0:0:
164,300,63110,2,0,L|68:316,2,80,8|8|8,0:0|0:0|0:0,0:0:0:0:
336,308,63549,2,0,L|432:324,1,80,8|8,0:0|0:0,0:0:0:0:
292,136,63842,6,0,P|284:176|292:220,1,80,8|8,0:0|0:0,0:0:0:0:
360,56,64135,1,8,0:0:0:0:
512,120,64281,2,0,B|492:136|492:136|460:144|420:124,2,80,8|8|8,0:0|0:0|0:0,0:0:0:0:
289,214,64720,2,0,B|309:198|309:198|341:190|381:210,1,80,8|0,0:0|0:0,0:0:0:0:
176,96,65013,5,8,0:0:0:0:
160,272,65305,5,8,0:0:0:0:
336,288,65598,5,8,0:0:0:0:
208,208,65744,1,8,0:0:0:0:
208,208,66037,6,0,B|240:248|236:304|236:304|244:284|268:268,1,143.999995605469,4|0,0:0|0:0,0:0:0:0:
280,268,66330,2,0,L|380:288,1,80
176,100,66769,6,0,L|95:116,2,60.0000022888184
48,84,67208,6,0,B|100:84|144:116|144:116|160:156|160:156|224:176,1,191.999994140625,12|2,0:2|0:2,0:0:0:0:
363,61,67647,2,0,P|374:100|376:140,1,80,8|2,0:0|2:2,0:0:0:0:
308,294,67940,2,0,P|297:255|296:216,1,80,0|2,0:0|0:2,0:0:0:0:
476,196,68232,1,8,0:0:0:0:
483,299,68379,6,0,B|435:291|435:291|395:263|395:263|343:259|307:295,1,191.999994140625,4|2,0:0|0:2,0:0:0:0:
144,256,68818,2,0,P|168:336|252:352,1,160,8|0,0:0|0:0,0:0:0:0:
320,196,69257,1,2,0:2:0:0:
140,168,69403,1,8,0:0:0:0:
220,136,69549,6,0,B|244:232|244:232|228:284,1,143.999995605469,6|0,0:0|0:0,0:0:0:0:
230,275,69842,1,2,0:2:0:0:
60,348,69988,2,0,B|96:308|152:328|152:328|172:360|216:364,1,160,10|0,0:0|0:0,0:0:0:0:
360,296,70427,1,0,0:0:0:0:
340,292,70500,1,0,0:0:0:0:
320,289,70573,1,8,0:0:0:0:
448,376,70720,6,0,B|484:308|452:232|452:232|476:180,1,191.999994140625,6|2,0:0|0:2,0:0:0:0:
344,108,71159,5,10,0:0:0:0:
469,193,71305,1,2,2:2:0:0:
320,100,71452,5,0,0:0:0:0:
468,40,71598,1,0,0:0:0:0:
465,55,71671,1,0,0:0:0:0:
462,71,71744,1,8,0:0:0:0:
344,200,71891,6,0,B|232:180|280:264|160:240,1,191.999994140625,6|2,0:0|0:2,0:0:0:0:
44,148,72330,2,0,L|144:164,1,80,10|2,0:0|2:0,0:0:0:0:
192,24,72622,2,0,B|204:52|204:52|192:116,1,80,2|0,0:0|0:0,0:0:0:0:
165,241,72915,1,8,0:0:0:0:
36,296,73062,6,0,B|164:272|164:272|224:296,1,191.999994140625,6|0,0:0|0:0,0:0:0:0:
381,336,73501,2,0,P|329:264|361:180,1,160,8|8,0:0|0:0,0:0:0:0:
468,80,73940,5,8,0:0:0:0:
343,199,74086,1,8,0:0:0:0:
336,64,74232,5,8,0:0:0:0:
488,100,74379,1,2,0:0:0:0:
192,344,75110,6,0,L|144:352,1,40
124,356,75257,1,0,0:0:0:0:
268,280,75403,6,0,B|228:244|176:252|176:252|132:220|148:164,1,191.999994140625,4|0,0:0|0:0,0:0:0:0:
352,224,75842,2,0,L|400:216,1,40
460,168,75988,2,0,P|464:148|456:120,1,40
352,80,76135,5,0,0:0:0:0:
348,92,76208,1,0,0:0:0:0:
344,104,76281,2,0,B|344:124|344:124|352:144,2,40
212,24,76574,6,0,B|240:88|236:168|236:168|184:220,1,191.999994140625,12|2,0:2|0:2,0:0:0:0:
72,140,77013,2,0,P|112:124|172:132,1,80,8|2,0:0|2:0,0:0:0:0:
176,292,77305,2,0,P|136:308|76:300,1,80,0|2,0:0|0:2,0:0:0:0:
292,188,77598,5,8,0:0:0:0:
336,328,77744,2,0,B|368:312|368:312|408:316|408:316|476:284|452:212,1,191.999994140625,4|2,0:0|0:2,0:0:0:0:
404,88,78183,2,0,B|388:100|388:100|376:132|380:160,1,80,8|2,0:0|2:2,0:0:0:0:
253,194,78476,5,0,0:0:0:0:
272,191,78549,1,0,0:0:0:0:
292,188,78622,1,2,0:2:0:0:
168,24,78769,1,8,0:0:0:0:
116,100,78915,6,0,B|156:104|184:116|184:116|228:88|228:88|256:100|296:100,1,191.999994140625,6|2,0:0|0:2,0:0:0:0:
452,28,79354,2,0,B|416:12|416:12|352:24,1,80,10|2,0:0|2:0,0:0:0:0:
356,168,79647,1,2,0:0:0:0:
472,120,79793,1,2,0:2:0:0:
296,100,79940,5,8,0:0:0:0:
460,208,80086,2,0,B|412:188|412:188|336:200|312:276,1,191.999994140625,6|2,0:0|0:2,0:0:0:0:
220,384,80525,2,0,B|232:332|232:332|216:284|216:284|224:260|228:224,1,160,10|0,0:0|0:0,0:0:0:0:
232,208,80891,1,0,0:0:0:0:
236,192,80964,2,0,P|256:180|288:172,2,40,0|0|8,0:0|0:0|0:0,0:0:0:0:
8,208,81257,6,0,B|144:232|144:232|100:188,1,191.999994140625,6|2,0:0|0:2,0:0:0:0:
176,36,81696,2,0,P|164:84|176:132,1,80,8|2,0:0|2:0,0:0:0:0:
292,180,81988,1,0,0:0:0:0:
448,132,82135,2,0,L|352:120,1,80,2|8,0:0|0:0,0:0:0:0:
200,196,82427,6,0,B|164:264|220:328|220:328|268:292,1,191.999994140625,6|0,0:0|0:0,0:0:0:0:
392,248,82866,2,0,P|404:296|392:344,1,80,10|0,0:0|0:0,0:0:0:0:
312,176,83159,1,8,0:0:0:0:
312,176,83305,2,0,L|332:40,1,120,2|0,0:0|0:0,0:0:0:0:
312,36,83598,6,0,B|340:36|364:48|364:48|404:24|404:24|452:40|516:8,1,191.999994140625,6|2,0:0|0:2,0:0:0:0:
300,160,84037,2,0,P|224:176|212:248,1,160,8|8,0:0|0:0,0:0:0:0:
380,312,84476,5,8,0:0:0:0:
272,344,84622,1,8,0:0:0:0:
400,204,84769,5,8,0:0:0:0:
211,247,84915,2,0,L|152:240,1,47.9999985351563,8|0,0:0|0:0,0:0:0:0:
211,247,85501,6,0,B|170:252|170:252|142:277|142:277|98:282,1,119.999996337891,2|0,0:0|0:0,0:0:0:0:
76,300,85940,6,0,B|128:248|105:175|105:175|48:136,1,191.999994140625,4|2,0:0|0:2,0:0:0:0:
128,0,86379,2,0,B|140:40|140:40|132:92,1,80,8|2,0:0|2:0,0:0:0:0:
276,184,86671,2,0,B|264:144|264:144|272:92,1,80,0|2,0:0|0:2,0:0:0:0:
380,12,86964,1,8,0:0:0:0:
512,112,87110,6,0,B|372:136|372:136|412:104,1,191.999994140625,4|2,0:0|0:2,0:0:0:0:
460,216,87549,2,0,P|472:256|460:304,1,80,8|2,0:0|2:0,0:0:0:0:
296,336,87842,1,0,0:0:0:0:
364,256,87988,1,2,0:2:0:0:
465,292,88135,1,8,0:0:0:0:
312,348,88281,6,0,B|308:284|308:284|332:236|332:236|324:160,1,191.999994140625,4|2,0:0|0:2,0:0:0:0:
276,0,88720,1,8,0:0:0:0:
328,68,88866,6,0,P|348:76|388:80,1,47.9999985351563,2|0,0:0|2:2,0:0:0:0:
240,212,89159,2,0,P|214:215|192:224,1,47.9999985351563,2|0,0:0|2:0,0:0:0:0:
392,328,89452,2,0,L|404:268,1,47.9999985351563,2|0,0:0|2:0,0:0:0:0:
401,280,89744,5,10,0:0:0:0:
240,212,89891,1,10,0:0:0:0:
124,344,90038,1,10,0:0:0:0:
