osu file format v14

[General]
AudioFilename: Trinity Cross (TV Size).mp3
AudioLeadIn: 0
PreviewTime: 54003
Countdown: 0
SampleSet: None
StackLeniency: 0.3
Mode: 0
LetterboxInBreaks: 1
WidescreenStoryboard: 0

[Editor]
DistanceSpacing: 1.4
BeatDivisor: 4
GridSize: 8
TimelineZoom: 1

[Metadata]
Title:Trinity Cross (TV Size)
TitleUnicode:Trinity Cross (TV Size)
Artist:Mizuki Nana
ArtistUnicode:Mizuki Nana
Creator:DT-sama
Version:paracetamol
Source:
Tags:Anime J-Pop
BeatmapID:1912987
BeatmapSetID:915953

[Difficulty]
HPDrainRate:5
CircleSize:7
OverallDifficulty:8
ApproachRate:6
SliderMultiplier:2
SliderTickRate:0.5

[Events]
//Background and Video events
0,0,"cross.jpg",0,0
//Break Periods
//Storyboard Layer 0 (Background)
//Storyboard Layer 1 (Fail)
//Storyboard Layer 2 (Pass)
//Storyboard Layer 3 (Foreground)
//Storyboard Sound Samples

[TimingPoints]
1427,530.973451327434,4,2,1,100,1,0

[Colours]
Combo1 : 233,244,151
Combo2 : 235,131,214
Combo3 : 255,255,255
Combo4 : 97,150,214

[HitObjects]
64,72,1427,5,2,0:0:0:0:
160,72,1692,1,0,0:0:0:0:
256,72,1957,1,2,0:0:0:0:
456,288,2223,5,2,0:0:0:0:
408,288,2356,1,0,0:0:0:0:
408,240,2488,1,2,0:0:0:0:
456,240,2621,1,0,0:0:0:0:
456,288,2887,5,2,0:0:0:0:
360,288,3152,5,2,0:0:0:0:
256,288,3285,1,0,0:0:0:0:
256,240,3418,1,0,0:0:0:0:
256,192,3550,5,8,0:0:0:0:
152,192,3816,1,0,0:0:0:0:
256,192,4081,1,8,0:0:0:0:
256,72,4347,1,0,0:0:0:0:
256,192,4612,1,8,0:0:0:0:
400,192,4878,1,0,0:0:0:0:
256,192,5143,1,8,0:0:0:0:
256,352,5409,5,2,0:0:0:0:
256,288,5542,1,0,0:0:0:0:
256,192,5674,5,2,0:0:0:0:
72,192,5940,1,0,0:0:0:0:
168,192,6205,1,2,0:0:0:0:
272,192,6471,1,2,0:0:0:0:
320,192,6603,1,0,0:0:0:0:
320,144,6736,1,2,0:0:0:0:
368,144,6869,1,2,0:0:0:0:
368,96,7002,5,0,0:0:0:0:
216,96,7267,1,2,0:0:0:0:
216,248,7533,2,0,L|352:248,1,100,2|0,0:0|0:0,0:0:0:0:
424,192,8064,5,4,0:0:0:0:
256,24,8329,5,4,0:0:0:0:
88,192,8595,5,4,0:0:0:0:
256,360,8860,5,4,0:0:0:0:
328,360,8993,1,0,0:0:0:0:
400,360,9126,1,2,0:0:0:0:
400,288,9258,1,0,0:0:0:0:
328,288,9391,1,6,0:0:0:0:
360,224,9524,1,0,0:0:0:0:
288,224,9657,1,2,0:0:0:0:
320,160,9789,1,0,0:0:0:0:
248,160,9922,6,0,L|144:160,1,100,4|0,0:0|0:0,0:0:0:0:
148,160,10320,1,2,0:0:0:0:
400,8,10586,1,0,0:0:0:0:
400,160,10719,1,2,0:0:0:0:
168,280,10984,5,2,0:0:0:0:
232,320,11117,1,0,0:0:0:0:
232,248,11250,1,2,0:0:0:0:
272,192,11382,1,0,0:0:0:0:
192,192,11515,1,4,0:0:0:0:
296,280,11780,5,0,0:0:0:0:
360,240,11913,1,0,0:0:0:0:
424,280,12046,2,0,L|496:368,2,100,4|0|8,0:0|0:0|0:0,0:0:0:0:
104,136,12842,5,0,0:0:0:0:
224,120,13108,5,2,0:0:0:0:
280,168,13241,1,0,0:0:0:0:
208,192,13373,1,2,0:0:0:0:
320,288,13506,1,0,0:0:0:0:
248,312,13639,1,2,0:0:0:0:
264,240,13772,1,0,0:0:0:0:
336,216,13904,1,2,0:0:0:0:
192,264,14037,1,0,0:0:0:0:
304,360,14170,6,0,L|424:360,1,100,4|0,0:0|0:0,0:0:0:0:
404,360,14568,1,4,0:0:0:0:
136,368,14834,1,0,0:0:0:0:
136,216,14966,1,4,0:0:0:0:
328,176,15232,5,2,0:0:0:0:
264,216,15365,1,0,0:0:0:0:
200,176,15498,2,0,L|128:88,2,100,2|0|0,0:0|0:0|0:0,0:0:0:0:
248,160,16161,1,0,0:0:0:0:
264,112,16294,5,2,0:0:0:0:
328,192,16559,1,0,0:0:0:0:
272,272,16825,1,0,0:0:0:0:
208,192,17090,1,0,0:0:0:0:
392,192,17356,5,4,0:0:0:0:
296,192,17488,1,0,0:0:0:0:
192,192,17621,1,0,0:0:0:0:
128,192,17887,5,4,0:0:0:0:
224,192,18019,1,0,0:0:0:0:
328,192,18152,1,0,0:0:0:0:
256,32,18418,6,0,L|256:168,1,100,4|0,0:0|0:0,0:0:0:0:
256,176,18816,1,4,0:0:0:0:
160,304,19081,5,0,0:0:0:0:
360,304,19214,1,8,0:0:0:0:
256,32,19480,5,0,0:0:0:0:
256,128,19745,1,8,0:0:0:0:
256,232,20011,1,2,0:0:0:0:
120,152,20276,5,2,0:0:0:0:
112,224,20409,1,0,0:0:0:0:
152,280,20542,5,2,0:0:0:0:
72,344,20807,1,0,0:0:0:0:
168,328,21073,1,2,0:0:0:0:
264,344,21338,1,0,0:0:0:0:
360,320,21603,5,4,0:0:0:0:
408,312,21736,1,0,0:0:0:0:
376,272,21869,1,2,0:0:0:0:
424,264,22002,1,0,0:0:0:0:
456,304,22134,5,4,0:0:0:0:
400,280,22267,1,0,0:0:0:0:
456,248,22400,1,2,0:0:0:0:
400,224,22533,1,0,0:0:0:0:
344,256,22665,6,0,L|240:288,1,100,4|0,0:0|0:0,0:0:0:0:
192,304,23064,1,4,0:0:0:0:
104,96,23329,5,0,0:0:0:0:
408,144,23462,1,4,0:0:0:0:
328,160,23595,5,0,0:0:0:0:
184,80,23727,1,0,0:0:0:0:
256,16,23860,5,0,0:0:0:0:
256,120,23993,1,4,0:0:0:0:
256,224,24258,5,0,0:0:0:0:
256,304,24524,1,0,0:0:0:0:
256,336,24657,1,0,0:0:0:0:
256,368,24789,6,0,L|384:368,1,100,2|0,0:0|0:0,0:0:0:0:
256,264,25320,2,0,L|128:264,1,100,2|0,0:0|0:0,0:0:0:0:
392,192,25851,5,2,0:0:0:0:
296,192,25983,1,0,0:0:0:0:
192,192,26116,1,0,0:0:0:0:
104,32,26382,5,4,0:0:0:0:
171,99,26514,1,0,0:0:0:0:
244,172,26647,1,0,0:0:0:0:
232,112,26780,1,0,0:0:0:0:
144,152,26913,6,0,L|48:152,1,50,4|0,0:0|0:0,0:0:0:0:
184,200,27179,1,0,0:0:0:0:
256,200,27311,2,0,L|376:200,1,100
360,288,27710,1,0,0:0:0:0:
288,288,27842,2,0,L|178:290,1,100
104,256,28241,1,0,0:0:0:0:
176,256,28373,2,0,L|304:256,1,100
288,184,28772,2,0,L|288:112,1,50
176,48,29037,6,0,L|176:152,1,100
176,328,29568,1,0,0:0:0:0:
248,240,29834,1,0,0:0:0:0:
296,240,29966,1,0,0:0:0:0:
344,240,30099,1,0,0:0:0:0:
392,240,30232,1,0,0:0:0:0:
440,240,30365,1,0,0:0:0:0:
512,152,30630,2,2,L|512:48,2,100,2|2|0,0:0|0:0|0:0,0:0:0:0:
416,256,31427,5,0,0:0:0:0:
424,168,31559,2,0,L|408:56,1,100
296,72,31957,1,0,0:0:0:0:
336,152,32090,2,0,L|320:256,1,100
224,248,32488,1,0,0:0:0:0:
272,168,32621,2,0,L|208:64,1,100
128,112,33019,1,0,0:0:0:0:
208,152,33152,1,0,0:0:0:0:
72,200,33285,5,0,0:0:0:0:
160,248,33550,1,0,0:0:0:0:
248,208,33816,1,0,0:0:0:0:
160,264,34081,1,0,0:0:0:0:
176,312,34214,1,0,0:0:0:0:
192,360,34347,5,0,0:0:0:0:
288,368,34612,1,0,0:0:0:0:
328,280,34878,1,2,0:0:0:0:
256,208,35011,1,0,0:0:0:0:
256,208,35143,5,2,0:0:0:0:
328,280,35276,1,0,0:0:0:0:
400,208,35409,5,0,0:0:0:0:
328,136,35674,1,0,0:0:0:0:
256,208,35940,1,0,0:0:0:0:
328,280,36205,5,0,0:0:0:0:
424,136,36338,1,0,0:0:0:0:
224,136,36471,1,0,0:0:0:0:
224,336,36736,5,0,0:0:0:0:
424,336,37002,1,0,0:0:0:0:
424,136,37267,5,0,0:0:0:0:
224,136,37400,1,0,0:0:0:0:
224,336,37533,5,0,0:0:0:0:
496,248,37798,5,0,0:0:0:0:
256,32,38064,5,0,0:0:0:0:
16,248,38329,5,0,0:0:0:0:
72,248,38462,2,0,L|224:248,1,150
280,248,38993,1,0,0:0:0:0:
280,248,39126,1,2,0:0:0:0:
256,80,39391,1,2,0:0:0:0:
216,112,39524,1,0,0:0:0:0:
176,144,39657,6,0,L|176:264,1,100
176,296,40055,1,0,0:0:0:0:
464,328,40453,1,0,0:0:0:0:
464,272,40586,1,0,0:0:0:0:
464,216,40719,2,0,L|464:80,1,100
464,64,41117,1,0,0:0:0:0:
224,128,41382,1,0,0:0:0:0:
192,176,41515,1,0,0:0:0:0:
240,208,41648,1,0,0:0:0:0:
272,160,41780,5,0,0:0:0:0:
104,160,42046,1,0,0:0:0:0:
104,328,42311,1,0,0:0:0:0:
272,328,42577,1,0,0:0:0:0:
224,328,42710,2,0,L|144:240,1,100
152,160,43108,1,0,0:0:0:0:
112,216,43241,1,0,0:0:0:0:
192,216,43373,6,2,L|320:216,2,100,6|2|0,0:0|0:0|0:0,0:0:0:0:
192,216,44170,1,0,0:0:0:0:
280,72,44435,2,0,L|280:184,1,100
280,168,44966,1,0,0:0:0:0:
344,168,45099,1,0,0:0:0:0:
408,168,45232,1,0,0:0:0:0:
408,168,45365,2,0,L|408:304,1,100
280,344,45763,1,0,0:0:0:0:
344,344,45896,1,0,0:0:0:0:
408,344,46028,6,0,L|312:240,1,100
104,40,46559,2,2,L|200:144,1,100
104,344,47090,2,0,L|200:240,1,100
408,40,47621,2,2,L|312:144,1,100
104,192,48152,5,0,0:0:0:0:
256,40,48417,1,0,0:0:0:0:
408,192,48683,1,0,0:0:0:0:
256,344,48948,1,0,0:0:0:0:
256,272,49081,1,0,0:0:0:0:
256,192,49214,5,0,0:0:0:0:
94,30,49480,1,0,0:0:0:0:
256,192,49745,1,0,0:0:0:0:
417,353,50011,1,0,0:0:0:0:
256,192,50276,1,0,0:0:0:0:
94,353,50542,1,0,0:0:0:0:
256,192,50807,1,0,0:0:0:0:
417,30,51073,1,0,0:0:0:0:
256,40,51338,5,0,0:0:0:0:
256,120,51603,1,0,0:0:0:0:
256,192,51869,1,0,0:0:0:0:
160,192,52134,5,0,0:0:0:0:
256,288,52267,1,0,0:0:0:0:
256,96,52399,1,0,0:0:0:0:
352,192,52532,1,0,0:0:0:0:
352,192,52665,1,0,0:0:0:0:
352,96,52798,5,0,0:0:0:0:
160,96,52931,1,0,0:0:0:0:
352,288,53064,1,0,0:0:0:0:
160,288,53196,1,0,0:0:0:0:
352,288,53329,1,0,0:0:0:0:
256,24,53462,5,0,0:0:0:0:
256,192,53727,12,0,54258,0:0:0:0:
80,176,54524,5,0,0:0:0:0:
256,272,54789,1,0,0:0:0:0:
432,176,55055,1,0,0:0:0:0:
128,280,55320,5,0,0:0:0:0:
392,280,55453,1,0,0:0:0:0:
176,136,55586,1,0,0:0:0:0:
336,136,55719,1,0,0:0:0:0:
256,40,55984,5,0,0:0:0:0:
216,104,56250,5,0,0:0:0:0:
296,128,56382,1,0,0:0:0:0:
216,176,56515,1,0,0:0:0:0:
296,208,56648,5,0,0:0:0:0:
72,320,56913,1,0,0:0:0:0:
216,176,57179,5,0,0:0:0:0:
440,64,57444,1,0,0:0:0:0:
216,232,57710,5,0,0:0:0:0:
440,344,57975,1,0,0:0:0:0:
216,232,58108,1,0,0:0:0:0:
296,200,58241,5,0,0:0:0:0:
72,88,58506,1,0,0:0:0:0:
296,200,58639,1,0,0:0:0:0:
232,152,58772,5,0,0:0:0:0:
448,336,59037,1,0,0:0:0:0:
464,32,59303,1,0,0:0:0:0:
232,248,59568,5,0,0:0:0:0:
40,248,59701,1,0,0:0:0:0:
136,144,59834,1,0,0:0:0:0:
136,352,59966,1,0,0:0:0:0:
376,32,60232,5,0,0:0:0:0:
112,224,60497,5,0,0:0:0:0:
272,304,60630,1,0,0:0:0:0:
352,144,60763,1,0,0:0:0:0:
192,64,60896,1,0,0:0:0:0:
189,268,61028,5,0,0:0:0:0:
316,226,61161,1,0,0:0:0:0:
274,99,61294,1,0,0:0:0:0:
147,141,61427,1,0,0:0:0:0:
217,138,61559,5,0,0:0:0:0:
277,168,61692,1,0,0:0:0:0:
247,228,61825,1,0,0:0:0:0:
187,198,61958,1,0,0:0:0:0:
62,99,62223,5,0,0:0:0:0:
401,268,62356,1,0,0:0:0:0:
64,272,62621,5,0,0:0:0:0:
248,96,62754,1,0,0:0:0:0:
248,272,62887,1,0,0:0:0:0:
64,96,63019,5,0,0:0:0:0:
372,379,63285,5,0,0:0:0:0:
168,176,63550,1,0,0:0:0:0:
448,96,63816,5,0,0:0:0:0:
264,96,63948,1,0,0:0:0:0:
448,272,64081,1,0,0:0:0:0:
264,272,64214,1,0,0:0:0:0:
120,184,64480,5,0,0:0:0:0:
264,96,64745,1,0,0:0:0:0:
400,192,64878,1,0,0:0:0:0:
264,272,65011,1,0,0:0:0:0:
376,359,65143,5,0,0:0:0:0:
152,360,65408,1,0,0:0:0:0:
81,145,65674,1,0,0:0:0:0:
264,12,65939,1,0,0:0:0:0:
445,145,66205,5,0,0:0:0:0:
152,360,66471,1,0,0:0:0:0:
399,292,66604,1,0,0:0:0:0:
221,125,66737,5,0,0:0:0:0:
445,145,67002,1,0,0:0:0:0:
198,213,67135,1,0,0:0:0:0:
376,380,67268,5,0,0:0:0:0:
256,32,67533,1,0,0:0:0:0:
160,384,67798,1,0,0:0:0:0:
464,192,68064,5,0,0:0:0:0:
192,192,68196,1,0,0:0:0:0:
56,192,68329,1,0,0:0:0:0:
328,192,68462,1,0,0:0:0:0:
256,24,68727,5,0,0:0:0:0:
256,264,68992,1,0,0:0:0:0:
256,144,69126,1,0,0:0:0:0:
256,264,69258,1,0,0:0:0:0:
256,384,69391,5,0,0:0:0:0:
184,320,69657,1,0,0:0:0:0:
184,216,69922,1,0,0:0:0:0:
256,152,70188,5,0,0:0:0:0:
256,216,70320,1,0,0:0:0:0:
136,272,70453,1,0,0:0:0:0:
184,216,70586,1,0,0:0:0:0:
328,320,70719,1,0,0:0:0:0:
256,320,70851,1,0,0:0:0:0:
328,216,70984,5,0,0:0:0:0:
376,272,71117,1,0,0:0:0:0:
256,384,71250,1,0,0:0:0:0:
256,320,71382,1,0,0:0:0:0:
256,256,71515,6,0,L|128:256,1,100
256,128,72046,2,0,L|384:128,1,100
128,192,72577,2,0,L|128:80,1,100
384,192,73108,2,0,L|384:304,1,100
210,237,73639,6,0,L|120:146,1,100
301,146,74170,2,0,L|391:237,1,100
165,101,74701,2,0,L|244:22,1,100
346,282,75232,2,0,L|267:361,1,100
48,352,75763,5,0,0:0:0:0:
168,352,76028,1,0,0:0:0:0:
72,280,76294,1,0,0:0:0:0:
192,280,76559,1,0,0:0:0:0:
136,240,76692,1,0,0:0:0:0:
48,352,76825,5,0,0:0:0:0:
240,248,77090,1,0,0:0:0:0:
216,328,77356,1,0,0:0:0:0:
80,224,77621,1,0,0:0:0:0:
152,96,77887,5,0,0:0:0:0:
288,96,78152,1,0,0:0:0:0:
336,232,78418,1,0,0:0:0:0:
216,304,78683,1,0,0:0:0:0:
256,192,78949,12,0,79745,0:0:0:0:
424,80,80011,5,0,0:0:0:0:
424,296,80276,1,0,0:0:0:0:
256,80,80542,1,0,0:0:0:0:
256,296,80807,1,0,0:0:0:0:
256,192,81073,12,0,81603,0:0:0:0:
256,304,81869,5,0,0:0:0:0:
144,24,82134,5,0,0:0:0:0:
360,24,82399,1,0,0:0:0:0:
144,192,82665,1,0,0:0:0:0:
360,192,82930,1,0,0:0:0:0:
256,192,83196,12,0,83726,0:0:0:0:
256,80,83993,5,0,0:0:0:0:
256,304,84258,5,0,0:0:0:0:
136,79,85586,5,0,0:0:0:0:
186,216,85719,1,0,0:0:0:0:
226,75,85851,1,0,0:0:0:0:
111,165,85984,5,0,0:0:0:0:
256,160,86117,1,0,0:0:0:0:
436,251,86250,1,0,0:0:0:0:
236,283,86383,5,0,0:0:0:0:
379,139,86515,1,0,0:0:0:0:
347,339,86648,1,0,0:0:0:0:
490,195,86780,1,0,0:0:0:0:
120,320,87046,5,0,0:0:0:0:
456,136,87179,1,0,0:0:0:0:
352,352,87444,5,0,0:0:0:0:
64,192,87710,1,0,0:0:0:0:
336,48,87975,1,0,0:0:0:0:
160,80,88241,5,0,0:0:0:0:
256,112,88373,1,0,0:0:0:0:
168,168,88506,5,0,0:0:0:0:
264,200,88772,1,0,0:0:0:0:
176,256,88904,5,0,0:0:0:0:
264,304,89170,1,0,0:0:0:0:
192,368,89303,5,0,0:0:0:0:
296,320,89568,5,0,0:0:0:0:
144,248,89701,1,0,0:0:0:0:
176,368,89834,1,0,0:0:0:0:
272,192,89966,1,0,0:0:0:0:
96,328,90099,5,0,0:0:0:0:
384,360,90232,1,0,0:0:0:0:
144,176,90365,1,0,0:0:0:0:
424,216,90497,1,0,0:0:0:0:
24,224,90630,5,0,0:0:0:0:
192,280,90763,1,0,0:0:0:0:
248,112,90896,1,0,0:0:0:0:
80,56,91028,1,0,0:0:0:0:
488,312,91294,5,0,0:0:0:0:
80,344,91427,1,0,0:0:0:0:
224,40,91692,5,0,0:0:0:0:
304,168,91957,5,0,0:0:0:0:
232,304,92223,5,0,0:0:0:0:
344,368,92488,5,0,0:0:0:0:
272,232,92621,5,0,0:0:0:0:
352,104,92754,5,0,0:0:0:0:
256,192,93019,12,0,93550,0:0:0:0:
112,144,93816,5,0,0:0:0:0:
408,144,93949,1,0,0:0:0:0:
176,328,94081,1,0,0:0:0:0:
256,24,94347,1,0,0:0:0:0:
344,328,94480,1,0,0:0:0:0:
112,144,94612,1,0,0:0:0:0:
504,192,94878,5,0,0:0:0:0:
256,368,95011,5,0,0:0:0:0:
8,192,95143,5,0,0:0:0:0:
256,16,95276,5,0,0:0:0:0:
