osu file format v14

[General]
AudioFilename: audio.mp3
AudioLeadIn: 0
PreviewTime: 262971
Countdown: 0
SampleSet: Soft
StackLeniency: 0.3
Mode: 0
LetterboxInBreaks: 0
WidescreenStoryboard: 0

[Editor]
Bookmarks: 15550,235814,235971,236050,236129,236287,236366,236524,236603,236682,236840,236919,237077,237156,237314,237393,237550,237629,237787,237866,238024,238103,238261,238340,238498,238577,238656,238814,238971,239050,239208,239287,239445,239524,239682,239761,239919,239998,240156
DistanceSpacing: 1.7
BeatDivisor: 4
GridSize: 32
TimelineZoom: 2.599999

[Metadata]
Title:TESTAMENT -Aufwachen Form-
TitleUnicode:TESTAMENT -Aufwachen Form-
Artist:Mizuki Nana
ArtistUnicode:水樹奈々
Creator:Yogurtt
Version:--///DEUS EX MACHINA///--
Source:戦姫絶唱シンフォギアAXZ
Tags:japanese j-pop pop metal anime element garden 上松範康 the museum iii female vocalist senki zesshou symphogear axz opening op full size never4ever
BeatmapID:2581647
BeatmapSetID:1241779

[Difficulty]
HPDrainRate:4.8
CircleSize:4.5
OverallDifficulty:9.4
ApproachRate:9.6
SliderMultiplier:2.02
SliderTickRate:1

[Events]
//Background and Video events
0,0,"saddddddd.png",0,0
//Break Periods
2,235502,239847
//Storyboard Layer 0 (Background)
//Storyboard Layer 1 (Fail)
//Storyboard Layer 2 (Pass)
//Storyboard Layer 3 (Foreground)
//Storyboard Layer 4 (Overlay)
//Storyboard Sound Samples

[TimingPoints]
356,315.789473684211,4,2,1,25,1,0
20566,-250,4,2,1,30,0,0
40777,-250,4,2,1,40,0,0
40934,-166.666666666667,4,2,1,40,0,0
45829,-153.846153846154,4,2,1,40,0,0
50882,-142.857142857143,4,2,1,40,0,0
55934,-133.333333333333,4,2,1,40,0,0
60040,-166.666666666667,4,2,1,40,0,0
60277,-166.666666666667,4,2,1,5,0,0
60356,-125,4,2,1,40,0,0
60592,-125,4,2,1,5,0,0
60671,-100,4,2,1,40,0,0
60908,-100,4,2,1,5,0,0
60987,-100,4,2,1,50,0,0
62013,-100,4,2,1,5,0,0
62092,-100,4,2,1,50,0,0
62171,-100,4,2,1,5,0,0
62250,-100,4,2,1,50,0,0
64540,-100,4,2,1,5,0,0
64619,-100,4,2,1,50,0,0
64698,-100,4,2,1,5,0,0
64777,-100,4,2,1,50,0,0
65803,-100,4,2,1,5,0,0
65882,-100,4,2,1,50,0,0
65961,-100,4,2,1,5,0,0
66040,-100,4,2,1,50,0,0
68329,-100,4,2,1,5,0,0
68408,-100,4,2,1,50,0,0
68487,-100,4,2,1,5,0,0
68566,-100,4,2,1,50,0,0
70619,-76.9230769230769,4,2,1,50,0,0
70698,-76.9230769230769,4,2,1,5,0,0
70777,-76.9230769230769,4,2,1,50,0,0
70856,-76.9230769230769,4,2,1,5,0,0
70934,-76.9230769230769,4,2,1,50,0,0
71013,-76.9230769230769,4,2,1,5,0,0
71092,-100,4,2,1,50,0,0
81198,-100,4,2,1,35,0,0
83724,-100,4,2,1,45,0,0
84040,-83.3333333333333,4,2,1,45,0,0
84356,-71.4285714285714,4,2,1,45,0,0
84671,-62.5,4,2,1,45,0,0
88777,-100,4,2,1,50,0,0
98250,-71.4285714285714,4,2,1,50,0,0
98566,-83.3333333333333,4,2,1,50,0,0
98882,-83.3333333333333,4,2,1,60,0,0
111198,-66.6666666666667,4,2,1,60,0,0
111513,-100,4,2,1,50,0,0
116566,-100,4,2,1,55,0,0
130461,-166.666666666667,4,2,1,55,0,0
131724,-125,4,2,1,40,0,0
141829,-100,4,2,1,55,0,0
144356,-100,4,2,1,65,0,0
144671,-83.3333333333333,4,2,1,65,0,0
144987,-71.4285714285714,4,2,1,65,0,0
145303,-62.5,4,2,1,65,0,0
145934,-62.5,4,2,1,50,0,0
146724,-71.4285714285714,4,2,1,75,0,1
154461,-166.666666666667,4,2,1,75,0,0
154777,-71.4285714285714,4,2,1,75,0,1
156829,-166.666666666667,4,2,1,75,0,0
157303,-71.4285714285714,4,2,1,75,0,1
171198,-250.000000000001,4,2,1,55,0,0
173408,-166.666666666667,4,2,1,55,0,0
175934,-100,4,2,1,50,0,0
180040,-83.3333333333333,4,2,1,50,0,0
180356,-71.4285714285714,4,2,1,50,0,0
180671,-62.5,4,2,1,50,0,0
180987,-62.5,4,2,1,60,0,0
181303,-100,4,2,1,60,0,0
201198,-125,4,2,1,40,0,0
211303,-125,4,2,1,60,0,0
211619,-100,4,2,1,60,0,0
213671,-71.4285714285714,4,2,1,75,0,1
221408,-166.666666666667,4,2,1,75,0,0
221724,-71.4285714285714,4,2,1,75,0,1
223777,-166.666666666667,4,2,1,75,0,0
224250,-71.4285714285714,4,2,1,75,0,1
233092,-250,4,2,1,55,0,0
240356,-100,4,2,1,55,0,0
245408,-100,4,2,1,65,0,0
247303,-83.3333333333333,4,2,1,65,0,0
247619,-71.4285714285714,4,2,1,65,0,0
247934,-100,4,2,1,65,0,0
262777,-142.857142857143,4,2,1,65,0,0
263092,-142.857142857143,4,2,1,40,0,0
273198,-200,4,2,1,45,0,0
274461,-333.333333333334,4,2,1,50,0,0
275724,-100,4,2,1,50,0,0
276040,-83.3333333333333,4,2,1,50,0,0
276356,-71.4285714285714,4,2,1,50,0,0
276671,-62.5,4,2,1,50,0,0
276987,-166.666666666667,4,2,1,50,0,0
278566,-100,4,2,1,50,0,0
279356,-71.4285714285714,4,2,1,75,0,1
287092,-166.666666666667,4,2,1,75,0,0
287408,-71.4285714285714,4,2,1,75,0,1
289461,-166.666666666667,4,2,1,75,0,0
289934,-71.4285714285714,4,2,1,75,0,1
303829,-250,4,2,1,55,0,0
306040,-166.666666666667,4,2,1,55,0,0
308566,-83.3333333333333,4,2,1,65,0,0
315040,-76.9230769230769,4,2,1,65,0,0
315356,-71.4285714285714,4,2,1,65,0,0
315671,-66.6666666666667,4,2,1,65,0,0
316777,-100,4,2,1,65,0,0

[Colours]
Combo1 : 181,70,122
Combo2 : 247,89,21
Combo3 : 148,107,88
Combo4 : 87,79,79
Combo5 : 196,196,196

[HitObjects]
306,103,356,5,2,3:2:0:0:
307,109,513,1,2,0:2:0:0:
232,83,671,1,2,0:2:0:0:
160,117,829,1,2,0:2:0:0:
133,191,987,1,2,0:2:0:0:
146,114,1145,1,2,0:2:0:0:
146,193,1303,1,2,0:2:0:0:
133,116,1461,1,2,0:2:0:0:
63,225,1619,5,2,0:2:0:0:
124,277,1777,1,2,0:2:0:0:
203,270,1934,1,2,0:2:0:0:
253,209,2092,1,2,0:2:0:0:
289,313,2250,1,2,0:2:0:0:
328,190,2408,1,2,0:2:0:0:
335,299,2566,1,2,0:2:0:0:
405,191,2724,1,2,0:2:0:0:
439,335,2882,5,2,3:2:0:0:
452,256,3040,1,2,0:2:0:0:
405,191,3198,1,2,0:2:0:0:
328,190,3356,1,2,0:2:0:0:
191,188,3514,5,2,0:2:0:0:
198,266,3672,1,2,0:2:0:0:
261,317,3829,1,2,0:2:0:0:
335,299,3987,1,2,0:2:0:0:
405,191,4145,5,2,0:2:0:0:
405,191,4303,1,2,0:2:0:0:
310,111,4461,1,2,0:2:0:0:
186,121,4619,1,2,0:2:0:0:
105,215,4777,1,2,0:2:0:0:
236,292,4934,5,2,0:2:0:0:
236,286,5092,1,2,0:2:0:0:
236,280,5250,1,2,0:2:0:0:
185,201,5408,5,2,3:2:0:0:
147,299,5566,1,2,0:2:0:0:
303,234,5724,1,2,0:2:0:0:
291,338,5882,1,2,0:2:0:0:
388,297,6040,5,2,0:2:0:0:
339,165,6198,1,2,0:2:0:0:
477,188,6356,1,2,0:2:0:0:
401,216,6513,1,2,0:2:0:0:
339,165,6671,5,2,0:2:0:0:
415,136,6829,1,2,0:2:0:0:
477,188,6987,1,2,0:2:0:0:
462,267,7145,1,2,0:2:0:0:
303,234,7303,5,2,0:2:0:0:
239,182,7461,1,2,0:2:0:0:
253,102,7619,1,2,0:2:0:0:
329,76,7777,1,2,0:2:0:0:
251,84,7934,5,2,3:2:0:0:
330,93,8092,1,2,0:2:0:0:
256,68,8250,1,2,0:2:0:0:
325,109,8408,1,2,0:2:0:0:
344,186,8566,1,2,0:2:0:0:
167,276,8724,1,2,0:2:0:0:
184,213,8882,1,2,0:2:0:0:
239,182,9040,5,2,0:2:0:0:
309,318,9198,1,2,0:2:0:0:
239,182,9356,1,2,0:2:0:0:
276,326,9513,1,2,0:2:0:0:
271,173,9671,1,2,0:2:0:0:
244,320,9829,1,2,0:2:0:0:
303,179,9987,1,2,0:2:0:0:
217,301,10145,1,2,0:2:0:0:
330,198,10303,1,2,0:2:0:0:
124,281,10461,5,2,3:2:0:0:
79,221,10619,1,2,0:2:0:0:
89,146,10777,1,2,0:2:0:0:
149,100,10934,1,2,0:2:0:0:
176,199,11092,5,2,0:2:0:0:
176,199,11250,1,2,0:2:0:0:
82,16,11408,5,2,0:2:0:0:
156,7,11566,1,2,0:2:0:0:
216,53,11724,1,2,0:2:0:0:
225,127,11882,1,2,0:2:0:0:
283,172,12040,1,2,0:2:0:0:
339,170,12198,1,2,0:2:0:0:
359,156,12356,1,2,0:2:0:0:
364,142,12513,1,2,0:2:0:0:
366,135,12671,1,2,0:2:0:0:
366,130,12829,1,2,0:2:0:0:
403,217,12987,5,2,3:2:0:0:
356,280,13145,1,2,0:2:0:0:
278,291,13303,1,2,0:2:0:0:
215,243,13461,1,2,0:2:0:0:
270,298,13619,1,2,0:2:0:0:
222,235,13777,1,2,0:2:0:0:
261,303,13934,1,2,0:2:0:0:
231,230,14092,1,2,0:2:0:0:
184,342,14250,5,2,0:2:0:0:
107,352,14408,1,2,0:2:0:0:
45,304,14566,1,2,0:2:0:0:
35,226,14724,1,2,0:2:0:0:
123,259,14882,1,2,0:2:0:0:
133,181,15040,1,2,0:2:0:0:
231,230,15198,1,2,0:2:0:0:
221,152,15356,1,2,0:2:0:0:
300,265,15513,5,2,3:2:0:0:
373,240,15671,1,2,0:2:0:0:
406,170,15829,1,2,0:2:0:0:
373,104,15987,1,2,0:2:0:0:
319,171,16145,5,2,0:2:0:0:
319,171,16303,1,2,0:2:0:0:
508,285,16461,5,2,0:2:0:0:
450,234,16619,1,2,0:2:0:0:
373,240,16777,1,2,0:2:0:0:
322,298,16934,1,2,0:2:0:0:
292,186,17092,1,2,0:2:0:0:
230,317,17250,1,2,0:2:0:0:
214,225,17408,1,2,0:2:0:0:
149,330,17566,1,2,0:2:0:0:
142,255,17724,1,2,0:2:0:0:
81,299,17882,1,2,0:2:0:0:
28,185,18040,5,2,3:2:0:0:
75,123,18198,1,2,0:2:0:0:
129,108,18356,1,2,0:2:0:0:
170,122,18513,1,2,0:2:0:0:
186,140,18671,1,2,0:2:0:0:
193,155,18829,1,2,0:2:0:0:
196,168,18987,1,2,0:2:0:0:
197,174,19145,1,2,0:2:0:0:
207,250,19303,5,2,0:2:0:0:
254,312,19461,1,2,0:2:0:0:
308,327,19619,1,2,0:2:0:0:
349,313,19776,1,2,0:2:0:0:
365,295,19934,1,2,0:2:0:0:
372,280,20092,1,2,0:2:0:0:
375,267,20250,1,2,0:2:0:0:
376,261,20408,1,2,0:2:0:0:
400,162,20566,6,0,B|306:155|336:206|235:185,1,161.6,2|2,3:2|0:2,0:0:0:0:
118,220,21356,1,2,0:2:0:0:
201,91,21513,1,2,0:2:0:0:
195,249,21671,1,2,0:2:0:0:
88,37,21829,6,0,P|97:115|103:204,1,161.6,2|2,0:2|0:2,0:0:0:0:
131,324,22619,1,2,0:2:0:0:
36,240,22777,1,2,0:2:0:0:
22,381,22934,1,2,0:2:0:0:
195,249,23092,6,0,P|231:224|272:309,1,161.6,2|2,3:2|0:2,0:0:0:0:
367,226,23882,1,2,0:2:0:0:
337,373,24040,1,2,0:2:0:0:
348,202,24198,1,2,0:2:0:0:
459,377,24356,6,0,P|451:304|447:214,1,161.6,2|2,0:2|0:2,0:0:0:0:
438,126,25145,1,2,0:2:0:0:
333,164,25303,2,0,P|340:188|353:208,1,40.4,2|2,0:2|0:2,0:0:0:0:
353,74,25619,6,0,P|311:47|205:96,1,161.6,2|2,3:2|0:2,0:0:0:0:
169,161,26408,1,2,0:2:0:0:
125,37,26566,1,2,0:2:0:0:
74,194,26724,1,2,0:2:0:0:
213,81,26882,5,2,0:2:0:0:
256,130,27040,1,2,0:2:0:0:
257,195,27198,1,2,0:2:0:0:
214,245,27355,1,2,0:2:0:0:
30,331,27513,5,2,0:2:0:0:
61,297,27671,1,2,0:2:0:0:
106,293,27829,1,2,0:2:0:0:
144,320,27986,1,2,0:2:0:0:
268,269,28145,6,0,B|214:247|214:247|227:361,1,161.6,2|2,3:2|0:2,0:0:0:0:
277,176,28934,1,2,0:2:0:0:
297,334,29092,1,2,0:2:0:0:
289,158,29250,1,2,0:2:0:0:
359,271,29408,2,0,L|418:264,1,40.4,2|2,0:2|0:2,0:0:0:0:
388,123,29724,2,0,L|383:163,1,40.4,2|2,0:2|0:2,0:0:0:0:
476,231,30040,2,0,L|471:190,1,40.4,2|2,0:2|0:2,0:0:0:0:
387,122,30356,2,0,L|428:127,1,40.4,2|2,0:2|0:2,0:0:0:0:
327,42,30671,5,2,0:2:0:0:
295,132,30829,1,2,0:2:0:0:
230,29,30987,1,2,0:2:0:0:
222,124,31145,1,2,0:2:0:0:
125,37,31303,1,2,0:2:0:0:
141,130,31461,1,2,0:2:0:0:
30,73,31619,1,2,0:2:0:0:
69,158,31777,1,2,0:2:0:0:
30,243,31934,5,2,0:2:0:0:
51,145,32092,1,2,0:2:0:0:
116,301,32250,1,2,0:2:0:0:
128,201,32408,1,2,0:2:0:0:
221,329,32566,1,2,0:2:0:0:
224,228,32724,1,2,0:2:0:0:
322,300,32882,1,2,0:2:0:0:
316,199,33040,1,2,0:2:0:0:
368,363,33198,6,0,B|497:349|497:349|456:328,1,161.6,2|2,3:2|0:2,0:0:0:0:
346,274,33987,1,2,0:2:0:0:
474,237,34145,1,2,0:2:0:0:
322,253,34303,1,2,0:2:0:0:
509,159,34461,6,0,B|409:147|447:197|344:181,1,161.6,2|2,0:2|0:2,0:0:0:0:
224,228,35250,1,2,0:2:0:0:
291,73,35408,1,2,0:2:0:0:
343,168,35566,1,2,0:2:0:0:
210,54,35724,6,0,P|173:31|100:114,1,161.6,2|2,3:2|0:2,0:0:0:0:
99,203,36513,1,2,0:2:0:0:
25,138,36671,1,2,0:2:0:0:
6,235,36829,1,2,0:2:0:0:
115,180,36987,5,2,0:2:0:0:
82,247,37145,1,2,0:2:0:0:
193,194,37303,1,2,0:2:0:0:
170,276,37461,1,2,0:2:0:0:
266,208,37619,1,2,0:2:0:0:
259,307,37777,1,2,0:2:0:0:
341,220,37934,1,2,0:2:0:0:
367,320,38092,1,2,0:2:0:0:
406,171,38250,5,2,3:2:0:0:
291,83,38408,1,2,0:2:0:0:
341,220,38566,1,2,0:2:0:0:
231,150,38724,1,2,0:2:0:0:
342,303,38882,1,2,0:2:0:0:
238,248,39040,1,2,0:2:0:0:
348,384,39198,1,2,0:2:0:0:
250,338,39356,1,2,0:2:0:0:
413,258,39513,5,2,0:2:0:0:
413,258,39671,1,2,0:2:0:0:
392,149,39829,1,2,0:2:0:0:
392,149,39987,1,2,0:2:0:0:
504,271,40145,1,2,0:2:0:0:
504,271,40303,1,2,0:2:0:0:
364,361,40461,1,2,0:2:0:0:
364,361,40619,1,2,0:2:0:0:
283,204,40777,5,6,3:2:0:0:
125,366,40934,2,0,P|83:368|46:365,1,60.5999981506348,2|6,3:2|0:3,0:0:0:0:
142,270,41250,2,0,B|205:263|187:294|270:281,1,121.19999630127,2|2,0:2|0:2,0:0:0:0:
150,117,41724,5,6,3:3:0:0:
243,355,41882,2,0,P|284:354|333:281,1,121.19999630127,2|2,3:2|0:2,0:0:0:0:
267,161,42356,2,0,P|261:229|261:290,1,121.19999630127,6|6,0:3|0:3,0:0:0:0:
347,120,42829,1,2,0:2:0:0:
382,212,42987,1,6,0:3:0:0:
421,81,43145,1,6,0:3:0:0:
396,234,43303,5,2,3:2:0:0:
242,50,43461,2,0,P|193:41|163:39,1,60.5999981506348,2|6,3:2|0:3,0:0:0:0:
1,126,43777,2,0,B|59:103|66:156|141:139,1,121.19999630127,2|2,0:2|0:2,0:0:0:0:
182,39,44250,5,6,3:3:0:0:
41,219,44408,2,0,P|96:250|157:254,1,121.19999630127,2|2,3:2|0:2,0:0:0:0:
226,230,44882,2,0,P|190:246|180:337,1,121.19999630127,6|6,0:3|0:3,0:0:0:0:
296,284,45356,1,2,0:2:0:0:
286,182,45513,1,6,0:3:0:0:
379,224,45671,1,2,0:2:0:0:
309,81,45829,5,2,3:2:0:0:
375,309,45987,2,0,P|405:313|441:320,1,65.6499969947816,2|6,3:2|0:3,0:0:0:0:
416,186,46303,2,0,P|338:189|270:178,1,131.299993989563,2|2,0:2|0:2,0:0:0:0:
295,51,46777,5,6,3:3:0:0:
266,200,46934,2,0,P|213:184|136:189,1,131.299993989563,2|2,3:2|0:2,0:0:0:0:
50,121,47408,2,0,P|58:170|65:272,1,131.299993989563,6|6,0:3|0:3,0:0:0:0:
117,325,47882,1,2,0:2:0:0:
198,236,48040,1,6,0:3:0:0:
245,312,48198,1,2,0:2:0:0:
280,135,48356,5,2,3:2:0:0:
344,368,48513,2,0,P|387:361|415:359,1,65.6499969947816,2|6,3:2|0:3,0:0:0:0:
325,217,48829,2,0,B|252:201|259:247|176:233,1,131.299993989563,2|2,0:2|0:2,0:0:0:0:
100,135,49303,5,6,3:3:0:0:
344,22,49461,2,0,P|353:63|361:151,1,131.299993989563,2|2,0:2|0:2,0:2:0:0:
443,93,49934,2,0,P|434:134|426:222,1,131.299993989563,6|6,0:3|0:3,0:0:0:0:
280,135,50408,1,2,0:2:0:0:
341,255,50566,1,6,0:3:0:0:
206,247,50724,1,2,0:2:0:0:
349,177,50882,5,2,3:2:0:0:
141,134,51040,2,0,P|133:183|124:214,1,70.6999978424073,2|6,3:2|0:3,0:0:0:0:
22,277,51356,2,0,P|9:217|-1:137,1,141.399995684815,2|2,0:2|0:2,0:0:0:0:
156,49,51829,5,6,3:3:0:0:
157,341,51987,2,0,P|147:277|125:196,1,141.399995684815
194,152,52461,2,0,P|246:131|308:181,1,141.399995684815,6|6,0:3|0:3,0:0:0:0:
348,97,52934,1,2,0:2:0:0:
374,220,53092,1,6,0:3:0:0:
364,76,53250,1,2,0:2:0:0:
294,253,53408,5,2,3:2:0:0:
474,141,53566,2,0,P|468:187|464:237,1,70.6999978424073,2|6,3:2|0:3,0:0:0:0:
393,359,53882,2,0,P|391:314|372:216,1,141.399995684815,2|2,0:2|0:2,0:0:0:0:
167,249,54356,5,6,3:3:0:0:
316,114,54513,2,0,P|299:171|294:265,1,141.399995684815,2|2,0:2|0:2,0:2:0:0:
187,41,54987,2,0,P|204:98|211:199,1,141.399995684815,6|6,0:3|0:3,0:0:0:0:
83,248,55461,1,2,0:2:0:0:
257,288,55619,1,6,0:3:0:0:
133,169,55777,1,2,0:2:0:0:
122,363,55934,5,2,3:2:0:0:
341,332,56092,2,0,P|348:280|347:250,1,75.7500028896333,2|6,3:2|0:3,0:0:0:0:
477,169,56408,2,0,P|471:229|485:320,1,151.500005779267,2|2,0:2|0:2,0:0:0:0:
364,124,56882,5,6,3:3:0:0:
241,252,57040,2,0,P|187:284|113:248,1,151.500005779267
187,53,57513,2,0,P|181:120|178:210,1,151.500005779267,6|6,0:3|0:3,0:0:0:0:
265,275,57987,1,2,0:2:0:0:
112,247,58145,1,6,0:3:0:0:
271,149,58303,1,2,0:2:0:0:
48,308,58461,5,2,3:2:0:0:
24,79,58619,2,0,P|68:56|107:52,1,75.7500028896333,2|6,3:2|0:3,0:0:0:0:
191,163,58934,2,0,B|121:175|128:134|38:160,1,151.500005779267,2|2,3:2|0:2,0:0:0:0:
217,49,59408,5,6,3:3:0:0:
256,292,59566,2,0,P|306:312|381:255,1,151.500005779267,2|2,0:2|0:2,0:0:0:0:
401,113,60040,6,0,B|364:107|346:88|346:88|359:112|365:141,1,90.8999972259522,6|0,0:3|0:0,0:0:0:0:
308,240,60356,6,0,B|332:200|371:188|371:188|344:191|309:170,1,121.2,6|0,3:3|0:0,0:0:0:0:
217,49,60671,6,0,B|243:81|238:136|238:136|254:104|284:91,1,151.5,6|0,3:3|0:0,0:0:0:0:
361,23,60987,6,0,P|393:68|398:132,1,101,6|0,3:2|3:0,0:0:0:0:
308,240,61303,1,0,0:0:0:0:
474,243,61461,2,0,B|429:236|412:195|412:195|439:258|390:328,1,202,6|4,3:3|0:3,0:0:0:0:
228,236,61934,2,0,L|246:305,1,50.5,2|0,3:2|0:0,0:0:0:0:
130,362,62092,2,0,L|142:313,1,50.5,6|0,3:3|0:0,0:0:0:0:
55,253,62250,5,2,0:2:0:0:
172,100,62408,2,0,P|160:167|158:213,1,101,4|0,3:3|0:0,0:0:0:0:
247,52,62724,1,4,0:3:0:0:
333,221,62882,2,0,P|328:170|319:121,1,101,0|4,3:0|0:3,0:0:0:0:
421,22,63198,2,0,P|411:71|407:121,1,101,2|4,3:2|0:3,0:0:0:0:
434,251,63513,6,0,B|328:233|346:305|239:284,1,202,2|0,3:2|0:0,0:0:0:0:
91,244,63987,2,0,P|104:304|112:362,1,101,4|0,3:3|0:0,0:0:0:0:
199,182,64303,1,4,0:3:0:0:
41,47,64461,2,0,L|19:113,1,50.5,2|0,3:2|0:0,0:0:0:0:
121,166,64619,2,0,L|105:118,1,50.5,2|0,3:2|0:0,0:0:0:0:
184,43,64777,5,2,0:2:0:0:
199,182,64934,2,0,B|245:196|245:196|316:170,1,101,4|0,3:3|0:0,0:0:0:0:
340,70,65250,1,4,3:3:0:0:
338,64,65329,1,0,3:0:0:0:
336,58,65408,1,0,3:0:0:0:
463,98,65566,2,0,L|445:168,1,50.5,4|0,3:3|0:0,0:0:0:0:
324,249,65724,2,0,L|394:267,1,50.5,2|0,3:2|0:0,0:0:0:0:
495,298,65882,2,0,L|446:310,1,50.5,6|0,3:3|0:0,0:0:0:0:
327,329,66040,6,0,B|215:307|215:307|161:338,1,151.5,6|2,3:2|0:2,0:0:0:0:
164,340,66356,1,0,0:0:0:0:
46,222,66513,1,6,3:3:0:0:
126,115,66671,1,2,0:2:0:0:
193,224,66829,1,4,0:3:0:0:
12,145,66987,1,0,3:0:0:0:
151,21,67145,1,4,0:3:0:0:
306,123,67303,5,2,0:2:0:0:
126,115,67461,2,0,P|142:173|155:232,1,101,4|0,3:3|0:0,0:0:0:0:
228,71,67777,1,4,3:3:0:0:
233,69,67856,1,0,3:0:0:0:
238,67,67934,1,0,3:0:0:0:
355,132,68092,2,0,L|282:118,1,50.5,6|0,3:3|0:0,0:0:0:0:
442,58,68250,2,0,L|457:113,1,50.5,2|0,3:2|0:0,0:0:0:0:
360,212,68408,2,0,L|373:163,1,50.5,6|0,3:3|0:0,0:0:0:0:
475,266,68566,6,0,B|423:255|395:301|395:301|343:338|258:306,1,202,6|2,3:2|0:2,0:0:0:0:
151,212,69040,2,0,B|154:264|147:328,1,101,6|2,3:3|0:3,0:0:0:0:
48,132,69356,1,4,0:3:0:0:
48,132,69513,2,0,P|93:92|156:93,1,101,0|0,3:0|3:0,0:0:0:0:
291,128,69829,6,0,P|282:192|278:245,1,101,0|4,0:0|3:3,0:0:0:0:
212,51,70145,1,0,0:0:0:0:
383,138,70303,1,4,3:3:0:0:
388,140,70382,1,0,3:0:0:0:
393,142,70461,1,0,3:0:0:0:
355,4,70619,6,0,P|342:49|336:89,1,65.6499969947816,6|0,3:3|0:0,0:0:0:0:
402,264,70777,2,0,P|369:230|337:205,1,65.6499969947816,2|0,3:2|0:0,0:0:0:0:
152,166,70934,2,0,P|197:154|235:139,1,65.6499969947816,6|0,3:3|0:0,0:0:0:0:
431,65,71092,6,0,P|412:132|404:292,1,202,6|0,3:2|3:0,0:0:0:0:
277,355,71566,1,4,0:3:0:0:
138,252,71724,2,0,P|197:243|258:227,1,101,0|4,3:0|0:3,0:0:0:0:
158,46,72040,2,0,B|137:46|120:51|120:51|97:50|97:50|93:60|93:60|58:92|17:81,1,151.5,2|0,3:2|0:0,0:0:0:0:
1,74,72356,6,0,P|54:117|43:251,1,202,2|0,3:2|3:0,0:0:0:0:
1,307,72829,1,4,0:3:0:0:
105,162,72987,2,0,B|151:136|151:136|214:155,1,101,2|4,3:2|0:3,0:0:0:0:
308,44,73303,2,0,P|298:99|294:152,1,101,0|4,3:0|0:3,0:0:0:0:
384,260,73619,6,0,B|263:235|300:306|176:293,1,202,6|0,3:2|3:0,0:0:0:0:
69,250,74092,1,4,0:3:0:0:
183,50,74250,2,0,P|193:105|197:158,1,101,0|4,3:0|0:3,0:0:0:0:
298,220,74566,2,0,L|308:162,1,50.5,2|0,3:2|0:0,0:0:0:0:
395,81,74724,2,0,L|403:130,1,50.5,6|0,3:3|0:0,0:0:0:0:
436,333,74882,6,0,P|388:376|288:295,1,202,2|0,3:2|3:0,0:0:0:0:
328,152,75356,1,4,0:3:0:0:
183,50,75513,1,0,3:0:0:0:
181,55,75592,1,0,3:0:0:0:
179,60,75671,1,4,3:3:0:0:
191,238,75829,2,0,P|131:217|62:264,1,151.5,2|0,3:2|0:0,0:0:0:0:
52,285,76145,6,0,P|45:218|36:151,1,101,6|4,3:2|0:3,0:0:0:0:
107,35,76461,2,0,P|100:85|95:135,1,101,0|4,3:0|0:3,0:0:0:0:
191,238,76777,1,0,3:0:0:0:
166,141,76934,1,4,0:3:0:0:
306,53,77092,1,2,3:2:0:0:
271,200,77250,1,4,3:3:0:0:
271,200,77329,1,0,3:0:0:0:
271,200,77408,5,2,3:2:0:0:
422,310,77566,1,4,3:3:0:0:
319,132,77724,1,0,3:0:0:0:
191,238,77882,1,4,3:3:0:0:
340,316,78040,1,2,3:2:0:0:
399,70,78198,1,4,0:3:0:0:
136,32,78356,1,2,3:2:0:0:
174,259,78513,1,4,3:3:0:0:
174,259,78592,1,0,3:0:0:0:
174,259,78671,6,0,P|167:228|161:190,1,50.5,2|0,3:2|0:0,0:0:0:0:
255,79,78829,2,0,P|250:103|244:128,1,50.5,4|0,3:3|0:0,0:0:0:0:
320,235,78987,2,0,P|357:244|395:243,1,50.5,0|0,3:0|0:0,0:0:0:0:
468,147,79145,2,0,P|443:149|419:157,1,50.5,4|0,3:3|0:0,0:0:0:0:
253,336,79303,5,0,3:0:0:0:
210,362,79381,1,0,3:0:0:0:
161,369,79460,1,4,3:3:0:0:
113,353,79539,1,0,3:0:0:0:
76,319,79618,1,0,0:3:0:0:
58,272,79697,1,0,3:0:0:0:
62,222,79777,2,0,P|72:189|94:161,1,50.5,4|0,3:3|3:0,0:0:0:0:
206,50,79934,5,0,0:3:0:0:
250,71,80012,1,0,3:0:0:0:
275,114,80091,1,4,3:3:0:0:
270,164,80171,1,0,3:0:0:0:
260,213,80249,1,0,0:3:0:0:
279,259,80328,1,0,3:0:0:0:
320,286,80408,2,0,P|361:295|405:286,1,50.5,4|0,3:3|3:0,0:0:0:0:
473,92,80566,5,0,0:3:0:0:
439,53,80644,1,0,3:0:0:0:
396,26,80723,1,4,3:3:0:0:
347,12,80802,1,0,3:0:0:0:
298,11,80881,1,0,0:3:0:0:
249,25,80960,1,0,3:0:0:0:
206,50,81039,1,4,3:3:0:0:
171,86,81118,1,0,3:0:0:0:
147,131,81198,6,0,P|151:160|161:191,7,50.5,10|2|2|2|2|2|2|2,0:2|0:2|0:2|0:2|0:2|0:2|0:2|0:2,0:2:0:0:
172,282,81829,5,2,0:2:0:0:
158,302,81907,1,2,0:2:0:0:
140,317,81986,1,2,0:2:0:0:
117,327,82065,1,2,0:2:0:0:
93,330,82144,1,2,0:2:0:0:
70,326,82223,1,2,0:2:0:0:
48,315,82302,1,2,0:2:0:0:
30,299,82381,1,2,0:2:0:0:
18,279,82461,5,2,0:2:0:0:
65,263,82539,1,2,0:2:0:0:
115,266,82618,1,2,0:2:0:0:
159,291,82697,1,2,0:2:0:0:
199,322,82776,1,2,0:2:0:0:
246,340,82855,1,2,0:2:0:0:
296,341,82934,1,2,0:2:0:0:
345,329,83013,1,2,0:2:0:0:
378,291,83092,5,2,0:2:0:0:
320,303,83170,1,2,0:2:0:0:
266,281,83249,1,2,0:2:0:0:
233,233,83328,1,2,0:2:0:0:
232,174,83407,1,2,0:2:0:0:
265,125,83486,1,2,0:2:0:0:
320,103,83565,1,2,0:2:0:0:
377,116,83644,1,2,0:2:0:0:
418,158,83724,6,0,P|423:197|423:230,1,50.5,10|0,3:3|0:0,0:0:0:0:
372,341,83882,2,0,P|373:315|377:290,1,50.5,0|0,3:0|0:0,0:0:0:0:
320,103,84040,6,0,P|319:154|311:184,1,60.5999981506348,0|0,3:0|0:0,0:0:0:0:
235,293,84198,2,0,P|230:263|232:232,1,60.5999981506348,0|0,3:0|0:0,0:0:0:0:
168,59,84356,6,0,P|167:106|140:144,1,70.6999978424073,0|0,3:0|0:0,0:0:0:0:
35,247,84513,2,0,P|21:214|23:179,1,70.6999978424073,0|0,3:0|0:0,0:0:0:0:
43,2,84671,6,0,L|61:96,1,80.8,0|0,3:0|0:0,0:0:0:0:
112,293,84829,2,0,L|127:213,1,80.8,0|0,3:0|0:0,0:0:0:0:
247,46,84987,6,0,L|240:141,1,80.8,0|0,3:0|0:0,0:0:0:0:
305,345,85145,2,0,L|310:263,1,80.8,0|0,3:0|3:0,0:0:0:0:
503,126,85303,5,8,3:3:0:0:
469,123,85381,1,10,0:3:0:0:
436,124,85460,1,8,3:3:0:0:
404,130,85539,1,10,0:3:0:0:
373,141,85619,1,10,3:3:0:0:
343,157,85698,1,10,0:3:0:0:
316,174,85776,1,10,3:3:0:0:
287,192,85855,1,10,0:3:0:0:
257,205,85934,1,10,3:3:0:0:
225,215,86013,1,10,0:3:0:0:
192,218,86092,1,10,3:3:0:0:
159,217,86171,1,10,0:3:0:0:
126,213,86250,5,8,3:2:0:0:
67,260,88777,5,2,0:2:0:0:
130,213,88934,1,2,0:2:0:0:
152,330,89092,2,0,B|205:313|199:344|264:340,1,101,6|0,0:3|0:0,0:0:0:0:
333,210,89408,2,0,P|322:264|320:320,1,101,2|2,0:2|0:2,0:0:0:0:
430,362,89724,2,0,P|427:311|416:262,1,101,6|2,0:3|0:2,0:0:0:0:
276,145,90040,5,0,0:0:0:0:
353,100,90198,1,2,0:2:0:0:
254,134,90356,1,6,0:3:0:0:
426,51,90513,2,0,B|364:22|364:22|395:170,1,202,2|0,0:2|0:0,0:0:0:0:
213,201,90987,2,0,P|178:150|184:101,1,101,6|2,0:3|0:2,0:0:0:0:
91,20,91303,5,2,0:2:0:0:
42,78,91461,1,2,0:2:0:0:
161,130,91619,2,0,L|46:153,1,101,6|0,0:3|0:0,0:0:0:0:
144,252,91934,2,0,P|204:220|257:247,1,101,0|2,0:0|0:2,0:0:0:0:
332,334,92250,2,0,P|282:338|243:309,1,101,6|2,0:3|0:2,0:0:0:0:
300,171,92566,5,0,0:0:0:0:
301,267,92724,1,0,0:0:0:0:
379,155,92882,2,0,B|231:113|231:113|275:83,1,202,6|2,0:3|0:2,0:0:0:0:
445,108,93356,1,0,0:0:0:0:
301,267,93513,2,0,L|421:250,1,101,6|0,0:3|0:0,0:0:0:0:
189,129,93829,5,2,0:2:0:0:
185,142,93987,1,2,0:2:0:0:
141,47,94145,2,0,P|160:125|167:249,1,202,14|0,0:3|0:0,0:0:0:0:
168,354,94619,5,0,3:0:0:0:
168,354,94698,1,0,3:0:0:0:
168,354,94777,2,0,B|132:320|132:320|291:303,1,202,14|0,0:3|0:0,0:0:0:0:
389,223,95250,5,0,3:0:0:0:
403,213,95329,1,0,3:0:0:0:
418,204,95408,2,0,P|384:162|315:268,1,202,14|0,0:3|0:0,0:0:0:0:
463,327,95882,5,0,3:0:0:0:
463,327,95961,1,0,3:0:0:0:
463,327,96040,2,0,B|504:228|410:224|470:111,1,202,14|0,0:3|0:0,0:0:0:0:
432,35,96434,5,0,0:0:0:0:
423,27,96513,2,0,L|361:39,1,50.5,0|0,3:0|3:0,0:0:0:0:
127,112,96671,2,0,B|197:79|197:79|254:117|254:117|307:93,1,202,14|0,0:3|0:0,0:0:0:0:
51,32,97145,5,0,3:0:0:0:
51,32,97224,1,0,3:0:0:0:
51,32,97303,2,0,B|97:65|97:65|86:233,1,202,14|0,0:3|0:0,0:0:0:0:
76,330,97777,5,0,3:0:0:0:
76,330,97856,1,0,3:0:0:0:
76,330,97934,2,0,B|150:291|136:358|244:324,1,151.5,14|0,0:3|0:0,0:0:0:0:
299,279,98250,6,0,B|253:227|253:227|236:329,1,141.399995684815,6|4,0:3|3:3,0:0:0:0:
384,354,98566,1,10,0:3:0:0:
400,336,98645,1,0,3:0:0:0:
408,289,98724,1,0,3:0:0:0:
387,229,98803,1,0,3:0:0:0:
320,192,98882,6,0,B|263:163|219:206|219:206|211:202|211:202|204:216|204:216|157:265|72:221,1,242.399992602539,6|8,3:2|0:2,0:0:0:0:
32,118,99356,1,4,0:3:0:0:
187,132,99513,1,0,3:0:0:0:
18,216,99671,1,4,0:3:0:0:
186,49,99829,2,0,P|179:85|174:132,1,60.5999981506348,8|0,0:2|0:0,0:0:0:0:
249,330,99987,6,0,P|270:260|256:206,1,121.19999630127,4|2,0:3|3:2,0:0:0:0:
32,118,100303,2,0,P|82:171|135:186,1,121.19999630127,4|8,0:3|0:2,0:0:0:0:
337,143,100619,1,4,0:3:0:0:
108,203,100777,1,2,3:2:0:0:
103,237,100855,1,0,3:0:0:0:
98,272,100934,1,4,3:3:0:0:
397,155,101092,1,8,0:2:0:0:
337,143,101170,1,0,3:0:0:0:
278,131,101249,1,6,3:3:0:0:
218,119,101328,1,0,3:0:0:0:
159,107,101407,5,2,3:2:0:0:
353,277,101566,1,6,0:3:0:0:
246,41,101724,1,8,0:2:0:0:
265,342,101883,1,4,0:3:0:0:
364,68,102040,1,2,3:2:0:0:
147,315,102199,1,6,0:3:0:0:
420,181,102356,2,0,L|326:187,1,60.5999981506348,8|0,0:2|3:0,0:0:0:0:
91,202,102513,1,6,3:3:0:0:
219,111,102671,6,0,L|213:145,2,30.2999990753174,0|0|0,3:0|3:0|3:0,3:0:0:0:
265,342,102829,2,0,L|275:282,1,60.5999981506348,6|0,3:3|0:0,0:0:0:0:
336,86,102987,2,0,L|342:120,2,30.2999990753174,10|0|0,3:2|3:0|3:0,3:0:0:0:
181,285,103145,2,0,L|170:225,1,60.5999981506348,6|0,3:3|0:0,0:0:0:0:
359,184,103303,2,0,L|348:243,1,60.5999981506348,2|0,3:2|0:0,0:0:0:0:
134,136,103461,2,0,L|144:76,1,60.5999981506348,6|0,3:3|0:0,0:0:0:0:
455,232,103619,1,10,0:2:0:0:
460,276,103697,1,0,3:0:0:0:
444,317,103776,1,4,3:3:0:0:
411,347,103855,1,0,3:0:0:0:
368,359,103934,6,0,B|280:369|180:358|180:358|158:334|153:294,1,242.399992602539,2|8,3:2|0:2,0:0:0:0:
235,153,104408,2,0,P|267:209|256:286,1,121.19999630127,4|0,0:3|3:0,0:0:0:0:
68,327,104724,1,4,3:3:0:0:
68,327,104803,1,0,3:0:0:0:
68,327,104882,1,10,0:2:0:0:
256,161,105040,2,0,P|266:98|269:34,1,121.19999630127,2|2,0:0|3:2,0:0:0:0:
87,88,105356,5,8,3:0:0:0:
87,88,105434,1,0,3:0:0:0:
87,88,105513,2,0,P|90:123|102:161,1,60.5999981506348,4|0,3:0|3:0,3:0:0:0:
192,217,105670,1,8,3:0:0:0:
192,217,105749,1,0,3:0:0:0:
192,217,105829,2,0,P|218:239|254:264,1,60.5999981506348,4|0,3:0|3:0,3:0:0:0:
350,161,105986,1,8,3:0:0:0:
350,161,106065,1,0,3:0:0:0:
350,161,106145,2,0,L|343:83,1,60.5999981506348,2|0,3:3|3:0,3:0:0:0:
480,184,106303,2,0,L|466:258,1,60.5999981506348,12|0,3:3|3:0,3:0:0:0:
425,57,106461,5,4,3:2:0:0:
350,161,106619,1,2,0:2:0:0:
274,49,106777,2,0,P|216:24|154:46,1,121.19999630127,6|0,0:3|3:0,0:0:0:0:
58,251,107092,2,0,B|10:229|10:229|-48:122|58:37,1,242.399992602539,8|4,0:2|0:3,0:0:0:0:
177,162,107566,1,0,0:0:0:0:
134,289,107724,6,0,L|143:358,2,60.5999981506348,0|0|2,3:0|3:0|3:2,0:0:0:0:
195,142,108040,1,6,0:3:0:0:
255,304,108198,1,2,3:2:0:0:
334,74,108356,1,10,0:2:0:0:
289,203,108513,1,2,0:2:0:0:
401,139,108671,1,6,0:3:0:0:
429,205,108829,1,2,0:2:0:0:
440,49,108987,5,0,3:0:0:0:
277,129,109145,2,0,P|217:138|153:145,2,121.19999630127,2|6|2,0:2|0:3|3:2,0:0:0:0:
91,42,109619,1,8,0:2:0:0:
91,42,109698,1,0,3:0:0:0:
91,42,109777,1,2,3:2:0:0:
30,147,109934,2,0,L|49:223,1,60.5999981506348,6|0,0:3|0:0,0:0:0:0:
129,220,110092,2,0,L|115:279,1,60.5999981506348,2|0,0:2|0:0,0:0:0:0:
212,312,110250,5,10,0:3:0:0:
245,329,110329,1,0,3:0:0:0:
280,339,110408,2,0,P|336:343|371:333,1,60.5999981506348,0|0,3:0|3:0,0:0:0:0:
452,257,110566,1,14,0:3:0:0:
469,224,110645,1,0,3:0:0:0:
479,189,110724,2,0,P|483:133|473:98,1,60.5999981506348,0|0,3:0|3:0,0:0:0:0:
337,29,110882,1,14,0:3:0:0:
320,62,110961,1,0,3:0:0:0:
311,97,111040,2,0,P|305:126|307:156,1,60.5999981506348,0|0,3:0|3:0,0:0:0:0:
204,237,111198,6,0,P|115:254|190:202,1,227.2500086689,10|0,0:2|0:0,0:0:0:0:
144,199,111513,6,0,P|59:213|6:216,1,101,4|6,3:2|0:3,0:0:0:0:
98,52,111829,2,0,P|138:83|180:112,1,101,2|6,3:2|0:3,0:0:0:0:
275,99,112145,2,0,P|265:49|259:0,1,101,2|4,3:2|0:3,0:0:0:0:
390,89,112461,1,2,3:2:0:0:
237,179,112619,1,6,0:3:0:0:
445,220,112777,6,0,B|400:243|400:243|334:231,1,101,2|4,3:2|0:3,0:0:0:0:
180,112,113092,2,0,B|225:89|225:89|291:101,1,101,2|6,3:2|0:3,0:0:0:0:
339,334,113408,2,0,B|236:291|242:371|122:328,1,202,2|2,3:2|3:2,0:0:0:0:
64,207,113882,1,6,0:3:0:0:
180,112,114040,6,0,B|253:85|253:85|217:243,1,202,2|0,3:2|3:0,0:0:0:0:
326,139,114513,1,6,0:3:0:0:
326,139,114671,2,0,P|390:93|516:130,1,202,2|0,3:2|3:0,0:0:0:0:
388,273,115145,1,4,0:3:0:0:
185,293,115303,5,10,0:3:0:0:
148,259,115382,1,2,3:3:0:0:
134,211,115461,2,0,P|130:185|138:133,1,50.5,4|0,3:3|0:0,0:0:0:0:
290,11,115619,5,10,0:3:0:0:
294,70,115698,1,2,3:3:0:0:
299,129,115777,2,0,L|303:207,1,50.5,4|0,3:3|3:0,0:0:0:0:
383,339,115934,5,10,0:3:0:0:
388,273,116013,1,2,3:3:0:0:
393,207,116092,2,0,L|396:121,1,50.5,4|0,3:3|0:0,0:0:0:0:
160,12,116250,5,10,0:3:0:0:
102,37,116329,1,2,3:3:0:0:
61,84,116408,1,4,3:3:0:0:
44,145,116487,1,2,3:3:0:0:
55,206,116566,5,6,3:2:0:0:
186,113,116724,1,6,0:3:0:0:
220,313,116882,1,10,0:2:0:0:
33,293,117040,1,6,0:3:0:0:
220,197,117198,2,0,L|340:181,1,101,2|4,3:2|0:3,0:0:0:0:
441,13,117513,2,0,P|445:68|454:113,1,101,10|6,0:2|0:3,0:0:0:0:
440,312,117829,6,0,P|384:281|341:292,1,101,2|4,3:2|0:3,0:0:0:0:
319,309,118066,1,0,3:0:0:0:
315,319,118145,1,10,0:2:0:0:
245,121,118303,1,6,0:3:0:0:
133,244,118461,2,0,L|10:250,1,101,2|4,3:2|0:3,0:0:0:0:
158,44,118777,1,10,0:2:0:0:
158,44,118934,1,6,3:3:0:0:
230,209,119092,5,2,3:2:0:0:
46,325,119250,1,4,3:3:0:0:
112,115,119408,1,2,3:2:0:0:
200,363,119566,1,4,3:3:0:0:
280,40,119724,5,2,3:2:0:0:
434,233,119882,1,4,3:3:0:0:
219,103,120040,1,2,3:2:0:0:
341,333,120198,1,4,3:3:0:0:
133,244,120356,5,2,3:2:0:0:
367,109,120513,1,4,3:3:0:0:
322,319,120671,1,10,3:0:0:0:
322,319,120750,1,0,3:0:0:0:
322,319,120829,1,4,3:3:0:0:
281,349,120908,1,0,3:0:0:0:
234,364,120986,1,10,0:3:0:0:
183,363,121066,1,0,3:0:0:0:
136,346,121145,1,6,3:3:0:0:
197,335,121223,1,2,3:0:0:0:
242,292,121302,1,10,0:3:0:0:
256,231,121381,1,0,3:0:0:0:
234,173,121460,1,6,3:3:0:0:
183,137,121539,1,0,3:0:0:0:
121,136,121619,6,0,P|50:166|12:199,1,101,6|2,3:2|0:2,0:0:0:0:
135,345,121934,2,0,P|145:296|168:251,1,101,10|6,0:2|0:3,0:0:0:0:
334,234,122250,2,0,P|362:305|366:355,1,101,2|4,3:2|0:3,0:0:0:0:
480,160,122566,1,10,0:2:0:0:
291,110,122724,1,6,0:3:0:0:
434,54,122882,6,0,P|375:27|316:22,1,101,2|4,3:2|0:3,0:0:0:0:
183,167,123198,2,0,P|232:157|277:134,1,101,10|6,0:2|0:3,0:0:0:0:
144,52,123513,2,0,B|119:21|69:21|69:21|28:77|37:166,1,202,2|10,3:2|0:2,0:0:0:0:
72,279,123987,1,6,0:3:0:0:
201,234,124145,6,0,B|241:207|285:223|285:223|338:269|399:239,1,202,2|8,3:2|0:2,0:0:0:0:
394,41,124619,1,6,0:3:0:0:
394,41,124777,2,0,B|372:13|372:13|331:81|403:108|345:182,1,202,2|8,3:2|0:2,0:0:0:0:
202,314,125250,1,4,0:3:0:0:
4,243,125408,5,10,0:3:0:0:
34,232,125487,1,0,3:0:0:0:
64,221,125566,2,0,L|122:200,1,50.5,4|0,3:3|3:0,0:0:0:0:
53,86,125724,5,10,0:3:0:0:
91,103,125803,1,0,3:0:0:0:
133,122,125882,2,0,L|211:158,1,50.5,4|0,3:3|3:0,0:0:0:0:
215,0,126040,5,10,0:3:0:0:
231,43,126119,1,0,3:0:0:0:
250,94,126198,2,0,L|283:187,1,50.5,4|0,3:3|3:0,0:0:0:0:
381,26,126356,5,10,0:3:0:0:
373,88,126434,1,0,3:0:0:0:
366,151,126513,1,4,3:3:0:0:
358,214,126592,1,0,3:0:0:0:
351,276,126671,5,6,3:2:0:0:
444,178,126829,1,6,0:3:0:0:
507,338,126987,1,10,0:2:0:0:
262,220,127145,1,6,0:3:0:0:
222,370,127303,2,0,P|276:355|347:342,1,101,2|4,3:2|0:3,0:0:0:0:
218,147,127540,1,0,3:0:0:0:
214,134,127619,2,0,P|186:176|161:220,1,101,10|6,0:2|0:3,0:0:0:0:
75,300,127934,6,0,P|45:231|64:174,1,101,2|4,3:2|0:3,0:0:0:0:
60,177,128171,1,0,3:0:0:0:
67,169,128250,1,10,0:2:0:0:
188,61,128408,1,6,0:3:0:0:
235,315,128566,2,0,P|239:260|242:200,1,101,2|4,3:2|0:3,0:0:0:0:
394,46,128803,1,0,3:0:0:0:
406,55,128882,2,0,P|408:105|412:155,1,101,10|6,0:2|0:3,0:0:0:0:
427,277,129198,5,10,0:3:0:0:
427,277,129277,1,0,3:0:0:0:
427,277,129356,2,0,L|363:285,1,50.5,4|0,3:0|3:0,3:0:0:0:
171,232,129513,1,10,0:3:0:0:
171,232,129592,1,0,3:0:0:0:
171,232,129671,2,0,L|235:240,1,50.5,4|0,3:0|3:0,3:0:0:0:
310,111,129829,1,10,0:3:0:0:
310,111,129908,1,0,3:0:0:0:
310,111,129987,2,0,L|301:45,1,50.5,4|0,3:3|3:0,3:0:0:0:
211,12,130145,2,0,B|261:73|173:100|255:192,1,151.5,10|0,3:2|3:0,0:0:0:0:
246,177,130461,6,0,P|314:199|375:177,1,121.19999630127,2|2,0:2|0:2,0:0:0:0:
395,117,130882,2,0,L|383:58,2,40.3999987670899,0|0|2,0:0|0:0|0:2,0:0:0:0:
469,96,131408,2,0,P|466:159|468:200,1,80.7999975341798,2|0,0:2|0:0,0:0:0:0:
466,207,131724,6,0,P|431:247|361:256,1,107.733333333333,10|0,0:2|0:0,0:0:0:0:
306,267,132040,2,0,L|321:330,1,53.8666666666667,10|8,0:2|0:2,0:0:0:0:
253,362,132250,1,10,0:2:0:0:
253,362,132356,2,0,B|207:352|207:352|195:357|195:357|119:342,1,107.733333333333,10|0,0:2|0:0,0:0:0:0:
93,292,132671,2,0,L|105:239,1,53.8666666666667,8|8,0:2|0:2,0:0:0:0:
122,163,132882,1,10,0:2:0:0:
122,163,132987,5,10,2:0:0:0:
246,66,133198,1,2,0:2:0:0:
246,66,133303,1,10,0:2:0:0:
394,91,133513,1,2,0:2:0:0:
394,91,133619,1,10,0:2:0:0:
400,121,133724,1,8,0:2:0:0:
406,151,133829,1,8,0:2:0:0:
412,181,133934,2,0,P|351:216|294:190,1,107.733333333333,12|10,0:2|0:2,0:0:0:0:
240,223,134250,6,0,P|292:218|334:250,1,107.733333333333,14|2,0:2|0:2,0:0:0:0:
235,297,134566,2,0,L|159:286,1,53.8666666666667,10|8,0:2|0:2,0:0:0:0:
110,255,134777,1,10,0:2:0:0:
110,255,134882,2,0,B|89:210|126:194|92:144,1,107.733333333333,10|0,0:2|0:0,0:0:0:0:
53,92,135198,2,0,P|86:77|121:87,1,53.8666666666667,8|8,0:2|0:2,0:0:0:0:
168,109,135408,1,10,0:2:0:0:
168,109,135513,5,10,0:2:0:0:
312,211,135724,1,2,0:2:0:0:
312,211,135829,1,10,0:2:0:0:
293,374,136040,1,2,0:2:0:0:
293,374,136145,1,10,0:2:0:0:
299,319,136250,1,8,0:2:0:0:
305,264,136355,1,8,0:2:0:0:
312,211,136461,2,0,L|430:227,1,107.733333333333,8|8,0:2|0:2,0:0:0:0:
461,115,136777,6,0,L|354:129,1,107.733333333333,14|0,0:2|0:0,0:0:0:0:
308,19,137092,2,0,L|315:87,1,53.8666666666667,10|8,0:2|0:2,0:0:0:0:
241,49,137303,1,10,0:2:0:0:
241,49,137408,2,0,P|190:29|126:47,1,107.733333333333,10|0,0:2|0:0,0:0:0:0:
79,82,137724,2,0,L|86:150,1,53.8666666666667,8|8,0:2|0:2,0:0:0:0:
92,210,137934,1,10,0:2:0:0:
92,210,138040,6,0,B|132:214|160:196|160:196|166:207|166:207|193:198,1,107.733333333333,14|0,0:2|0:0,0:0:0:0:
256,175,138356,2,0,P|219:214|217:288,1,107.733333333333,10|8,0:2|0:2,0:0:0:0:
321,345,138671,2,0,P|289:301|288:248,1,107.733333333333,10|0,0:2|0:0,0:0:0:0:
335,151,138987,2,0,P|388:152|442:203,1,107.733333333333,10|0,0:2|0:0,0:0:0:0:
397,320,139303,6,0,P|395:266|364:223,1,107.733333333333,14|0,0:2|0:0,0:0:0:0:
224,176,139619,2,0,L|138:193,1,53.8666666666667,10|8,0:2|0:2,0:2:0:0:
158,80,139829,1,10,0:2:0:0:
158,80,139934,2,0,L|264:97,1,107.733333333333,8|0,0:2|0:0,0:0:0:0:
364,47,140250,1,10,0:2:0:0:
359,79,140355,1,8,0:2:0:0:
355,112,140460,1,10,0:2:0:0:
349,143,140566,6,0,L|456:126,1,107.733333333333,10|0,0:2|0:0,0:0:0:0:
493,229,140882,2,0,L|387:212,1,107.733333333333,8|8,0:2|0:2,0:0:0:0:
316,243,141198,2,0,L|328:308,1,53.8666666666667,8|8,0:2|0:2,0:0:0:0:
238,340,141408,2,0,L|247:287,1,53.8666666666667,8|10,0:2|0:2,0:0:0:0:
188,223,141619,2,0,L|125:219,1,53.8666666666667
77,163,141829,5,6,3:2:0:0:
202,120,141987,1,2,0:2:0:0:
81,51,142145,2,0,P|132:36|198:38,1,101,6|0,0:3|0:0,0:0:0:0:
318,153,142461,2,0,B|337:106|337:106|318:51,1,101,2|2,0:2|0:2,0:0:0:0:
214,133,142777,2,0,P|221:204|226:259,1,101,6|2,0:3|0:2,0:0:0:0:
337,343,143092,5,0,0:0:0:0:
223,233,143250,1,0,0:0:0:0:
328,366,143408,1,6,0:3:0:0:
339,229,143566,2,0,B|218:236|263:304|128:291,1,202,2|0,0:2|0:0,0:0:0:0:
6,229,144040,2,0,P|50:191|109:188,1,101,6|2,0:3|0:2,0:0:0:0:
152,292,144356,6,0,L|138:359,1,50.5,10|0,0:3|3:0,0:0:0:0:
237,320,144513,2,0,L|248:271,1,50.5,10|0,0:3|3:0,0:0:0:0:
146,143,144671,6,0,P|129:164|125:209,1,60.5999981506348,10|0,0:3|3:0,0:0:0:0:
268,252,144829,2,0,P|285:231|289:186,1,60.5999981506348,10|0,0:3|3:0,0:0:0:0:
85,59,144987,6,0,P|67:113|99:151,1,70.6999978424073,10|0,0:3|3:0,0:0:0:0:
311,133,145145,2,0,P|314:98|296:68,1,70.6999978424073,10|0,0:3|3:0,0:0:0:0:
0,129,145303,6,0,P|17:172|74:193,1,80.8,10|0,0:3|3:0,0:0:0:0:
388,148,145461,1,10,0:3:0:0:
388,148,146250,5,2,0:2:0:0:
377,141,146329,1,2,0:2:0:0:
353,137,146408,1,2,0:2:0:0:
325,155,146487,1,2,0:2:0:0:
303,195,146566,1,2,0:2:0:0:
245,225,146645,1,2,0:2:0:0:
172,209,146724,6,0,B|147:190|132:166|132:166|127:65|189:28|189:28|202:62|167:114,1,282.799991369629,6|6,3:2|0:3,0:0:0:0:
125,281,147198,2,0,P|51:301|-11:249,1,141.399995684815,10|6,0:2|0:3,0:0:0:0:
54,67,147513,1,2,3:2:0:0:
255,120,147671,1,6,0:3:0:0:
70,219,147829,1,10,0:2:0:0:
345,75,147987,6,0,B|364:144|327:194|327:194|331:209|331:209|291:278|330:345,1,282.799991369629,6|6,0:3|0:3,0:0:0:0:
512,156,148461,2,0,B|444:129|444:129|349:165,1,141.399995684815,10|6,0:2|0:3,0:0:0:0:
308,360,148777,1,2,3:2:0:0:
235,140,148934,1,6,0:3:0:0:
155,375,149092,1,10,0:2:0:0:
96,251,149250,1,6,3:3:0:0:
62,261,149329,1,0,3:0:0:0:
28,271,149408,5,0,3:0:0:0:
284,199,149566,1,6,0:3:0:0:
91,128,149724,1,10,0:2:0:0:
297,227,149882,1,6,0:3:0:0:
65,49,150040,2,0,P|54:86|70:131,1,70.6999978424073,0|0,3:0|0:0,0:0:0:0:
237,301,150198,1,4,3:3:0:0:
237,301,150277,1,2,3:2:0:0:
237,301,150356,1,8,0:2:0:0:
218,35,150513,1,6,0:3:0:0:
402,168,150671,5,2,3:2:0:0:
158,224,150829,1,6,3:3:0:0:
167,168,150908,1,2,3:2:0:0:
177,112,150987,1,10,0:2:0:0:
260,324,151145,1,6,0:3:0:0:
320,166,151303,1,2,3:3:0:0:
311,110,151381,1,2,3:2:0:0:
301,54,151461,1,10,0:2:0:0:
438,273,151619,2,0,L|409:362,1,70.6999978424073,10|2,0:2|0:2,0:0:0:0:
331,259,151777,1,6,3:3:0:0:
331,259,151856,1,0,3:0:0:0:
331,259,151934,6,0,B|231:247|251:333|126:318|126:318|163:314|198:275,1,282.799991369629,2|10,3:2|0:2,0:0:0:0:
367,162,152408,2,0,P|419:201|434:290,1,141.399995684815,6|0,0:3|3:0,0:0:0:0:
189,198,152724,2,0,P|205:123|214:27,2,141.399995684815,6|2|6,0:3|3:2|0:3,0:0:0:0:
24,349,153198,5,2,3:2:0:0:
78,220,153356,1,4,0:3:0:0:
137,334,153513,5,10,0:2:0:0:
219,182,153671,2,0,P|237:223|251:259,1,70.6999978424073,0|0,3:0|0:0,0:0:0:0:
310,373,153829,5,10,0:2:0:0:
310,373,153908,1,0,3:0:0:0:
310,373,153987,1,4,3:3:0:0:
234,30,154145,1,10,0:2:0:0:
234,30,154224,1,0,3:0:0:0:
234,30,154303,1,4,3:3:0:0:
234,30,154382,1,0,3:0:0:0:
234,30,154461,6,0,P|280:35|324:44,1,90.8999972259522,0|0,3:0|0:0,0:0:0:0:
312,154,154777,6,0,B|261:162|213:122|213:122|201:154|176:181|176:181|132:127|66:127,1,282.799991369629,6|2,3:2|3:2,0:0:0:0:
61,145,155171,1,0,3:0:0:0:
53,156,155250,1,2,3:2:0:0:
75,348,155408,2,0,P|94:302|103:248,1,70.6999978424073,10|0,0:2|0:0,0:0:0:0:
176,181,155566,6,0,P|185:286|326:220,1,282.799991369629,2|4,3:2|3:3,0:0:0:0:
163,95,156040,1,10,0:3:0:0:
148,80,156118,1,0,3:0:0:0:
133,66,156197,1,0,3:0:0:0:
118,53,156277,1,0,3:0:0:0:
188,49,156356,5,10,0:3:0:0:
256,67,156435,1,8,0:3:0:0:
304,118,156514,1,8,0:3:0:0:
355,166,156593,1,8,0:3:0:0:
423,183,156672,1,10,0:3:0:0:
493,181,156751,1,8,0:3:0:0:
510,158,156829,6,0,P|488:227|486:295,1,121.19999630127,10|2,0:3|0:0,0:0:0:0:
187,333,157303,6,0,P|199:263|201:192,1,141.399995684815,14|6,0:2|0:3,0:0:0:0:
332,27,157619,2,0,P|352:119|354:193,1,141.399995684815,2|4,3:2|0:3,0:0:0:0:
212,347,157934,1,8,0:2:0:0:
48,265,158092,6,0,B|-18:183|41:75|41:75|130:63,1,282.799991369629,6|6,0:3|0:3,0:0:0:0:
419,212,158566,2,0,L|268:205,1,141.399995684815,10|6,0:2|0:3,0:0:0:0:
119,64,158882,2,0,L|188:198,1,141.399995684815,2|4,3:2|0:3,0:0:0:0:
141,384,159198,1,8,0:2:0:0:
331,133,159356,1,6,3:3:0:0:
391,130,159434,1,0,3:0:0:0:
452,127,159513,5,0,3:0:0:0:
368,33,159671,1,6,0:3:0:0:
267,228,159829,1,10,0:2:0:0:
228,8,159987,1,4,0:3:0:0:
82,193,160145,2,0,P|62:121|29:44,1,141.399995684815,2|4,3:2|0:3,0:0:0:0:
49,327,160461,1,10,0:2:0:0:
287,239,160619,6,0,P|385:194|471:318,1,282.799991369629,6|6,0:3|0:3,0:0:0:0:
256,371,161092,1,10,0:2:0:0:
49,327,161250,1,6,0:3:0:0:
191,113,161408,2,0,B|193:57|254:62|254:62|318:117|212:166|309:266,1,282.799991369629,2|8,3:2|0:2,0:0:0:0:
505,136,161882,1,4,3:3:0:0:
466,116,161961,1,0,3:0:0:0:
422,114,162040,5,2,3:2:0:0:
496,218,162198,1,6,0:3:0:0:
274,256,162356,1,10,0:2:0:0:
503,340,162513,2,0,B|261:363|261:363|306:329,1,282.799991369629,6|6,0:3|3:3,0:0:0:0:
292,339,162908,1,0,3:0:0:0:
292,339,162987,1,10,0:2:0:0:
377,190,163145,6,0,B|221:179|258:272|94:265,1,282.799991369629,6|4,0:3|0:3,0:0:0:0:
23,34,163619,2,0,P|82:115|108:171,1,141.399995684815,10|6,0:2|0:3,0:0:0:0:
196,373,163934,2,0,P|229:310|273:255,1,141.399995684815,2|6,3:2|0:3,0:0:0:0:
484,109,164250,2,0,L|391:75,1,70.6999978424073,10|0,3:2|0:0,0:0:0:0:
339,231,164408,2,0,L|272:255,1,70.6999978424073,6|0,3:3|0:0,0:0:0:0:
186,24,164566,5,2,3:2:0:0:
127,183,164724,1,4,0:3:0:0:
273,175,164882,1,8,0:2:0:0:
119,62,165040,1,4,0:3:0:0:
20,261,165198,1,2,3:2:0:0:
253,159,165356,1,4,0:3:0:0:
23,34,165513,1,10,0:2:0:0:
99,368,165671,1,6,3:3:0:0:
99,368,165750,1,0,3:0:0:0:
99,368,165829,6,0,L|193:341,1,70.6999978424073,0|0,3:0|0:0,0:0:0:0:
291,106,165987,2,0,L|268:192,1,70.6999978424073,6|0,3:3|0:0,0:0:0:0:
344,337,166145,2,0,L|325:268,1,70.6999978424073,10|0,0:2|0:0,0:0:0:0:
427,117,166303,1,4,0:3:0:0:
408,282,166461,1,0,3:0:0:0:
204,20,166619,1,4,3:3:0:0:
148,35,166698,1,0,3:0:0:0:
120,83,166777,1,8,0:2:0:0:
128,138,166856,1,0,3:0:0:0:
169,176,166934,1,0,3:2:0:0:
174,232,167013,1,0,3:0:0:0:
142,278,167092,5,6,3:2:0:0:
204,100,167250,1,2,0:2:0:0:
204,100,167408,1,2,0:2:0:0:
237,320,167566,2,0,B|417:259|338:375|528:330,1,282.799991369629,2|2,3:2|3:2,0:0:0:0:
322,71,168040,2,0,L|333:164,1,70.6999978424073,2|0,0:2|0:0,0:0:0:0:
466,59,168198,6,0,P|379:36|163:151,1,282.799991369629,2|0,3:2|3:0,0:0:0:0:
198,136,168592,1,0,3:0:0:0:
196,150,168671,1,14,0:3:0:0:
112,32,168829,1,2,3:2:0:0:
31,242,168987,1,2,3:2:0:0:
325,169,169145,1,0,3:0:0:0:
282,162,169223,1,0,3:0:0:0:
239,156,169302,1,8,0:3:0:0:
196,150,169381,1,0,3:0:0:0:
154,144,169460,1,0,3:0:0:0:
111,138,169539,1,0,3:0:0:0:
68,132,169619,5,6,3:2:0:0:
185,287,169777,1,4,0:3:0:0:
283,62,169934,1,8,0:2:0:0:
306,363,170092,1,4,3:3:0:0:
306,363,170171,1,0,3:0:0:0:
306,363,170250,1,2,3:2:0:0:
36,286,170408,1,4,0:3:0:0:
214,177,170566,2,0,P|248:162|307:171,1,70.6999978424073,10|0,0:2|0:0,0:0:0:0:
504,244,170724,2,0,P|468:243|436:228,1,70.6999978424073,6|0,3:3|0:0,0:0:0:0:
308,37,170882,5,0,3:0:0:0:
163,273,171040,1,2,3:2:0:0:
163,273,171119,1,0,3:0:0:0:
163,273,171198,2,0,B|185:329|140:376|140:376|89:331|104:258|147:221|147:221|114:180|114:180|166:121|139:37,1,484.8,10|2,0:2|0:2,0:0:0:0:
243,374,173408,6,0,B|342:326|342:326|344:318|344:318|351:321|351:321|391:299|391:299|449:187|355:119|262:82|262:82|355:119|463:82|463:82|373:-27|250:18,1,908.999972259522,2|0,0:2|0:0,0:0:0:0:
463,81,175934,6,0,P|451:130|439:185,1,101,10|6,3:3|0:3,0:0:0:0:
421,332,176250,1,2,3:2:0:0:
353,182,176408,2,0,P|317:155|257:152,1,101,6|0,0:3|3:0,0:0:0:0:
94,233,176724,1,6,3:3:0:0:
94,233,176803,1,0,3:0:0:0:
94,233,176882,2,0,P|104:183|116:134,1,101,2|6,3:2|0:3,0:0:0:0:
240,52,177198,6,0,P|251:101|261:150,1,101,0|6,3:0|0:3,0:0:0:0:
233,301,177513,1,2,3:2:0:0:
18,95,177671,2,0,P|4:144|-1:194,1,101,6|0,0:3|3:0,0:0:0:0:
74,376,177987,1,6,3:3:0:0:
74,376,178066,1,0,3:0:0:0:
74,376,178145,2,0,P|88:327|93:277,1,101,2|6,3:2|0:3,0:0:0:0:
197,157,178382,1,0,3:0:0:0:
197,157,178461,6,0,P|201:207|216:255,1,101,8|6,0:3|0:3,0:0:0:0:
366,238,178777,1,2,3:2:0:0:
378,99,178934,2,0,P|332:78|283:66,1,101,6|0,0:3|3:0,0:0:0:0:
102,189,179250,1,6,3:3:0:0:
102,189,179329,1,0,3:0:0:0:
102,189,179408,2,0,P|151:177|196:156,1,101,2|6,3:2|0:3,0:0:0:0:
68,35,179724,6,0,B|52:135|52:135|95:187,1,151.5,10|0,3:3|0:0,0:0:0:0:
273,142,180040,6,0,P|201:77|124:132,1,181.799994451904,10|0,3:3|0:0,0:0:0:0:
196,156,180356,6,0,B|309:119|294:220|435:160,1,212.099993527222,10|0,3:3|0:0,0:0:0:0:
498,138,180671,6,0,B|412:118|412:118|449:302,1,242.4,10|0,3:3|0:0,0:0:0:0:
446,291,180987,5,6,3:2:0:0:
273,142,181145,1,6,0:3:0:0:
326,286,181303,2,0,P|282:273|215:264,1,101,10|6,0:2|0:3,0:0:0:0:
97,177,181619,2,0,P|141:164|208:155,1,101,2|4,3:2|0:3,0:0:0:0:
96,315,181934,1,10,0:2:0:0:
58,101,182092,1,6,3:3:0:0:
58,101,182171,1,0,3:0:0:0:
58,101,182250,6,0,P|74:178|81:228,1,101,2|4,3:2|0:3,0:0:0:0:
208,363,182566,2,0,P|216:313|227:263,1,101,10|6,0:2|0:3,0:0:0:0:
303,114,182882,2,0,P|376:92|442:209,1,202,2|10,3:2|0:2,0:0:0:0:
306,223,183356,1,6,0:3:0:0:
166,44,183513,6,0,B|137:98|191:111|140:183|140:183|173:158|221:173,1,202,2|8,3:2|0:2,0:0:0:0:
74,123,183987,1,6,0:3:0:0:
74,123,184145,2,0,P|50:192|146:269,1,202,2|8,3:2|0:2,0:0:0:0:
331,225,184619,2,0,L|342:297,1,50.5,6|2,0:3|0:2,0:0:0:0:
480,88,184777,5,2,3:2:0:0:
438,59,184856,1,2,0:0:0:0:
388,55,184934,1,6,0:3:0:0:
341,75,185013,1,2,0:2:0:0:
307,112,185092,1,10,0:2:0:0:
261,134,185171,1,2,0:0:0:0:
211,125,185250,1,6,0:3:0:0:
176,87,185329,1,2,0:0:0:0:
173,36,185408,1,2,3:2:0:0:
218,55,185487,1,2,0:2:0:0:
246,96,185566,1,6,0:3:0:0:
247,146,185645,1,2,0:2:0:0:
221,189,185724,1,10,0:2:0:0:
176,210,185803,1,2,0:2:0:0:
126,203,185882,1,6,0:3:0:0:
89,171,185961,1,2,0:2:0:0:
74,123,186040,5,2,3:2:0:0:
30,312,186198,1,6,0:3:0:0:
162,122,186356,1,10,0:2:0:0:
202,312,186513,1,6,0:3:0:0:
393,182,186671,2,0,L|288:205,1,101,2|4,3:2|0:3,0:0:0:0:
255,3,186987,2,0,L|278:108,1,101,10|6,0:2|0:3,0:0:0:0:
439,251,187303,6,0,P|476:203|469:153,1,101,2|4,3:2|0:3,0:0:0:0:
276,101,187619,1,10,0:2:0:0:
393,182,187777,1,6,0:3:0:0:
453,26,187934,2,0,L|332:40,1,101,2|4,3:2|0:3,0:0:0:0:
278,231,188250,1,10,0:2:0:0:
278,231,188408,1,6,0:3:0:0:
178,50,188566,5,2,3:2:0:0:
97,158,188724,1,4,0:3:0:0:
215,305,188882,1,10,0:2:0:0:
193,144,189040,1,4,0:3:0:0:
33,237,189198,1,2,3:2:0:0:
289,130,189356,1,4,0:3:0:0:
86,64,189513,1,10,0:2:0:0:
105,278,189671,1,4,0:3:0:0:
306,152,189829,5,2,3:2:0:0:
9,91,189987,1,4,0:3:0:0:
58,363,190145,1,10,0:2:0:0:
178,56,190303,2,0,L|180:132,1,50.5,4|0,3:3|3:3,0:3:0:0:
174,330,190461,1,2,3:2:0:0:
305,58,190619,1,4,3:3:0:0:
353,339,190777,1,10,0:2:0:0:
497,144,190934,1,4,3:3:0:0:
497,144,191013,1,0,3:0:0:0:
497,144,191092,6,0,B|446:125|446:125|384:147,1,101,6|6,3:2|0:3,0:0:0:0:
282,269,191408,2,0,L|408:238,1,101,10|6,0:2|0:3,0:0:0:0:
277,81,191724,2,0,L|151:50,1,101,2|4,3:2|0:3,0:0:0:0:
67,273,192040,1,10,0:2:0:0:
11,97,192198,1,6,0:3:0:0:
140,219,192356,6,0,P|157:278|132:338,1,101,2|4,3:2|0:3,0:0:0:0:
350,368,192671,2,0,P|340:318|357:271,1,101,10|6,0:2|0:3,0:0:0:0:
485,126,192987,2,0,B|386:114|386:196|263:163,1,202,2|10,3:2|0:2,0:0:0:0:
129,121,193461,1,6,0:3:0:0:
239,98,193619,6,0,B|175:68|175:68|158:221,1,202,2|8,3:2|0:2,0:0:0:0:
142,366,194092,1,6,0:3:0:0:
64,298,194250,2,0,P|117:254|283:251,1,202,2|10,3:2|0:2,0:0:0:0:
326,313,194724,2,0,L|306:373,1,50.5,6|0,3:3|0:0,0:0:0:0:
437,278,194882,6,0,L|415:152,1,101,0|4,3:0|0:3,0:0:0:0:
327,44,195198,2,0,L|309:143,1,101,10|6,0:2|3:3,0:0:0:0:
309,143,195434,1,0,3:0:0:0:
309,143,195513,1,2,3:2:0:0:
155,187,195671,1,6,0:3:0:0:
292,225,195829,1,10,0:2:0:0:
175,325,195987,1,6,0:3:0:0:
172,162,196145,5,2,3:2:0:0:
155,348,196303,1,6,0:3:0:0:
26,175,196461,1,10,0:2:0:0:
44,364,196619,1,6,0:3:0:0:
114,101,196777,2,0,P|165:76|235:95,1,101,0|4,3:0|0:3,0:0:0:0:
284,205,197013,1,0,3:0:0:0:
292,225,197092,2,0,L|274:338,1,101,10|6,0:2|0:3,0:0:0:0:
456,246,197408,6,0,L|440:146,1,101,2|4,3:2|3:3,0:0:0:0:
440,146,197645,1,0,3:0:0:0:
440,146,197724,1,10,3:2:0:0:
276,324,197882,1,6,0:3:0:0:
207,80,198040,2,0,B|179:124|179:124|191:180,1,101,2|4,3:2|0:3,0:0:0:0:
308,239,198277,1,0,3:0:0:0:
319,244,198356,2,0,B|347:200|347:200|335:144,1,101,8|6,0:2|0:3,0:0:0:0:
124,266,198671,5,10,0:3:0:0:
124,266,198750,1,0,3:0:0:0:
124,266,198829,2,0,L|61:274,1,50.5,4|0,3:3|3:0,0:0:0:0:
276,324,198987,1,10,0:3:0:0:
276,324,199066,1,0,3:0:0:0:
276,324,199145,2,0,L|339:332,1,50.5,4|0,3:3|3:0,0:0:0:0:
189,171,199303,1,10,0:3:0:0:
189,171,199382,1,0,3:0:0:0:
189,171,199461,2,0,L|126:179,1,50.5,4|0,3:3|3:0,0:0:0:0:
275,66,199619,1,10,0:3:0:0:
325,72,199697,1,0,3:0:0:0:
375,78,199776,1,4,3:3:0:0:
425,84,199855,1,0,3:0:0:0:
475,91,199934,6,0,L|491:213,1,101,10|4,0:3|3:3,0:0:0:0:
399,296,200171,1,0,3:0:0:0:
385,290,200250,2,0,L|369:168,1,101,10|4,0:2|0:3,0:0:0:0:
300,330,200566,1,0,3:0:0:0:
260,361,200645,1,0,3:0:0:0:
210,352,200724,1,4,3:3:0:0:
195,303,200803,1,0,3:0:0:0:
224,261,200882,1,8,0:2:0:0:
222,210,200961,1,0,3:0:0:0:
176,187,201040,1,4,3:3:0:0:
132,212,201119,1,0,3:0:0:0:
134,262,201198,6,0,P|81:281|1:296,1,107.733333333333,10|0,0:2|0:0,0:0:0:0:
36,218,201513,2,0,L|24:165,1,53.8666666666667,10|8,0:2|0:2,0:0:0:0:
58,94,201724,1,10,0:2:0:0:
58,94,201829,2,0,B|111:74|111:118|186:106,1,107.733333333333,10|0,0:2|0:0,0:0:0:0:
234,77,202145,2,0,L|243:143,1,53.8666666666667,8|10,0:2|0:2,0:0:0:0:
253,200,202356,1,8,0:2:0:0:
253,200,202461,5,10,0:2:0:0:
345,108,202671,1,8,0:2:0:0:
345,108,202777,1,10,0:2:0:0:
345,303,202987,1,8,0:2:0:0:
345,303,203092,1,10,0:2:0:0:
292,299,203197,1,8,0:2:0:0:
249,267,203302,1,8,0:2:0:0:
232,217,203408,2,0,P|240:303|242:349,1,107.733333333333,12|10,0:2|0:2,0:0:0:0:
109,340,203724,6,0,P|112:286|118:232,1,107.733333333333,14|0,0:2|0:0,0:0:0:0:
194,129,204040,2,0,P|230:122|256:135,1,53.8666666666667,10|8,0:2|0:2,0:0:0:0:
327,155,204250,1,10,0:2:0:0:
327,155,204356,2,0,P|324:95|278:49,1,107.733333333333,10|0,0:2|0:0,0:0:0:0:
166,57,204671,2,0,L|183:132,1,53.8666666666667,8|8,0:2|0:2,0:0:0:0:
106,166,204882,1,10,0:2:0:0:
106,166,204987,5,2,0:2:0:0:
55,300,205198,1,10,0:2:0:0:
55,300,205303,1,2,0:2:0:0:
251,250,205513,1,2,0:2:0:0:
251,250,205619,1,10,0:2:0:0:
181,263,205724,1,8,0:2:0:0:
194,333,205829,1,8,0:2:0:0:
264,320,205934,2,0,L|370:302,1,107.733333333333,8|8,0:2|0:2,0:0:0:0:
471,273,206250,6,0,P|422:212|352:204,1,107.733333333333,14|0,0:2|0:0,0:0:0:0:
317,122,206566,2,0,L|310:189,1,53.8666666666667,10|8,0:2|0:2,0:0:0:0:
251,250,206777,1,10,0:2:0:0:
251,250,206882,2,0,P|233:199|217:147,1,107.733333333333,10|0,0:2|0:0,0:0:0:0:
181,76,207198,2,0,P|155:67|129:60,1,53.8666666666667,8|8,0:2|0:2,0:0:0:0:
78,109,207408,1,10,0:2:0:0:
78,109,207513,6,0,L|97:226,1,107.733333333333,14|0,0:2|0:0,0:0:0:0:
149,300,207829,2,0,L|178:222,1,53.8666666666667,10|8,0:2|0:2,0:2:0:0:
217,147,208040,1,10,0:2:0:0:
217,147,208145,2,0,P|285:115|341:131,1,107.733333333333,10|0,0:2|0:0,0:0:0:0:
408,122,208461,2,0,P|354:122|309:93,1,107.733333333333,10|0,0:2|0:0,0:0:0:0:
227,32,208777,6,0,P|173:32|128:61,1,107.733333333333,14|0,0:2|0:0,0:0:0:0:
39,74,209092,2,0,P|93:74|138:103,1,107.733333333333,8|8,0:2|0:2,0:0:0:0:
164,172,209408,2,0,P|164:226|135:271,1,107.733333333333,8|0,0:2|0:0,0:0:0:0:
50,348,209724,1,10,0:2:0:0:
93,316,209829,1,8,0:2:0:0:
145,304,209934,1,10,0:2:0:0:
198,313,210040,6,0,P|251:320|324:321,1,107.733333333333,10|0,0:2|0:0,0:0:0:0:
352,235,210356,2,0,P|299:228|226:227,1,107.733333333333,8|8,0:2|0:2,0:0:0:0:
164,172,210671,2,0,P|192:144|234:130,1,53.8666666666667,8|8,0:2|0:2,0:0:0:0:
122,37,210882,2,0,P|132:75|123:118,1,53.8666666666667,8|10,0:2|0:2,0:0:0:0:
262,49,211092,2,0,P|223:38|190:9,1,53.8666666666667
165,193,211303,5,10,3:3:0:0:
165,193,211619,2,0,B|246:177|246:177|276:193|276:193|381:177,1,202,8|4,3:3|0:3,0:0:0:0:
431,48,212092,2,0,P|337:34|296:144,1,202,8|4,3:3|3:3,0:0:0:0:
464,207,212566,5,8,0:3:0:0:
464,207,212882,1,10,0:3:0:0:
455,219,213198,2,0,L|465:275,1,50.5,10|0,0:3|0:0,0:0:0:0:
378,346,213356,2,0,L|369:296,1,50.5,8|0,0:3|0:0,0:0:0:0:
279,192,213513,2,0,L|289:248,1,50.5,10|0,0:3|0:0,0:0:0:0:
224,364,213671,6,0,B|174:324|199:240|199:240|189:241|189:241|230:165|190:92,1,282.799991369629,6|6,3:2|0:3,0:0:0:0:
8,85,214145,2,0,P|85:157|152:155,1,141.399995684815,10|6,0:2|0:3,0:0:0:0:
297,108,214461,1,2,3:2:0:0:
83,33,214619,1,6,0:3:0:0:
37,262,214777,1,10,0:2:0:0:
225,154,214934,6,0,B|339:134|339:134|375:156|375:156|502:136,1,282.799991369629,6|6,0:3|0:3,0:0:0:0:
336,291,215408,2,0,L|196:267,1,141.399995684815,10|6,0:2|0:3,0:0:0:0:
37,262,215724,1,2,3:2:0:0:
246,133,215882,1,6,0:3:0:0:
37,262,216040,1,10,0:2:0:0:
189,71,216198,1,6,3:3:0:0:
239,48,216276,1,0,3:0:0:0:
295,57,216355,5,0,3:0:0:0:
332,218,216513,1,6,0:3:0:0:
460,105,216671,1,10,0:2:0:0:
423,266,216829,1,6,0:3:0:0:
246,133,216987,2,0,L|228:212,1,70.6999978424073,0|0,3:0|0:0,0:0:0:0:
186,363,217145,1,4,3:3:0:0:
186,363,217224,1,2,3:0:0:0:
186,363,217303,1,8,0:2:0:0:
369,183,217461,1,6,0:3:0:0:
118,306,217619,5,2,3:2:0:0:
369,183,217777,1,6,3:3:0:0:
420,175,217855,1,2,3:2:0:0:
472,168,217934,1,10,0:2:0:0:
304,298,218093,1,6,0:3:0:0:
166,182,218251,1,6,3:3:0:0:
113,173,218329,1,2,3:2:0:0:
62,167,218408,1,10,0:2:0:0:
294,20,218567,2,0,P|301:63|288:113,1,70.6999978424073,10|2,0:2|0:2,0:0:0:0:
178,62,218724,1,6,3:3:0:0:
178,62,218803,1,0,3:0:0:0:
178,62,218882,6,0,P|101:42|16:93,2,141.399995684815,2|4|10,3:2|0:3|0:2,0:0:0:0:
183,201,219356,2,0,P|173:285|169:352,1,141.399995684815,6|0,3:3|0:0,0:0:0:0:
335,364,219671,2,0,P|330:293|321:223,2,141.399995684815,6|10|6,3:3|3:2|3:3,3:0:0:0:
418,160,220145,5,2,3:2:0:0:
251,239,220303,1,4,0:3:0:0:
335,52,220461,5,10,0:2:0:0:
183,201,220619,1,4,3:3:0:0:
165,18,220777,5,10,0:2:0:0:
165,18,220856,1,0,3:0:0:0:
165,18,220934,1,4,3:3:0:0:
217,296,221092,1,10,0:2:0:0:
217,296,221171,1,0,3:0:0:0:
217,296,221250,1,4,3:3:0:0:
217,296,221329,1,0,3:0:0:0:
217,296,221408,6,0,P|263:302|314:302,1,90.8999972259522,0|0,3:0|0:0,0:0:0:0:
417,235,221724,6,0,B|254:199|310:313|130:265,1,282.799991369629,6|2,3:2|3:2,0:0:0:0:
125,235,222119,1,2,3:2:0:0:
121,223,222198,1,2,3:2:0:0:
249,22,222356,2,0,P|272:59|282:108,1,70.6999978424073,10|0,0:2|0:0,0:0:0:0:
263,173,222513,2,0,B|201:178|168:131|168:131|93:108|49:146|49:146|82:142|110:151,1,282.799991369629,2|4,3:2|3:3,0:0:0:0:
317,247,222987,5,10,0:3:0:0:
341,242,223065,1,0,3:0:0:0:
365,238,223144,1,0,3:0:0:0:
390,234,223223,1,0,3:0:0:0:
454,272,223303,5,10,0:3:0:0:
391,302,223382,1,8,0:3:0:0:
323,291,223460,1,8,0:3:0:0:
274,241,223540,1,8,0:3:0:0:
263,173,223618,1,10,0:3:0:0:
295,111,223697,1,8,0:3:0:0:
313,98,223777,6,0,P|395:74|448:78,1,121.19999630127,10|0,0:3|0:0,0:0:0:0:
260,381,224250,6,0,L|273:240,1,141.399995684815,14|6,0:2|0:3,0:0:0:0:
11,99,224566,2,0,L|24:239,1,141.399995684815,2|4,3:2|0:3,0:0:0:0:
273,240,224882,1,8,0:2:0:0:
235,79,225040,6,0,B|189:47|139:50|139:50|123:257,1,282.799991369629,6|6,0:3|0:3,0:0:0:0:
245,372,225513,2,0,P|278:294|261:211,1,141.399995684815,10|6,0:2|0:3,0:0:0:0:
25,240,225829,2,0,P|22:309|52:372,1,141.399995684815,2|4,3:2|0:3,0:0:0:0:
229,357,226145,1,8,0:2:0:0:
140,50,226303,1,6,3:3:0:0:
147,92,226382,1,0,3:0:0:0:
154,134,226461,5,0,3:0:0:0:
264,67,226619,1,6,0:3:0:0:
179,245,226777,1,10,0:2:0:0:
374,185,226934,1,4,0:3:0:0:
263,353,227092,2,0,B|329:323|329:323|417:338,1,141.399995684815,2|4,3:2|0:3,0:0:0:0:
163,273,227408,1,10,0:2:0:0:
347,82,227566,6,0,P|394:81|437:264,1,282.799991369629,6|6,0:3|0:3,0:0:0:0:
265,173,228040,1,10,0:2:0:0:
208,9,228198,1,6,0:3:0:0:
82,236,228356,2,0,B|145:203|196:268|196:268|201:257|201:257|269:306|339:246,1,282.799991369629,2|8,3:2|0:2,0:0:0:0:
364,104,228829,1,4,3:3:0:0:
364,104,228908,1,0,3:0:0:0:
364,104,228987,5,6,3:2:0:0:
394,311,229145,1,6,0:3:0:0:
394,311,229303,1,10,0:2:0:0:
512,109,229461,2,0,B|414:98|414:98|362:149|362:149|232:133,1,282.799991369629,6|6,3:3|3:3,0:0:0:0:
76,135,229934,2,0,P|61:150|77:135,1,70.6999978424073,10|0,0:2|0:0,0:0:0:0:
20,36,230092,6,0,P|38:126|53:334,1,282.799991369629,6|4,3:2|3:3,0:0:0:0:
53,316,230487,1,0,3:0:0:0:
53,316,230566,1,10,0:2:0:0:
221,334,230724,1,6,3:3:0:0:
76,135,230882,1,2,3:2:0:0:
205,197,231040,1,4,3:3:0:0:
250,188,231118,1,0,3:0:0:0:
295,195,231197,1,8,0:3:0:0:
335,217,231276,1,0,3:0:0:0:
376,237,231355,1,4,3:3:0:0:
421,243,231434,1,0,3:0:0:0:
467,237,231513,5,6,3:2:0:0:
334,74,231671,1,4,0:3:0:0:
245,355,231829,1,8,0:2:0:0:
51,165,231987,1,4,3:3:0:0:
51,165,232066,1,0,3:0:0:0:
51,165,232145,1,2,3:2:0:0:
205,197,232303,1,4,0:3:0:0:
51,355,232461,2,0,P|36:300|43:262,1,70.6999978424073,10|0,0:2|0:0,0:0:0:0:
147,92,232619,2,0,P|145:127|132:159,1,70.6999978424073,6|0,3:3|0:0,0:0:0:0:
0,225,232777,5,0,3:0:0:0:
164,67,232934,1,6,3:3:0:0:
164,67,233013,1,0,3:0:0:0:
164,67,233092,2,0,B|233:24|361:82|347:182|226:271|174:99|264:71|264:71|366:117|448:42,1,565.6,10|0,0:2|0:0,0:0:0:0:
185,218,240356,5,0,0:0:0:0:
200,227,240513,1,0,3:0:0:0:
68,244,240671,2,0,P|154:206|305:206,1,202,10|0,0:3|0:0,0:0:0:0:
370,195,241145,5,0,3:0:0:0:
370,195,241224,1,0,3:0:0:0:
370,195,241303,2,0,P|336:110|209:121,1,202,10|0,0:3|0:0,0:0:0:0:
204,312,241777,5,0,3:0:0:0:
204,312,241856,1,0,3:0:0:0:
204,312,241934,2,0,B|319:281|285:356|416:330,1,202,10|0,0:3|0:0,0:0:0:0:
449,108,242408,5,0,3:0:0:0:
449,108,242487,1,0,3:0:0:0:
449,108,242566,2,0,B|377:73|377:73|369:205,1,202,10|0,0:3|0:0,0:0:0:0:
286,279,242961,5,0,0:0:0:0:
271,281,243040,2,0,L|218:291,1,50.5,0|0,3:0|3:0,0:0:0:0:
98,283,243198,2,0,P|72:222|197:188,1,202,10|0,0:3|0:0,0:0:0:0:
261,89,243671,5,0,3:0:0:0:
261,89,243750,1,0,3:0:0:0:
261,89,243829,2,0,B|87:77|87:77|138:105,1,202,10|0,0:3|0:0,0:0:0:0:
436,84,244303,5,0,3:0:0:0:
436,84,244382,1,0,3:0:0:0:
436,84,244461,2,0,B|407:75|381:40|381:40|439:133|347:192|419:280,1,303,10|0,0:3|0:0,0:0:0:0:
327,291,245092,5,2,3:2:0:0:
311,278,245171,1,8,0:3:0:0:
262,262,245250,1,10,0:3:0:0:
189,278,245329,1,8,0:3:0:0:
143,353,245408,6,0,P|135:263|109:149,1,202,6|8,3:2|0:2,0:0:0:0:
57,77,245882,1,4,0:3:0:0:
24,185,246040,1,0,3:0:0:0:
47,57,246198,1,4,3:3:0:0:
104,240,246356,1,8,0:2:0:0:
287,183,246513,1,4,0:3:0:0:
230,0,246671,5,0,3:0:0:0:
110,154,246829,1,4,0:3:0:0:
287,183,246987,2,0,B|359:165|355:227|450:210,1,151.5,10|0,0:2|0:0,0:0:0:0:
510,241,247303,6,0,B|424:215|427:282|326:264,1,181.799994451904,2|0,3:2|0:0,0:0:0:0:
254,284,247619,2,0,P|305:344|373:340,1,141.399995684815,10|0,0:2|3:3,0:0:0:0:
363,344,247856,1,0,3:0:0:0:
363,344,247934,5,2,3:2:0:0:
179,330,248092,1,0,0:0:0:0:
447,186,248250,1,8,0:2:0:0:
208,207,248408,1,4,0:3:0:0:
400,80,248566,1,0,3:0:0:0:
363,361,248724,1,4,0:3:0:0:
315,140,248882,1,8,0:2:0:0:
179,330,249040,1,4,0:3:0:0:
196,136,249198,5,0,3:0:0:0:
196,136,249277,1,0,3:0:0:0:
196,136,249356,2,0,P|147:149|126:152,1,50.5,10|0,0:2|0:0,0:0:0:0:
51,144,249513,2,0,B|114:106|114:106|123:268,1,202,10|0,0:2|3:0,0:0:0:0:
179,330,249987,2,0,P|203:324|227:317,1,50.5,8|0,0:2|0:0,0:0:0:0:
361,195,250145,2,0,B|295:190|286:262|182:234,1,151.5,8|0,0:2|0:2,0:0:0:0:
194,226,250461,6,0,P|187:172|184:102,1,101,6|4,3:2|0:3,0:0:0:0:
341,23,250777,1,10,0:2:0:0:
372,47,250856,1,2,0:2:0:0:
381,85,250934,1,6,0:3:0:0:
361,120,251013,1,2,0:2:0:0:
325,139,251092,1,2,3:2:0:0:
302,172,251171,1,2,0:2:0:0:
298,212,251250,1,6,0:3:0:0:
317,247,251329,1,2,0:2:0:0:
352,267,251408,1,10,0:2:0:0:
390,254,251487,1,2,0:2:0:0:
408,218,251566,1,6,0:3:0:0:
436,189,251645,1,2,0:2:0:0:
476,186,251724,6,0,L|498:252,3,50.5,2|0|4|0,3:2|0:0|0:3|0:0,0:0:0:0:
458,68,252040,2,0,L|480:2,3,50.5,10|0|4|0,0:2|0:0|0:3|0:0,0:0:0:0:
325,139,252356,5,2,3:2:0:0:
293,114,252434,1,2,0:2:0:0:
252,112,252513,1,6,0:3:0:0:
217,133,252592,1,2,0:2:0:0:
186,173,252671,1,10,0:2:0:0:
138,190,252750,1,2,0:2:0:0:
81,167,252829,1,6,3:3:0:0:
55,111,252908,1,2,3:2:0:0:
76,43,252987,6,0,L|130:27,1,50.5,10|0,0:3|0:2,0:0:0:0:
293,18,253145,2,0,L|239:2,1,50.5,6|0,0:3|0:2,0:0:0:0:
146,128,253303,5,10,0:2:0:0:
138,190,253381,1,2,3:2:0:0:
130,253,253460,1,6,3:3:0:0:
122,315,253539,1,2,3:2:0:0:
115,378,253619,2,0,L|189:362,1,50.5,10|0,0:3|0:2,0:0:0:0:
307,270,253777,2,0,L|257:259,1,50.5,6|0,3:3|0:2,0:0:0:0:
436,335,253934,5,10,0:2:0:0:
450,274,254012,1,2,3:2:0:0:
432,214,254091,1,6,3:3:0:0:
422,152,254170,1,2,3:2:0:0:
442,93,254250,6,0,P|450:64|463:25,1,50.5,10|0,0:3|0:2,0:0:0:0:
310,90,254408,2,0,P|317:114|324:138,1,50.5,6|0,0:3|0:2,0:0:0:0:
226,15,254565,5,10,0:2:0:0:
185,69,254644,1,2,3:2:0:0:
186,137,254724,2,0,P|219:180|241:195,1,50.5,6|0,3:3|0:2,0:0:0:0:
270,315,254882,5,10,0:3:0:0:
219,351,254960,1,2,3:2:0:0:
157,363,255039,1,6,3:3:0:0:
96,348,255118,1,2,3:2:0:0:
47,309,255197,1,10,0:2:0:0:
19,253,255276,1,2,3:2:0:0:
17,190,255355,1,6,3:3:0:0:
41,132,255434,1,2,3:2:0:0:
87,90,255513,6,0,P|170:69|217:72,1,101,10|4,0:3|0:3,0:0:0:0:
313,110,255829,1,10,0:2:0:0:
115,224,255987,2,0,B|249:224|179:298|322:292,1,202,14|6,3:3|3:3,0:0:0:0:
451,89,256461,1,10,0:2:0:0:
451,89,256540,1,0,3:0:0:0:
451,89,256619,1,4,3:3:0:0:
451,89,256698,1,0,3:0:0:0:
451,89,256777,6,0,P|461:154|468:219,1,101,10|6,0:3|0:3,0:0:0:0:
413,316,257092,1,10,0:2:0:0:
313,110,257250,2,0,P|269:63|149:99,1,202,14|6,3:3|3:3,0:0:0:0:
185,172,257645,1,0,3:0:0:0:
185,172,257724,2,0,L|249:139,1,50.5,8|0,0:2|0:0,0:0:0:0:
76,70,257882,2,0,L|64:137,1,50.5,4|0,3:3|0:0,0:0:0:0:
40,258,258040,5,14,0:3:0:0:
161,160,258198,1,6,0:3:0:0:
124,384,258356,1,2,3:0:0:0:
245,286,258513,2,0,B|306:311|306:311|378:269|354:157,1,202,14|6,3:3|3:3,0:0:0:0:
345,52,258987,1,10,0:2:0:0:
288,60,259065,1,0,3:0:0:0:
232,69,259144,1,4,3:3:0:0:
175,78,259223,1,0,3:0:0:0:
119,86,259303,6,0,L|43:98,2,50.5,10|2|6,0:0|0:2|0:3,0:0:0:0:
369,71,259619,1,10,0:2:0:0:
149,170,259777,2,0,L|130:273,1,101,6|0,3:3|0:0,0:0:0:0:
353,355,260092,2,0,L|334:255,1,101,6|10,3:3|0:2,0:0:0:0:
355,176,260329,1,0,3:0:0:0:
361,163,260408,6,0,P|410:142|463:146,2,101,6|0|6,3:2|0:0|3:3,0:0:0:0:
195,341,260882,2,0,P|146:362|93:358,1,101,10|0,0:2|0:0,0:0:0:0:
99,359,261119,1,0,3:0:0:0:
99,359,261198,1,0,3:0:0:0:
255,83,261356,1,2,3:2:0:0:
332,337,261513,1,10,0:2:0:0:
332,337,261592,1,0,3:0:0:0:
332,337,261671,1,0,3:0:0:0:
1,183,261829,6,0,B|65:200|125:146|125:146|124:155|124:155|173:123|242:150|242:150|199:133|167:107|163:24|216:-29|312:-5|329:42|336:92|303:127,1,606,6|2,3:2|0:2,0:0:0:0:
317,135,263092,6,0,L|385:118,1,70.6999978424073,2|2,3:2|0:2,0:0:0:0:
404,128,263408,1,2,0:2:0:0:
437,175,263566,1,2,0:2:0:0:
424,253,263724,1,0,0:2:0:0:
339,291,263882,1,2,0:2:0:0:
259,218,264040,2,0,L|191:201,1,70.6999978424073,2|2,0:2|0:2,0:0:0:0:
179,211,264356,5,0,0:2:0:0:
141,150,264513,1,2,0:2:0:0:
87,230,264671,1,2,0:2:0:0:
129,121,264829,1,2,0:2:0:0:
136,294,264987,2,0,L|225:315,1,70.6999978424073,2|0,0:2|0:2,0:0:0:0:
338,182,265303,2,0,L|249:203,1,70.6999978424073,2|0,0:2|0:2,0:0:0:0:
255,184,265619,5,2,3:2:0:0:
258,131,265777,1,0,0:2:0:0:
317,80,265934,1,2,0:2:0:0:
401,81,266092,1,0,0:2:0:0:
469,148,266250,2,0,L|475:219,1,70.6999978424073,2|0,0:2|0:2,0:0:0:0:
445,258,266566,2,0,L|451:187,1,70.6999978424073,2|2,0:2|0:2,0:0:0:0:
362,165,266882,6,0,L|368:236,1,70.6999978424073,0|2,0:2|0:2,0:0:0:0:
283,325,267198,2,0,L|289:254,1,70.6999978424073,0|2,0:2|0:2,0:0:0:0:
229,160,267513,2,0,P|171:140|138:148,1,70.6999978424073,2|0,0:2|0:2,0:0:0:0:
89,255,267829,2,0,P|124:252|154:235,1,70.6999978424073,2|0,0:2|0:2,0:0:0:0:
52,27,268145,6,0,L|65:104,1,70.6999978424073,2|2,3:2|0:2,0:0:0:0:
77,109,268461,1,2,0:2:0:0:
137,56,268619,1,2,0:2:0:0:
163,140,268777,1,0,0:2:0:0:
153,31,268934,1,2,0:2:0:0:
149,166,269092,2,0,L|234:177,1,70.6999978424073,2|2,0:2|0:2,0:0:0:0:
299,79,269408,6,0,L|214:90,1,70.6999978424073,2|0,0:2|0:2,0:0:0:0:
301,235,269724,2,0,L|290:150,1,70.6999978424073,2|0,0:2|0:2,0:0:0:0:
361,137,270040,2,0,L|370:207,1,70.6999978424073,2|0,0:2|0:2,0:0:0:0:
444,219,270356,2,0,L|434:148,1,70.6999978424073,2|0,0:2|0:2,0:0:0:0:
506,246,270671,6,0,B|433:241|446:290|363:283,1,141.399995684815,2|2,3:2|0:2,0:0:0:0:
280,310,271145,1,2,0:0:0:0:
280,310,271303,2,0,P|225:322|127:282,1,141.399995684815,2|2,3:2|0:2,0:0:0:0:
124,213,271777,1,2,0:0:0:0:
124,213,271934,6,0,P|133:147|135:39,1,141.399995684815,2|0,3:2|0:0,0:0:0:0:
220,25,272408,1,2,0:0:0:0:
220,25,272566,2,0,P|222:95|232:165,1,141.399995684815,2|0,3:2|0:0,0:0:0:0:
248,185,272987,2,0,L|312:164,1,47.1333318949382,2|2,0:0|0:0,0:0:0:0:
444,102,273198,6,0,L|281:85,2,151.5,2|2|0,3:2|0:2|0:0,0:0:0:0:
414,220,274303,5,2,0:0:0:0:
414,220,274382,1,2,0:0:0:0:
414,220,274461,2,0,L|512:212,2,90.8999972259522,10|2|2,0:3|0:2|0:2,0:0:0:0:
358,286,275724,6,0,L|369:335,1,50.5,10|0,0:3|3:0,0:0:0:0:
275,381,275882,2,0,L|264:332,1,50.5,10|0,0:3|3:0,0:0:0:0:
328,146,276040,6,0,P|346:179|342:212,1,60.5999981506348,10|0,0:3|3:0,0:0:0:0:
198,293,276198,2,0,P|180:260|184:227,1,60.5999981506348,10|0,0:3|3:0,0:0:0:0:
331,21,276356,6,0,P|373:46|384:84,1,70.6999978424073,10|0,0:3|3:0,0:0:0:0:
99,238,276513,2,0,P|86:190|106:155,1,70.6999978424073,10|0,0:3|3:0,0:0:0:0:
439,8,276671,6,0,P|456:40|450:109,1,80.8,10|0,0:3|3:0,0:0:0:0:
16,159,276829,1,10,0:3:0:0:
97,82,276987,5,0,3:0:0:0:
97,82,277145,1,2,3:2:0:0:
174,105,277303,2,0,L|234:91,1,60.5999981506348,10|0,0:2|3:0,0:0:0:0:
299,120,277619,1,10,0:2:0:0:
363,157,277777,2,0,L|422:143,1,60.5999981506348,2|0,3:2|0:0,0:0:0:0:
320,260,278092,5,2,3:2:0:0:
320,260,278171,1,0,3:0:0:0:
320,260,278250,2,0,L|325:282,7,15.1499995376587,10|0|0|0|0|0|0|0,0:2|0:0|3:0|0:0|3:0|0:0|3:0|0:0,0:0:0:0:
229,186,278566,6,0,L|235:156,7,25.25,10|0|0|0|0|0|0|0,0:2|0:0|3:0|0:0|3:0|0:0|3:0|0:0,0:0:0:0:
186,265,278882,5,10,0:2:0:0:
174,278,278961,1,8,0:3:0:0:
138,298,279040,1,8,0:3:0:0:
71,292,279119,1,8,0:3:0:0:
24,239,279198,1,10,0:3:0:0:
25,154,279277,1,8,0:3:0:0:
100,88,279356,6,0,B|279:71|191:174|383:157,1,282.799991369629,6|6,3:2|0:3,0:0:0:0:
510,155,279829,2,0,P|488:233|477:301,1,141.399995684815,10|6,0:2|0:3,0:0:0:0:
315,54,280145,1,2,3:2:0:0:
397,265,280303,1,6,0:3:0:0:
229,186,280461,1,10,0:2:0:0:
286,384,280619,6,0,B|295:276|295:276|254:221|254:221|271:108,1,282.799991369629,6|6,0:3|0:3,0:0:0:0:
137,11,281092,2,0,P|89:69|90:149,1,141.399995684815,10|6,0:2|0:3,0:0:0:0:
229,186,281408,1,2,3:2:0:0:
12,260,281566,1,6,0:3:0:0:
207,306,281724,1,10,0:2:0:0:
8,142,281882,1,6,3:3:0:0:
4,102,281961,1,0,3:0:0:0:
0,62,282040,5,0,3:0:0:0:
36,283,282198,1,6,0:3:0:0:
127,87,282356,1,10,0:2:0:0:
207,306,282513,1,6,0:3:0:0:
358,138,282671,2,0,P|360:181|359:217,1,70.6999978424073,0|0,3:0|0:0,0:0:0:0:
354,372,282828,1,4,3:3:0:0:
354,372,282908,1,0,3:0:0:0:
354,372,282987,1,8,0:2:0:0:
278,174,283145,1,6,0:3:0:0:
507,364,283303,5,2,3:2:0:0:
315,298,283461,1,6,3:3:0:0:
273,307,283540,1,2,3:2:0:0:
231,316,283619,1,10,0:2:0:0:
166,161,283777,1,6,0:3:0:0:
394,119,283934,1,6,3:3:0:0:
437,128,284013,1,2,3:2:0:0:
479,137,284092,1,10,0:2:0:0:
512,14,284250,2,0,P|470:3|431:-1,1,70.6999978424073,10|2,0:2|0:2,0:0:0:0:
323,81,284408,1,6,3:3:0:0:
323,81,284487,1,0,3:0:0:0:
323,81,284566,6,0,B|167:119|213:14|50:40,1,282.799991369629,2|10,3:2|0:2,0:0:0:0:
69,256,285040,2,0,P|109:192|114:105,1,141.399995684815,6|0,3:3|0:0,0:0:0:0:
223,47,285356,2,0,P|233:116|271:175,2,141.399995684815,6|10|6,3:3|3:2|3:3,3:0:0:0:
459,3,285829,5,2,3:2:0:0:
323,81,285987,1,4,0:3:0:0:
486,152,286145,5,10,0:2:0:0:
307,234,286303,2,0,L|395:258,1,70.6999978424073
512,290,286461,5,10,0:2:0:0:
512,290,286540,1,0,3:0:0:0:
512,290,286619,1,4,3:3:0:0:
201,301,286777,1,10,0:2:0:0:
201,301,286856,1,0,3:0:0:0:
201,301,286934,1,4,3:3:0:0:
201,301,287013,1,0,3:0:0:0:
201,301,287092,6,0,P|179:260|159:196,1,90.8999972259522,0|0,3:0|0:0,0:0:0:0:
134,121,287408,6,0,B|309:47|232:190|435:100,1,282.799991369629,6|2,3:2|3:2,0:0:0:0:
439,88,287803,1,0,3:0:0:0:
455,73,287882,1,2,3:2:0:0:
284,2,288040,2,0,P|271:47|266:82,1,70.6999978424073,10|0,0:2|0:0,0:0:0:0:
251,230,288198,6,0,B|19:268|19:268|75:243,1,282.799991369629,2|4,3:2|3:3,0:0:0:0:
353,288,288671,1,10,0:3:0:0:
363,285,288750,1,0,3:0:0:0:
373,282,288829,1,0,3:0:0:0:
383,279,288908,1,0,3:0:0:0:
438,232,288987,5,10,0:3:0:0:
469,169,289065,1,8,0:3:0:0:
461,100,289144,1,8,0:3:0:0:
416,46,289223,1,8,0:3:0:0:
350,26,289302,1,10,0:3:0:0:
283,46,289381,1,8,0:3:0:0:
273,66,289461,6,0,B|230:66|230:66|206:76|206:76|139:76,1,121.19999630127,10|0,0:3|0:0,0:0:0:0:
22,246,289934,6,0,P|24:319|84:378,1,141.399995684815,14|6,0:2|0:3,0:0:0:0:
241,365,290250,2,0,L|226:281,1,70.6999978424073,10|0,0:3|0:0,0:0:0:0:
348,144,290408,2,0,L|335:213,1,70.6999978424073,14|0,0:3|0:0,0:0:0:0:
409,351,290566,2,0,L|478:363,1,70.6999978424073,10|0,0:3|0:0,0:0:0:0:
458,169,290724,6,0,P|433:78|240:114,1,282.799991369629,6|6,3:2|0:3,0:0:0:0:
206,209,291198,2,0,P|148:226|57:229,1,141.399995684815,10|6,0:2|0:3,0:0:0:0:
63,41,291513,2,0,P|88:66|106:114,1,70.6999978424073,10|0,0:3|0:0,0:0:0:0:
180,289,291671,2,0,P|195:257|219:232,1,70.6999978424073,14|0,0:3|0:0,0:0:0:0:
369,157,291829,1,10,0:3:0:0:
125,113,291987,1,6,3:3:0:0:
98,350,292145,6,0,B|250:265|252:373|393:310,1,282.799991369629,6|8,3:2|0:2,0:0:0:0:
405,292,292540,1,0,0:0:0:0:
414,283,292619,1,4,0:3:0:0:
267,69,292777,2,0,L|252:144,1,70.6999978424073,10|0,3:3|0:0,0:0:0:0:
118,237,292934,2,0,L|25:245,1,70.6999978424073,14|0,0:3|0:0,0:0:0:0:
111,43,293092,2,0,L|126:118,1,70.6999978424073,10|0,0:3|0:0,0:0:0:0:
216,229,293250,6,0,B|325:210|325:210|368:247|368:247|504:213,1,282.799991369629,6|4,3:2|0:3,0:0:0:0:
305,109,293724,1,8,0:2:0:0:
233,318,293882,1,4,0:3:0:0:
143,28,294040,1,0,3:0:0:0:
195,248,294198,1,4,0:3:0:0:
58,129,294356,1,8,0:2:0:0:
13,318,294513,1,4,3:3:0:0:
43,333,294592,1,0,3:0:0:0:
76,333,294671,5,2,3:2:0:0:
2,223,294829,1,6,0:3:0:0:
186,170,294987,1,10,0:2:0:0:
4,46,295145,2,0,B|135:21|122:117|287:69,1,282.799991369629,6|6,0:3|3:3,0:0:0:0:
309,44,295540,1,0,3:0:0:0:
320,31,295619,1,10,0:2:0:0:
433,11,295777,6,0,P|414:95|404:295,1,282.799991369629,6|4,0:3|0:3,0:0:0:0:
296,181,296250,2,0,P|224:145|153:163,1,141.399995684815,10|6,0:2|0:3,0:0:0:0:
13,318,296566,2,0,P|81:326|142:292,1,141.399995684815,2|6,3:2|0:3,0:0:0:0:
86,20,296882,2,0,P|68:63|57:99,1,70.6999978424073,10|0,0:2|0:0,0:0:0:0:
166,155,297040,2,0,P|183:198|201:231,1,70.6999978424073,6|0,3:3|0:0,0:0:0:0:
331,252,297198,5,2,3:2:0:0:
240,26,297356,1,4,0:3:0:0:
14,117,297513,1,8,0:2:0:0:
105,343,297671,1,4,0:3:0:0:
340,223,297829,5,2,3:2:0:0:
4,145,297987,1,4,0:3:0:0:
211,16,298144,1,10,0:2:0:0:
133,352,298302,1,6,3:3:0:0:
133,352,298382,1,0,3:0:0:0:
133,352,298461,6,0,L|216:330,1,70.6999978424073,8|0,0:0|0:0,0:0:0:0:
326,124,298619,2,0,P|348:171|355:215,1,70.6999978424073,6|0,3:3|0:0,0:0:0:0:
386,349,298777,2,0,P|395:315|412:283,1,70.6999978424073,10|0,0:2|0:0,0:0:0:0:
512,171,298934,1,4,0:3:0:0:
377,48,299092,1,8,3:2:0:0:
371,45,299171,1,0,3:0:0:0:
365,42,299250,1,4,3:3:0:0:
312,39,299328,1,0,3:0:0:0:
264,57,299407,1,8,0:2:0:0:
223,90,299486,1,8,0:3:0:0:
183,123,299565,1,12,3:3:0:0:
136,145,299644,1,8,3:3:0:0:
84,153,299723,5,10,3:3:0:0:
340,223,299882,1,2,0:2:0:0:
340,223,300040,1,2,0:2:0:0:
117,346,300198,2,0,B|176:344|226:377|226:377|174:304|171:201,1,282.799991369629,10|2,0:3|3:2,0:0:0:0:
61,81,300671,2,0,P|30:97|9:141,1,70.6999978424073,2|0,3:2|0:0,0:0:0:0:
66,224,300829,6,0,B|230:159|195:268|343:221,1,282.799991369629,10|0,0:3|3:0,0:0:0:0:
376,194,301224,1,0,3:0:0:0:
387,181,301303,1,2,3:3:0:0:
252,51,301461,1,2,3:2:0:0:
199,291,301619,1,2,3:2:0:0:
466,245,301777,1,0,3:0:0:0:
491,206,301855,1,0,3:0:0:0:
497,160,301934,1,8,0:3:0:0:
483,116,302013,1,0,3:0:0:0:
452,82,302092,1,0,3:0:0:0:
409,65,302171,1,0,3:0:0:0:
363,68,302250,5,6,3:2:0:0:
120,151,302408,1,4,0:3:0:0:
295,193,302566,1,8,0:2:0:0:
62,289,302724,1,4,3:3:0:0:
62,289,302803,1,0,3:0:0:0:
62,289,302882,1,2,3:2:0:0:
233,141,303040,1,4,0:3:0:0:
256,363,303198,2,0,L|330:347,1,70.6999978424073,10|0,0:2|0:0,0:0:0:0:
512,291,303356,2,0,L|438:275,1,70.6999978424073,6|0,3:3|0:0,0:0:0:0:
255,41,303513,5,0,3:0:0:0:
0,161,303671,1,2,3:2:0:0:
0,161,303750,1,0,3:0:0:0:
0,161,303829,2,0,B|82:106|162:182|162:182|234:141|234:141|301:267|421:206,1,484.8,10|2,0:2|0:2,0:0:0:0:
140,24,306040,6,0,B|61:61|45:174|148:234|207:204|236:175|236:175|178:281|234:374|343:431|413:392|482:346|536:278|496:178|447:135,1,908.999972259522,2|0,0:0|0:0,0:0:0:0:
314,291,308566,6,0,B|177:260|205:343|75:323,1,242.399992602539,6|0,3:2|3:0,0:0:0:0:
13,95,309040,1,4,0:3:0:0:
111,227,309198,1,0,3:0:0:0:
161,21,309356,1,4,0:3:0:0:
128,204,309513,2,0,L|207:188,1,60.5999981506348,2|0,3:2|0:0,0:0:0:0:
375,131,309671,6,0,P|331:92|246:92,1,121.19999630127,6|2,0:3|3:2,0:0:0:0:
23,250,309987,2,0,P|82:242|127:203,1,121.19999630127,6|0,0:3|3:0,0:0:0:0:
148,41,310303,1,6,0:3:0:0:
278,261,310461,1,0,3:0:0:0:
284,222,310540,1,0,3:0:0:0:
290,183,310619,1,6,3:3:0:0:
130,359,310777,1,0,3:0:0:0:
190,352,310855,1,0,3:0:0:0:
250,346,310934,1,6,3:3:0:0:
310,339,311013,1,0,3:0:0:0:
371,333,311092,5,2,3:2:0:0:
47,269,311250,1,6,0:3:0:0:
375,206,311408,1,8,0:2:0:0:
35,170,311566,1,4,0:3:0:0:
363,107,311724,1,2,3:2:0:0:
23,71,311882,1,6,0:3:0:0:
351,8,312040,2,0,L|283:24,1,60.5999981506348,8|0,0:0|3:0,0:0:0:0:
148,41,312198,1,6,3:3:0:0:
378,122,312356,6,0,L|431:110,2,30.2999990753174,0|0|0,3:0|3:0|3:0,3:0:0:0:
173,124,312513,2,0,L|105:140,1,60.5999981506348,6|0,0:3|0:0,0:0:0:0:
407,194,312671,2,0,L|460:182,2,30.2999990753174,10|0|0,3:0|3:0|3:0,3:0:0:0:
198,197,312829,2,0,L|130:213,1,60.5999981506348,6|0,3:3|0:0,3:0:0:0:
440,265,312987,2,0,L|498:251,1,60.5999981506348,10|0,3:3|3:0,3:0:0:0:
226,265,313145,2,0,L|167:278,1,60.5999981506348,14|0,3:3|0:0,3:0:0:0:
328,352,313302,1,10,3:3:0:0:
357,355,313381,1,8,3:3:0:0:
386,358,313460,1,14,3:3:0:0:
415,361,313539,1,8,3:3:0:0:
444,363,313619,5,10,0:3:0:0:
457,286,313934,1,2,0:2:0:0:
470,209,314250,1,2,0:2:0:0:
483,132,314566,1,2,0:2:0:0:
387,238,314724,6,0,B|291:204|304:269|209:252,1,181.799994451904,10|0,0:3|0:0,0:0:0:0:
148,165,315040,6,0,P|226:111|331:178,1,196.949990984345,10|0,0:3|0:0,0:0:0:0:
184,273,315356,6,0,B|11:250|11:250|51:232,1,212.099993527222,10|0,0:3|0:0,0:0:0:0:
239,194,315671,6,0,P|282:283|205:370,1,227.2500086689,10|0,0:3|0:0,0:0:0:0:
75,339,315987,5,10,0:3:0:0:
75,339,316303,5,10,0:2:0:0:
184,273,316461,1,10,0:2:0:0:
320,362,316619,1,10,0:2:0:0:
408,217,316777,2,0,L|421:273,1,50.5,10|0,0:2|3:0,0:0:0:0:
501,366,316934,2,0,L|512:316,1,50.5,10|0,0:2|3:0,0:0:0:0:
510,141,317092,2,0,L|420:124,1,50.5,10|0,0:2|3:0,0:0:0:0:
255,102,317250,5,14,0:2:0:0:
