osu file format v14

[General]
AudioFilename: audio.mp3
AudioLeadIn: 0
PreviewTime: 43150
Countdown: 0
SampleSet: Normal
StackLeniency: 0.7
Mode: 1
LetterboxInBreaks: 0
WidescreenStoryboard: 0

[Editor]
Bookmarks: 64361,65186,85131,85543
DistanceSpacing: 0.9
BeatDivisor: 4
GridSize: 4
TimelineZoom: 2.199998

[Metadata]
Title:STARTING NOW!
TitleUnicode:STARTING NOW!
Artist:Mizuki Nana
ArtistUnicode:水樹 奈々
Creator:ShogunMoon
Version:Yuno's Inner Oni
Source:この美術部には問題がある!
Tags:Kono Bijutsubu ni wa Mondai ga Aru! opening anime tv size op dtm9_nowa kagetsu shirakai kacha icontrol world_fraction [-Yuno-] このび Konobi 藤田卓也 Fujita Takuya 藤田淳平 Fujita Junpei Elements Garden NEOGENE CREATION
BeatmapID:1064913
BeatmapSetID:481570

[Difficulty]
HPDrainRate:6
CircleSize:2
OverallDifficulty:6
ApproachRate:10
SliderMultiplier:1.4
SliderTickRate:1

[Events]
//Background and Video events
0,0,"1366x768.jpg",0,25
//Break Periods
//Storyboard Layer 0 (Background)
//Storyboard Layer 1 (Fail)
//Storyboard Layer 2 (Pass)
//Storyboard Layer 3 (Foreground)
//Storyboard Sound Samples

[TimingPoints]
1217,371.517027863777,4,1,0,70,1,0
1960,329.67032967033,4,1,0,70,1,0
1960,-111.111111111111,4,1,0,70,0,0
2289,289.855072463768,4,1,0,70,1,0
2289,-121.951219512195,4,1,0,70,0,0
2433,314.13612565445,4,1,0,70,1,0
2433,-112.359550561798,4,1,0,70,0,0
2904,335.195530726257,4,1,0,70,1,0
2904,-103.092783505155,4,1,0,70,0,0
3574,346.820809248555,4,1,0,70,1,0
3574,-95.2380952380952,4,1,0,70,0,0
3920,329.67032967033,4,1,0,70,1,0
32930,-133.333333333333,4,1,0,70,0,0
38205,-100,4,1,0,70,0,0
43315,-100,4,1,0,70,0,1
54029,-100,4,1,0,70,0,0
59304,-100,4,1,0,70,0,1
61694,-100,4,1,0,70,0,0
61777,-100,4,1,0,70,0,1
72491,-100,4,1,0,70,0,0

[HitObjects]
256,192,1217,5,0,0:0:0:0:
256,192,1960,1,0,0:0:0:0:
256,192,2289,1,0,0:0:0:0:
256,192,2433,1,8,0:0:0:0:
256,192,2747,1,0,0:0:0:0:
256,192,2904,1,8,0:0:0:0:
256,192,3071,1,0,0:0:0:0:
256,192,3239,1,8,0:0:0:0:
256,192,3574,1,0,0:0:0:0:
256,192,3747,1,0,0:0:0:0:
256,192,3920,1,0,0:0:0:0:
256,192,4579,1,0,0:0:0:0:
256,192,4909,1,0,0:0:0:0:
256,192,5074,1,8,0:0:0:0:
256,192,5403,1,0,0:0:0:0:
256,192,5568,1,8,0:0:0:0:
256,192,5733,1,8,0:0:0:0:
256,192,5898,1,0,0:0:0:0:
256,192,6228,1,0,0:0:0:0:
256,192,6392,1,0,0:0:0:0:
256,192,6557,1,4,0:0:0:0:
256,192,6887,1,0,0:0:0:0:
256,192,7217,1,8,0:0:0:0:
256,192,7381,1,0,0:0:0:0:
256,192,7546,1,0,0:0:0:0:
256,192,7711,1,0,0:0:0:0:
256,192,8041,1,0,0:0:0:0:
256,192,8206,1,8,0:0:0:0:
256,192,8370,1,0,0:0:0:0:
256,192,8535,1,8,0:0:0:0:
256,192,8700,1,0,0:0:0:0:
256,192,8783,1,0,0:0:0:0:
256,192,8865,1,0,0:0:0:0:
256,192,9030,1,0,0:0:0:0:
256,192,9195,1,4,0:0:0:0:
256,192,9524,1,0,0:0:0:0:
256,192,9689,1,0,0:0:0:0:
256,192,9854,1,8,0:0:0:0:
256,192,10019,1,0,0:0:0:0:
256,192,10348,1,0,0:0:0:0:
256,192,10678,1,0,0:0:0:0:
256,192,10843,1,8,0:0:0:0:
256,192,11008,1,8,0:0:0:0:
256,192,11090,1,8,0:0:0:0:
256,192,11173,1,0,0:0:0:0:
256,192,11337,1,0,0:0:0:0:
256,192,11420,1,0,0:0:0:0:
256,192,11502,1,0,0:0:0:0:
256,192,11667,1,0,0:0:0:0:
256,192,11832,1,0,0:0:0:0:
256,192,12162,1,8,0:0:0:0:
256,192,12491,1,0,0:0:0:0:
256,192,12656,1,0,0:0:0:0:
256,192,12821,1,8,0:0:0:0:
256,192,13151,1,0,0:0:0:0:
256,192,13480,1,8,0:0:0:0:
256,192,13810,1,0,0:0:0:0:
256,192,13975,1,8,0:0:0:0:
256,192,14140,1,8,0:0:0:0:
256,192,14469,1,0,0:0:0:0:
256,192,14799,1,8,0:0:0:0:
256,192,15129,1,0,0:0:0:0:
256,192,15293,1,0,0:0:0:0:
256,192,15458,1,8,0:0:0:0:
256,192,15788,1,0,0:0:0:0:
256,192,16118,1,8,0:0:0:0:
256,192,16447,1,0,0:0:0:0:
256,192,16612,1,8,0:0:0:0:
256,192,16777,1,8,0:0:0:0:
256,192,17107,1,0,0:0:0:0:
256,192,17436,1,8,0:0:0:0:
256,192,17766,1,0,0:0:0:0:
256,192,17931,1,0,0:0:0:0:
256,192,18096,1,8,0:0:0:0:
256,192,18425,1,0,0:0:0:0:
256,192,18755,1,8,0:0:0:0:
256,192,18920,1,0,0:0:0:0:
256,192,19250,1,0,0:0:0:0:
256,192,19414,1,8,0:0:0:0:
256,192,19579,1,0,0:0:0:0:
256,192,19909,1,8,0:0:0:0:
256,192,20239,1,0,0:0:0:0:
256,192,20321,1,0,0:0:0:0:
256,192,20403,1,8,0:0:0:0:
256,192,20568,1,8,0:0:0:0:
256,192,20733,1,0,0:0:0:0:
256,192,20898,1,8,0:0:0:0:
256,192,21063,1,0,0:0:0:0:
256,192,21228,1,8,0:0:0:0:
256,192,21310,1,8,0:0:0:0:
256,192,21392,1,8,0:0:0:0:
256,192,21475,1,8,0:0:0:0:
256,192,21557,1,8,0:0:0:0:
256,192,21640,1,8,0:0:0:0:
256,192,21722,1,0,0:0:0:0:
256,192,21804,1,0,0:0:0:0:
256,192,21887,1,0,0:0:0:0:
256,192,21969,1,0,0:0:0:0:
256,192,22052,1,8,0:0:0:0:
256,192,22217,1,4,0:0:0:0:
256,192,22546,1,0,0:0:0:0:
256,192,22711,1,8,0:0:0:0:
256,192,22876,1,0,0:0:0:0:
256,192,22958,1,0,0:0:0:0:
256,192,23041,1,0,0:0:0:0:
256,192,23206,1,0,0:0:0:0:
256,192,23370,1,8,0:0:0:0:
256,192,23700,1,0,0:0:0:0:
256,192,23865,1,0,0:0:0:0:
256,192,24030,1,8,0:0:0:0:
256,192,24195,1,0,0:0:0:0:
256,192,24277,1,0,0:0:0:0:
256,192,24359,1,0,0:0:0:0:
256,192,24524,1,0,0:0:0:0:
256,192,24689,1,8,0:0:0:0:
256,192,24854,1,8,0:0:0:0:
256,192,24936,1,0,0:0:0:0:
256,192,25019,1,0,0:0:0:0:
256,192,25348,1,8,0:0:0:0:
256,192,25678,1,0,0:0:0:0:
256,192,25843,1,0,0:0:0:0:
256,192,26008,1,8,0:0:0:0:
256,192,26337,1,0,0:0:0:0:
256,192,26502,1,0,0:0:0:0:
256,192,26667,1,8,0:0:0:0:
256,192,26832,1,8,0:0:0:0:
256,192,26914,1,8,0:0:0:0:
256,192,26997,1,0,0:0:0:0:
256,192,27162,1,0,0:0:0:0:
256,192,27326,1,8,0:0:0:0:
256,192,27491,1,0,0:0:0:0:
256,192,27574,1,0,0:0:0:0:
256,192,27656,1,0,0:0:0:0:
256,192,27986,1,8,0:0:0:0:
256,192,28315,1,0,0:0:0:0:
256,192,28480,1,0,0:0:0:0:
256,192,28645,1,8,0:0:0:0:
256,192,28810,1,0,0:0:0:0:
256,192,28892,1,0,0:0:0:0:
256,192,28975,1,0,0:0:0:0:
256,192,29140,1,0,0:0:0:0:
256,192,29304,1,8,0:0:0:0:
256,192,29387,1,8,0:0:0:0:
256,192,29469,1,0,0:0:0:0:
256,192,29799,1,4,0:0:0:0:
256,192,30129,1,12,0:0:0:0:
256,192,30458,1,0,0:0:0:0:
256,192,30623,1,0,0:0:0:0:
256,192,30788,1,0,0:0:0:0:
256,192,30953,1,8,0:0:0:0:
256,192,31118,1,0,0:0:0:0:
256,192,31283,1,0,0:0:0:0:
256,192,31447,1,0,0:0:0:0:
256,192,31612,1,8,0:0:0:0:
256,192,31777,1,0,0:0:0:0:
256,192,31942,1,8,0:0:0:0:
256,192,32024,1,8,0:0:0:0:
256,192,32107,1,0,0:0:0:0:
256,192,32272,1,0,0:0:0:0:
256,192,32354,1,0,0:0:0:0:
256,192,32436,1,0,0:0:0:0:
256,192,32519,1,0,0:0:0:0:
256,192,32601,1,8,0:0:0:0:
256,192,32684,1,8,0:0:0:0:
256,192,32766,1,8,0:0:0:0:
256,192,32848,1,8,0:0:0:0:
256,192,32931,1,4,0:0:0:0:
256,192,33425,1,0,0:0:0:0:
256,192,33755,1,0,0:0:0:0:
256,192,33920,1,8,0:0:0:0:
256,192,34250,1,0,0:0:0:0:
256,192,34744,1,0,0:0:0:0:
256,192,34909,1,8,0:0:0:0:
256,192,35074,1,0,0:0:0:0:
256,192,35156,1,0,0:0:0:0:
256,192,35239,1,8,0:0:0:0:
256,192,35568,1,4,0:0:0:0:
256,192,36063,1,8,0:0:0:0:
256,192,36392,1,0,0:0:0:0:
256,192,36557,1,8,0:0:0:0:
256,192,36887,1,0,0:0:0:0:
256,192,37052,1,0,0:0:0:0:
256,192,37381,1,8,0:0:0:0:
256,192,37546,1,0,0:0:0:0:
256,192,37711,1,8,0:0:0:0:
256,192,37793,1,8,0:0:0:0:
256,192,37876,1,8,0:0:0:0:
256,192,38206,1,4,0:0:0:0:
256,192,38535,1,8,0:0:0:0:
256,192,38700,1,0,0:0:0:0:
256,192,38865,1,0,0:0:0:0:
256,192,39030,1,0,0:0:0:0:
256,192,39195,1,8,0:0:0:0:
256,192,39524,1,0,0:0:0:0:
256,192,39689,1,0,0:0:0:0:
256,192,39854,1,8,0:0:0:0:
256,192,40019,1,0,0:0:0:0:
256,192,40184,1,8,0:0:0:0:
256,192,40266,1,8,0:0:0:0:
256,192,40348,1,8,0:0:0:0:
256,192,40431,1,8,0:0:0:0:
256,192,40513,1,0,0:0:0:0:
256,192,40596,1,0,0:0:0:0:
256,192,40678,1,0,0:0:0:0:
256,192,40761,1,0,0:0:0:0:
256,192,40843,1,12,0:0:0:0:
256,192,41008,1,0,0:0:0:0:
256,192,41173,1,0,0:0:0:0:
256,192,41337,1,12,0:0:0:0:
256,192,41502,1,0,0:0:0:0:
256,192,41667,1,0,0:0:0:0:
256,192,41832,1,12,0:0:0:0:
256,192,41997,1,12,0:0:0:0:
256,192,42162,1,0,0:0:0:0:
256,192,42326,1,8,0:0:0:0:
256,192,42409,1,8,0:0:0:0:
256,192,42491,1,0,0:0:0:0:
256,192,42574,1,8,0:0:0:0:
256,192,42656,1,8,0:0:0:0:
256,192,42739,1,8,0:0:0:0:
256,192,42821,1,0,0:0:0:0:
256,192,42903,1,8,0:0:0:0:
256,192,42986,1,8,0:0:0:0:
256,192,43068,1,8,0:0:0:0:
256,192,43151,1,0,0:0:0:0:
256,192,43315,1,4,0:0:0:0:
256,192,43645,1,8,0:0:0:0:
256,192,43810,1,0,0:0:0:0:
256,192,43892,1,0,0:0:0:0:
256,192,43975,1,0,0:0:0:0:
256,192,44140,1,8,0:0:0:0:
256,192,44304,1,0,0:0:0:0:
256,192,44469,1,0,0:0:0:0:
256,192,44551,1,0,0:0:0:0:
256,192,44634,1,8,0:0:0:0:
256,192,44799,1,8,0:0:0:0:
256,192,44964,1,0,0:0:0:0:
256,192,45129,1,8,0:0:0:0:
256,192,45211,1,0,0:0:0:0:
256,192,45293,1,0,0:0:0:0:
256,192,45458,1,0,0:0:0:0:
256,192,45623,1,0,0:0:0:0:
256,192,45705,1,0,0:0:0:0:
256,192,45788,1,8,0:0:0:0:
256,192,45953,1,0,0:0:0:0:
256,192,46118,1,8,0:0:0:0:
256,192,46447,1,0,0:0:0:0:
256,192,46777,1,8,0:0:0:0:
256,192,46942,1,8,0:0:0:0:
256,192,47107,1,0,0:0:0:0:
256,192,47436,1,8,0:0:0:0:
256,192,47601,1,0,0:0:0:0:
256,192,47766,1,8,0:0:0:0:
256,192,47931,1,0,0:0:0:0:
256,192,48261,1,0,0:0:0:0:
256,192,48343,1,0,0:0:0:0:
256,192,48425,1,8,0:0:0:0:
256,192,48590,1,4,0:0:0:0:
256,192,48920,1,0,0:0:0:0:
256,192,49085,1,8,0:0:0:0:
256,192,49250,1,0,0:0:0:0:
256,192,49332,1,0,0:0:0:0:
256,192,49414,1,0,0:0:0:0:
256,192,49579,1,0,0:0:0:0:
256,192,49744,1,8,0:0:0:0:
256,192,49909,1,0,0:0:0:0:
256,192,49991,1,0,0:0:0:0:
256,192,50074,1,0,0:0:0:0:
256,192,50239,1,0,0:0:0:0:
256,192,50403,1,8,0:0:0:0:
256,192,50568,1,8,0:0:0:0:
256,192,50651,1,8,0:0:0:0:
256,192,50733,1,0,0:0:0:0:
256,192,50898,1,0,0:0:0:0:
256,192,51063,1,8,0:0:0:0:
256,192,51228,1,8,0:0:0:0:
256,192,51310,1,8,0:0:0:0:
256,192,51392,1,0,0:0:0:0:
256,192,51722,1,0,0:0:0:0:
256,192,52052,1,0,0:0:0:0:
256,192,52217,1,8,0:0:0:0:
256,192,52381,1,8,0:0:0:0:
256,192,52711,1,0,0:0:0:0:
256,192,52876,1,8,0:0:0:0:
256,192,53040,1,0,0:0:0:0:
256,192,53206,1,8,0:0:0:0:
256,192,53370,1,0,0:0:0:0:
256,192,53535,1,0,0:0:0:0:
256,192,53618,1,0,0:0:0:0:
256,192,53700,1,8,0:0:0:0:
256,192,53783,1,0,0:0:0:0:
256,192,53865,1,0,0:0:0:0:
256,192,53947,1,0,0:0:0:0:
256,192,54030,1,12,0:0:0:0:
256,192,54359,1,8,0:0:0:0:
256,192,54689,1,0,0:0:0:0:
256,192,54854,1,0,0:0:0:0:
256,192,55019,1,8,0:0:0:0:
256,192,55184,1,0,0:0:0:0:
256,192,55348,1,0,0:0:0:0:
256,192,55678,1,8,0:0:0:0:
256,192,56008,1,0,0:0:0:0:
256,192,56173,1,0,0:0:0:0:
256,192,56337,1,8,0:0:0:0:
256,192,56502,1,8,0:0:0:0:
256,192,56585,1,8,0:0:0:0:
256,192,56667,1,4,0:0:0:0:
256,192,56997,1,4,0:0:0:0:
256,192,57162,1,12,0:0:0:0:
256,192,57491,1,4,0:0:0:0:
256,192,57821,1,4,0:0:0:0:
256,192,58151,1,0,0:0:0:0:
256,192,58315,1,8,0:0:0:0:
256,192,58480,1,0,0:0:0:0:
256,192,58563,1,0,0:0:0:0:
256,192,58645,1,0,0:0:0:0:
256,192,58810,1,0,0:0:0:0:
256,192,58975,1,8,0:0:0:0:
256,192,59057,1,8,0:0:0:0:
256,192,59140,1,0,0:0:0:0:
256,192,59222,1,0,0:0:0:0:
256,192,59304,1,8,0:0:0:0:
256,192,59469,1,0,0:0:0:0:
256,192,59634,1,8,0:0:0:0:
256,192,59799,1,0,0:0:0:0:
256,192,59964,1,8,0:0:0:0:
256,192,60129,1,0,0:0:0:0:
256,192,60293,1,8,0:0:0:0:
256,192,60458,1,8,0:0:0:0:
256,192,60623,1,0,0:0:0:0:
256,192,60706,1,8,0:0:0:0:
256,192,60788,1,8,0:0:0:0:
256,192,60870,1,8,0:0:0:0:
256,192,60953,1,0,0:0:0:0:
256,192,61035,1,8,0:0:0:0:
256,192,61118,1,8,0:0:0:0:
256,192,61200,1,8,0:0:0:0:
256,192,61283,1,0,0:0:0:0:
256,192,61365,1,0,0:0:0:0:
256,192,61447,1,0,0:0:0:0:
256,192,61530,1,0,0:0:0:0:
256,192,61612,1,8,0:0:0:0:
256,192,61777,1,4,0:0:0:0:
256,192,61942,1,0,0:0:0:0:
256,192,62107,1,8,0:0:0:0:
256,192,62272,1,0,0:0:0:0:
256,192,62436,1,8,0:0:0:0:
256,192,62519,1,8,0:0:0:0:
256,192,62601,1,0,0:0:0:0:
256,192,62766,1,0,0:0:0:0:
256,192,62931,1,8,0:0:0:0:
256,192,63096,1,0,0:0:0:0:
256,192,63261,1,0,0:0:0:0:
256,192,63425,1,0,0:0:0:0:
256,192,63590,1,8,0:0:0:0:
256,192,63755,1,8,0:0:0:0:
256,192,63837,1,8,0:0:0:0:
256,192,63920,1,0,0:0:0:0:
256,192,64085,1,0,0:0:0:0:
256,192,64250,1,8,0:0:0:0:
256,192,64414,1,0,0:0:0:0:
256,192,64497,1,0,0:0:0:0:
256,192,64579,1,8,0:0:0:0:
256,192,64744,1,8,0:0:0:0:
256,192,64909,1,0,0:0:0:0:
256,192,65074,1,0,0:0:0:0:
256,192,65156,1,0,0:0:0:0:
256,192,65239,1,8,0:0:0:0:
256,192,65403,1,8,0:0:0:0:
256,192,65486,1,8,0:0:0:0:
256,192,65568,1,0,0:0:0:0:
256,192,65733,1,8,0:0:0:0:
256,192,65898,1,0,0:0:0:0:
256,192,66063,1,0,0:0:0:0:
256,192,66118,1,8,0:0:0:0:
256,192,66173,1,8,0:0:0:0:
256,192,66228,1,0,0:0:0:0:
256,192,66392,1,0,0:0:0:0:
256,192,66475,1,8,0:0:0:0:
256,192,66557,1,8,0:0:0:0:
256,192,66722,1,0,0:0:0:0:
256,192,66887,1,8,0:0:0:0:
256,192,67052,1,4,0:0:0:0:
256,192,67217,1,0,0:0:0:0:
256,192,67381,1,0,0:0:0:0:
256,192,67546,1,8,0:0:0:0:
256,192,67711,1,8,0:0:0:0:
256,192,67793,1,8,0:0:0:0:
256,192,67876,1,0,0:0:0:0:
256,192,68041,1,0,0:0:0:0:
256,192,68206,1,8,0:0:0:0:
256,192,68370,1,0,0:0:0:0:
256,192,68453,1,0,0:0:0:0:
256,192,68535,1,8,0:0:0:0:
256,192,68700,1,8,0:0:0:0:
256,192,68865,1,0,0:0:0:0:
256,192,69030,1,8,0:0:0:0:
256,192,69112,1,8,0:0:0:0:
256,192,69195,1,0,0:0:0:0:
256,192,69359,1,0,0:0:0:0:
256,192,69442,1,0,0:0:0:0:
256,192,69524,1,8,0:0:0:0:
256,192,69689,1,8,0:0:0:0:
256,192,69854,1,0,0:0:0:0:
256,192,70019,1,8,0:0:0:0:
256,192,70101,1,8,0:0:0:0:
256,192,70184,1,0,0:0:0:0:
256,192,70348,1,0,0:0:0:0:
256,192,70431,1,8,0:0:0:0:
256,192,70513,1,8,0:0:0:0:
256,192,70678,1,0,0:0:0:0:
256,192,70761,1,0,0:0:0:0:
256,192,70843,1,8,0:0:0:0:
256,192,71008,1,8,0:0:0:0:
256,192,71090,1,8,0:0:0:0:
256,192,71173,1,0,0:0:0:0:
256,192,71255,1,8,0:0:0:0:
256,192,71337,1,8,0:0:0:0:
256,192,71420,1,8,0:0:0:0:
256,192,71502,1,0,0:0:0:0:
256,192,71585,1,8,0:0:0:0:
256,192,71667,1,8,0:0:0:0:
256,192,71750,1,8,0:0:0:0:
256,192,71832,1,0,0:0:0:0:
256,192,71914,1,0,0:0:0:0:
256,192,71997,1,0,0:0:0:0:
256,192,72079,1,0,0:0:0:0:
256,192,72162,1,8,0:0:0:0:
256,192,72244,1,8,0:0:0:0:
256,192,72326,1,8,0:0:0:0:
256,192,72409,1,8,0:0:0:0:
256,192,72491,1,0,0:0:0:0:
256,192,72656,1,0,0:0:0:0:
256,192,72821,1,8,0:0:0:0:
256,192,73151,1,0,0:0:0:0:
256,192,73315,1,0,0:0:0:0:
256,192,73480,1,8,0:0:0:0:
256,192,73810,1,0,0:0:0:0:
256,192,73975,1,0,0:0:0:0:
256,192,74140,1,8,0:0:0:0:
256,192,74304,1,0,0:0:0:0:
256,192,74387,1,0,0:0:0:0:
256,192,74469,1,0,0:0:0:0:
256,192,74634,1,0,0:0:0:0:
256,192,74799,1,8,0:0:0:0:
256,192,74964,1,0,0:0:0:0:
256,192,75046,1,0,0:0:0:0:
256,192,75129,1,8,0:0:0:0:
256,192,75376,1,8,0:0:0:0:
256,192,75458,1,8,0:0:0:0:
256,192,75541,1,8,0:0:0:0:
256,192,75623,1,4,0:0:0:0:
256,192,75953,1,4,0:0:0:0:
256,192,76118,1,8,0:0:0:0:
256,192,76283,1,4,0:0:0:0:
256,192,76612,1,0,0:0:0:0:
256,192,76777,1,8,0:0:0:0:
256,192,76942,1,0,0:0:0:0:
256,192,77024,1,0,0:0:0:0:
256,192,77107,1,8,0:0:0:0:
256,192,77272,1,0,0:0:0:0:
256,192,77436,1,8,0:0:0:0:
256,192,77601,1,0,0:0:0:0:
256,192,77766,1,0,0:0:0:0:
256,192,77848,1,0,0:0:0:0:
256,192,77931,1,0,0:0:0:0:
256,192,78013,1,0,0:0:0:0:
256,192,78096,1,8,0:0:0:0:
256,192,78178,1,0,0:0:0:0:
256,192,78261,1,0,0:0:0:0:
256,192,78343,1,0,0:0:0:0:
256,192,78425,1,8,0:0:0:0:
256,192,78508,1,8,0:0:0:0:
256,192,78590,1,8,0:0:0:0:
256,192,78673,1,8,0:0:0:0:
256,192,78755,1,0,0:0:0:0:
256,192,78837,1,8,0:0:0:0:
256,192,78920,1,8,0:0:0:0:
256,192,79002,1,8,0:0:0:0:
256,192,79085,1,4,0:0:0:0:
256,192,80403,1,4,0:0:0:0:
256,192,80733,1,0,0:0:0:0:
256,192,80898,1,0,0:0:0:0:
256,192,81063,1,8,0:0:0:0:
256,192,81228,1,0,0:0:0:0:
256,192,81392,1,0,0:0:0:0:
256,192,81557,1,8,0:0:0:0:
256,192,81887,1,0,0:0:0:0:
256,192,82052,1,8,0:0:0:0:
256,192,82217,1,8,0:0:0:0:
256,192,82381,1,0,0:0:0:0:
256,192,82546,1,0,0:0:0:0:
256,192,82711,1,12,0:0:0:0:
256,192,82876,1,0,0:0:0:0:
256,192,83041,1,4,0:0:0:0:
256,192,83370,1,0,0:0:0:0:
256,192,83535,1,0,0:0:0:0:
256,192,83700,1,8,0:0:0:0:
256,192,83865,1,0,0:0:0:0:
256,192,84030,1,0,0:0:0:0:
256,192,84195,1,0,0:0:0:0:
256,192,84524,1,0,0:0:0:0:
256,192,84689,1,8,0:0:0:0:
256,192,84854,1,0,0:0:0:0:
256,192,85019,1,8,0:0:0:0:
256,192,85184,1,0,0:0:0:0:
256,192,85266,1,0,0:0:0:0:
256,192,85348,1,12,0:0:0:0:
256,192,85678,1,8,0:0:0:0:
256,192,85788,1,0,0:0:0:0:
256,192,85898,1,0,0:0:0:0:
256,192,86008,1,8,0:0:0:0:
256,192,86118,1,0,0:0:0:0:
256,192,86228,1,0,0:0:0:0:
256,192,86337,1,8,0:0:0:0:
256,192,86447,1,8,0:0:0:0:
256,192,86557,1,0,0:0:0:0:
256,192,86667,1,0,0:0:0:0:
256,192,86777,1,8,0:0:0:0:
256,192,86887,1,8,0:0:0:0:
256,192,86997,1,4,0:0:0:0:
256,192,87162,1,8,0:0:0:0:
256,192,87244,1,0,0:0:0:0:
256,192,87326,1,0,0:0:0:0:
256,192,87491,1,4,0:0:0:0:
256,192,87656,1,8,0:0:0:0:
256,192,87739,1,8,0:0:0:0:
256,192,87821,1,0,0:0:0:0:
256,192,87986,1,4,0:0:0:0:
256,192,88151,1,8,0:0:0:0:
256,192,88233,1,0,0:0:0:0:
256,192,88315,1,0,0:0:0:0:
256,192,88480,1,4,0:0:0:0:
256,192,88645,1,4,0:0:0:0:
256,192,88810,1,12,0:0:0:0:
