osu file format v14

[General]
AudioFilename: audio.mp3
AudioLeadIn: 0
PreviewTime: 43150
Countdown: 0
SampleSet: Soft
StackLeniency: 0.7
Mode: 0
LetterboxInBreaks: 0
WidescreenStoryboard: 1

[Editor]
Bookmarks: 24191
DistanceSpacing: 1.3
BeatDivisor: 4
GridSize: 4
TimelineZoom: 3.199996

[Metadata]
Title:STARTING NOW!
TitleUnicode:STARTING NOW!
Artist:Mizuki Nana
ArtistUnicode:水樹 奈々
Creator:ShogunMoon
Version:Nowa's Hyper
Source:この美術部には問題がある!
Tags:Kono Bijutsubu ni wa Mondai ga Aru! opening anime tv size op dtm9_nowa kagetsu shirakai kacha icontrol world_fraction [-Yuno-] このび Konobi 藤田卓也 Fujita Takuya 藤田淳平 Fujita Junpei Elements Garden NEOGENE CREATION
BeatmapID:1138401
BeatmapSetID:481570

[Difficulty]
HPDrainRate:6
CircleSize:4
OverallDifficulty:6
ApproachRate:8.8
SliderMultiplier:1.6
SliderTickRate:1

[Events]
//Background and Video events
0,0,"1366x768.jpg",0,0
Video,705,"opening.avi"
//Break Periods
//Storyboard Layer 0 (Background)
//Storyboard Layer 1 (Fail)
//Storyboard Layer 2 (Pass)
//Storyboard Layer 3 (Foreground)
//Storyboard Sound Samples

[TimingPoints]
1217,371.517027863777,4,2,1,40,1,0
1217,-200,4,2,1,40,0,0
1960,329.67032967033,4,2,1,40,1,0
1960,-200,4,2,1,40,0,0
2289,289.855072463768,4,2,1,40,1,0
2433,314.13612565445,4,2,1,40,1,0
2433,-200,4,2,1,40,0,0
2904,335.195530726257,4,2,1,50,1,0
2904,-200,4,2,1,50,0,0
3574,346.820809248555,4,2,1,40,1,0
3920,329.67032967033,4,2,1,40,1,0
3920,-200,4,2,1,40,0,0
6557,-100,4,2,10,40,0,0
8865,-83.3333333333333,4,2,10,40,0,0
9112,-83.3333333333333,4,2,10,5,0,0
9194,-100,4,2,10,40,0,0
11502,-83.3333333333333,4,2,10,40,0,0
11749,-83.3333333333333,4,2,10,5,0,0
11832,-100,4,2,10,40,0,0
30128,-111.111111111111,4,2,10,40,0,0
32930,-133.333333333333,4,2,10,40,0,0
38205,-100,4,2,10,40,0,0
42821,-200,4,2,10,40,0,0
43315,-90.9090909090909,4,2,10,60,0,1
54029,-90.9090909090909,4,2,10,60,0,0
59304,-90.9090909090909,4,2,10,60,0,1
61694,-90.9090909090909,4,2,10,60,0,0
61777,-90.9090909090909,4,2,10,60,0,1
72491,-90.9090909090909,4,2,10,60,0,0
80403,-100,4,2,10,60,0,0
82628,-100,4,2,10,5,0,0
82711,-83.3333333333333,4,2,10,60,0,0
82958,-83.3333333333333,4,2,10,5,0,0
83040,-100,4,2,10,60,0,0
85266,-100,4,2,10,5,0,0
85348,-83.3333333333333,4,2,10,60,0,0
85595,-100,4,2,10,5,0,0
85678,-100,4,2,10,60,0,0
89634,-100,4,2,10,5,0,0

[Colours]
Combo1 : 255,45,50
Combo2 : 255,255,43
Combo3 : 0,198,50
Combo4 : 255,128,0
Combo5 : 123,90,70
Combo6 : 255,128,192
Combo7 : 15,135,255
Combo8 : 255,217,255

[HitObjects]
114,233,1217,6,0,L|125:113,1,120
197,70,1960,2,0,L|204:153,1,80
216,229,2433,2,0,L|222:269,1,40
292,314,2747,1,0,0:0:0:0:
303,230,2904,2,0,L|309:179,1,40
385,156,3239,2,0,L|394:235,1,80
402,319,3747,1,0,0:0:0:0:
326,282,3920,6,0,P|268:271|204:290,1,120
136,263,4579,2,0,P|97:270|58:262,1,80
3,194,5073,2,0,L|-1:145,1,40
14,75,5403,1,0,0:0:0:0:
91,95,5568,2,0,P|116:96|146:92,1,40
209,78,5898,2,0,P|253:74|294:82,1,80
364,57,6392,1,0,0:0:0:0:
464,29,6557,6,0,L|473:116,1,80,6|0,0:0|0:0,0:0:0:0:
479,213,6887,1,2,0:0:0:0:
385,166,7052,1,2,0:0:0:0:
289,206,7216,2,0,P|283:249|291:287,2,80,8|0|0,0:0|0:0|0:0,0:0:0:0:
215,130,7711,2,0,P|221:91|213:52,1,80,8|0,0:0|0:0,0:0:0:0:
117,12,8041,1,8,0:0:0:0:
20,52,8206,2,0,P|12:91|19:131,1,80,8|0,0:0|0:0,0:0:0:0:
45,231,8535,2,0,P|52:270|46:309,1,80,8|0,0:0|0:0,0:0:0:0:
155,247,8865,6,0,P|222:231|299:264,1,143.999995605469,8|0,0:0|0:0,0:0:0:0:
309,273,9195,6,0,P|302:235|308:195,1,80,6|0,0:0|0:0,0:0:0:0:
352,100,9524,1,0,0:0:0:0:
247,111,9689,1,2,0:0:0:0:
144,93,9854,2,0,L|63:78,2,80,8|0|0,0:0|0:0|0:0,0:0:0:0:
246,111,10348,2,0,L|327:96,1,80,8|0,0:0|0:0,0:0:0:0:
428,82,10678,1,8,0:0:0:0:
388,179,10843,2,0,P|380:218|389:257,1,80,0|2,0:0|0:0,0:0:0:0:
332,344,11173,2,0,P|292:336|253:345,1,80,0|2,0:0|0:0,0:0:0:0:
129,336,11502,6,0,B|131:305|144:284|144:284|124:268|124:268|140:233|130:199,1,143.999995605469,8|0,0:0|0:0,0:0:0:0:
112,155,11832,6,0,P|107:116|113:77,1,80,6|0,0:0|0:0,0:0:0:0:
213,117,12162,2,0,P|219:155|211:199,1,80,8|0,0:0|0:0,0:0:0:0:
125,252,12491,1,2,0:0:0:0:
41,190,12656,2,0,P|26:153|24:108,1,80,2|8,0:0|0:0,0:0:0:0:
118,68,12986,1,0,0:0:0:0:
213,117,13151,6,0,P|257:124|301:115,1,80
384,70,13480,1,8,0:0:0:0:
379,174,13645,2,0,L|382:263,1,80
287,298,13975,2,0,L|283:218,1,80,0|8,0:0|0:0,0:0:0:0:
207,146,14304,1,0,0:0:0:0:
108,182,14469,6,0,P|69:183|30:174,1,80,2|0,0:0|0:0,0:0:0:0:
78,81,14799,2,0,P|116:71|156:73,1,80,8|0,0:0|0:0,0:0:0:0:
255,109,15129,1,0,0:0:0:0:
354,81,15293,1,2,0:0:0:0:
328,180,15458,2,0,P|325:224|336:272,1,80,8|0,0:0|0:0,0:0:0:0:
354,361,15788,6,0,P|317:336|270:321,1,80,2|0,0:0|0:0,0:0:0:0:
184,293,16118,2,0,P|223:273|259:240,1,80,8|0,0:0|0:0,0:0:0:0:
271,148,16447,1,2,0:0:0:0:
225,54,16612,1,2,0:0:0:0:
354,115,16777,2,0,L|454:100,1,80,8|0,0:0|0:0,0:0:0:0:
495,187,17107,6,0,L|398:201,1,80
333,261,17436,2,0,L|236:247,1,80,8|0,0:0|0:0,0:0:0:0:
174,180,17766,1,2,0:0:0:0:
256,115,17931,2,0,P|263:75|258:28,2,80,2|8|0,0:0|0:0|0:0,0:0:0:0:
174,180,18425,6,0,P|134:185|95:176,1,80,2|0,0:0|0:0,0:0:0:0:
16,108,18755,1,8,0:0:0:0:
18,234,18920,2,0,L|22:317,1,80,6|0,0:0|0:0,0:0:0:0:
112,262,19250,2,0,L|116:345,1,80,6|0,0:0|0:0,0:0:0:0:
213,281,19579,2,0,L|217:198,1,80,6|0,0:0|0:0,0:0:0:0:
266,108,19909,6,0,P|304:117|344:113,1,80,8|0,0:0|0:0,0:0:0:0:
436,63,20239,1,2,0:0:0:0:
436,63,20321,1,2,0:0:0:0:
436,63,20403,1,8,0:0:0:0:
433,168,20568,1,8,0:0:0:0:
429,272,20733,2,0,L|427:318,3,40,2|0|0|0,0:0|0:0|0:0|0:0,0:0:0:0:
401,332,21063,6,0,L|404:239,1,80,8|2,0:0|0:0,0:0:0:0:
302,275,21392,2,0,L|305:368,1,80,8|2,0:0|0:0,0:0:0:0:
200,341,21722,2,0,L|203:248,1,80,8|2,0:0|0:0,0:0:0:0:
175,159,22052,1,8,0:0:0:0:
241,52,22217,6,0,B|290:51|290:51|337:34|337:34|397:36,1,160,6|0,0:0|0:0,0:0:0:0:
449,126,22711,2,0,L|367:122,1,80,8|0,0:0|0:0,0:0:0:0:
273,164,23041,1,2,0:0:0:0:
316,258,23206,2,0,P|323:300|316:339,2,80,0|8|0,0:0|0:0|0:0,0:0:0:0:
273,164,23700,6,0,P|266:124|273:85,1,80
345,9,24030,1,8,0:0:0:0:
436,57,24195,2,0,P|443:96|436:135,1,80
394,230,24524,2,0,P|354:237|315:230,1,80,0|8,0:0|0:0,0:0:0:0:
229,171,24854,1,0,0:0:0:0:
219,275,25019,6,0,L|215:362,1,80,2|0,0:0|0:0,0:0:0:0:
117,318,25348,2,0,L|112:231,1,80,8|0,0:0|0:0,0:0:0:0:
82,137,25678,1,2,0:0:0:0:
73,33,25843,1,2,0:0:0:0:
168,78,26008,2,0,P|209:83|249:75,1,80,8|0,0:0|0:0,0:0:0:0:
337,25,26337,6,0,L|351:121,1,80
364,207,26667,1,8,0:0:0:0:
266,170,26832,1,0,0:0:0:0:
234,269,26997,1,2,0:0:0:0:
234,138,27162,1,2,0:0:0:0:
253,292,27326,2,0,L|261:376,1,80,8|0,0:0|0:0,0:0:0:0:
356,328,27656,6,0,L|348:248,1,80,6|0,0:0|0:0,0:0:0:0:
335,144,27986,2,0,L|327:64,1,80,8|0,0:0|0:0,0:0:0:0:
226,91,28315,1,2,0:0:0:0:
125,119,28480,2,0,L|43:106,2,80,2|8|0,0:0|0:0|0:0,0:0:0:0:
200,193,28975,6,0,L|283:208,1,80,2|0,0:0|0:0,0:0:0:0:
380,187,29304,1,8,0:0:0:0:
380,187,29387,1,8,0:0:0:0:
380,187,29469,2,0,P|365:141|368:98,1,80,2|0,0:0|0:0,0:0:0:0:
454,246,29799,2,0,P|469:200|466:157,1,80,2|0,0:0|0:0,0:0:0:0:
371,302,30129,6,0,L|209:297,1,143.999995605469,2|2,0:0|0:0,0:0:0:0:
136,273,30623,2,0,P|143:238|135:203,1,71.9999978027344,8|0,0:0|0:0,0:0:0:0:
89,121,30953,2,0,P|80:86|88:51,1,71.9999978027344,2|0,0:0|0:0,0:0:0:0:
175,86,31283,2,0,P|232:93|284:83,1,107.999996704102,2|8,0:0|0:0,0:0:0:0:
325,67,31612,6,0,L|322:138,1,71.9999978027344,2|2,0:0|0:0,0:0:0:0:
278,222,31942,1,8,0:0:0:0:
279,247,32024,1,8,0:0:0:0:
280,272,32107,1,0,0:0:0:0:
400,311,32272,2,0,L|401:275,3,35.9999989013672,0|8|4|0,0:0|0:3|0:3|0:0,0:0:0:0:
413,259,32601,2,0,L|415:164,1,71.9999978027344,4|4,0:3|0:3,0:0:0:0:
326,112,32931,6,0,L|326:249,1,120.000004577637,6|0,0:0|0:0,0:0:0:0:
293,302,33425,1,2,0:0:0:0:
251,235,33590,2,0,L|251:166,1,60.0000022888184,8|2,0:0|0:0,0:0:0:0:
254,96,33920,2,0,L|254:27,1,60.0000022888184,2|8,0:0|0:0,0:0:0:0:
177,53,34250,6,0,L|177:186,1,120.000004577637,2|0,0:0|0:0,0:0:0:0:
207,245,34744,2,0,L|207:313,2,60.0000022888184,10|0|0,0:0|0:0|0:0,0:0:0:0:
257,184,35239,1,8,0:0:0:0:
263,190,35568,6,0,L|263:57,1,120.000004577637,4|0,0:0|0:0,0:0:0:0:
340,83,36063,2,0,L|339:145,1,60.0000022888184,8|0,0:0|0:0,0:0:0:0:
338,298,36557,2,0,L|333:238,1,60.0000022888184,8|0,0:0|0:0,0:0:0:0:
253,214,36887,6,0,L|264:349,1,120.000004577637,2|0,0:0|0:0,0:0:0:0:
338,298,37381,2,0,L|333:238,1,60.0000022888184,8|0,0:0|0:0,0:0:0:0:
320,139,37711,1,0,0:0:0:0:
322,128,37793,1,0,0:0:0:0:
324,117,37876,2,0,L|319:57,1,60.0000022888184,8|0,0:0|0:0,0:0:0:0:
217,33,38206,6,0,L|210:112,1,80,8|0,0:0|0:0,0:0:0:0:
110,83,38535,1,8,0:0:0:0:
110,83,38700,2,0,L|116:162,1,80,0|2,0:0|0:0,0:0:0:0:
13,150,39030,2,0,L|33:227,2,80,2|10|2,0:0|0:0|0:0,0:0:0:0:
110,83,39524,6,0,P|153:76|189:82,1,80,2|0,0:0|0:0,0:0:0:0:
305,143,39854,1,8,0:0:0:0:
286,42,40019,1,2,0:0:0:0:
233,196,40184,2,8,L|229:247,3,40
234,256,40513,2,0,L|225:348,1,80,8|4,0:3|0:3,0:0:0:0:
124,360,40843,6,0,L|116:280,1,80,12|2,0:0|0:0,0:0:0:0:
116,280,41173,1,0,0:0:0:0:
18,244,41337,6,0,L|25:164,1,80,12|2,0:0|0:0,0:0:0:0:
25,164,41667,1,0,0:0:0:0:
134,128,41832,5,12,0:0:0:0:
119,26,41997,1,12,0:0:0:0:
235,88,42162,5,8,0:0:0:0:
220,190,42326,2,0,L|212:242,5,40,0|8|8|8|8|8,0:0|0:0|0:0|0:0|0:0|0:0,0:0:0:0:
226,252,42821,6,0,L|228:352,1,100
242,358,43315,6,0,P|319:330|424:355,1,176.000005371094,6|0,0:0|0:0,0:0:0:0:
494,268,43810,2,0,P|447:272|402:256,1,88.000002685547,8|0,0:0|0:0,0:0:0:0:
336,170,44140,2,0,P|332:123|348:78,1,88.000002685547,2|0,0:0|0:0,0:0:0:0:
205,96,44469,2,0,P|182:95|160:89,1,44.0000013427735,8|0,0:0|0:0,0:0:0:0:
89,62,44634,6,0,L|79:241,1,176.000005371094
142,334,45129,2,0,P|183:315|242:320,1,88.000002685547,8|0,0:0|0:0,0:0:0:0:
335,346,45458,2,0,P|378:345|418:326,1,88.000002685547,2|0,0:0|0:0,0:0:0:0:
458,219,45788,1,8,0:0:0:0:
440,105,45953,2,0,L|439:61,1,44.0000013427735
365,80,46118,6,0,L|366:168,1,88.000002685547,2|0,0:0|0:0,0:0:0:0:
278,40,46447,2,0,L|279:128,1,88.000002685547,8|0,0:0|0:0,0:0:0:0:
189,200,46777,6,0,L|190:112,1,88.000002685547,2|0,0:0|0:0,0:0:0:0:
102,180,47106,2,0,L|103:92,1,88.000002685547,8|0,0:0|0:0,0:0:0:0:
8,215,47436,5,2,0:0:0:0:
8,215,47601,2,0,L|12:306,1,88.000002685547,2|8,0:0|0:0,0:0:0:0:
113,357,47931,2,0,L|116:269,1,88.000002685547,0|2,0:0|0:0,0:0:0:0:
197,186,48261,1,2,0:0:0:0:
293,245,48425,2,0,L|296:288,1,44.0000013427735,8|0,0:0|0:0,0:0:0:0:
376,310,48590,6,0,L|357:135,1,176.000005371094,6|0,0:0|0:0,0:0:0:0:
295,37,49085,2,0,P|252:49|204:45,1,88.000002685547,8|0,0:0|0:0,0:0:0:0:
103,2,49414,2,0,P|114:44|112:87,1,88.000002685547,2|0,0:0|0:0,0:0:0:0:
45,181,49744,2,0,L|49:224,1,44.0000013427735,8|0,0:0|0:0,0:0:0:0:
120,259,49909,6,0,P|202:227|304:242,1,176.000005371094
382,299,50403,2,0,L|393:212,1,88.000002685547,8|0,0:0|0:0,0:0:0:0:
505,236,50733,2,0,L|494:149,1,88.000002685547,2|0,0:0|0:0,0:0:0:0:
435,49,51063,1,8,0:0:0:0:
333,101,51228,2,0,L|331:158,1,44.0000013427735
261,168,51392,6,0,L|264:255,1,88.000002685547,2|0,0:0|0:0,0:0:0:0:
148,216,51722,2,0,L|151:128,1,88.000002685547,8|0,0:0|0:0,0:0:0:0:
252,179,52052,6,0,L|255:266,1,88.000002685547,2|0,0:0|0:0,0:0:0:0:
139,227,52382,2,0,L|142:139,1,88.000002685547,8|0,0:0|0:0,0:0:0:0:
240,80,52711,5,2,0:0:0:0:
342,131,52876,2,0,P|389:138|430:128,1,88.000002685547,0|8,0:0|0:0,0:0:0:0:
468,20,53206,2,0,P|425:13|383:23,1,88.000002685547,0|2,0:0|0:0,0:0:0:0:
328,127,53535,2,0,L|326:234,2,88.000002685547,8|2|4,0:3|0:0|0:3,0:0:0:0:
237,55,54030,6,0,P|187:48|142:66,1,88.000002685547,6|0,0:0|0:0,0:0:0:0:
71,140,54359,2,0,L|60:52,1,88.000002685547,8|0,0:0|0:0,0:0:0:0:
200,126,54689,2,0,L|190:214,1,88.000002685547,2|2,0:0|0:0,0:0:0:0:
51,153,55019,2,0,L|40:65,1,88.000002685547,8|0,0:0|0:0,0:0:0:0:
180,139,55348,6,0,L|170:227,1,88.000002685547,2|2,0:0|0:0,0:0:0:0:
243,315,55678,2,0,P|286:308|328:319,1,88.000002685547,8|0,0:0|0:0,0:0:0:0:
427,377,56008,2,0,P|421:334|432:292,1,88.000002685547,2|2,0:0|0:0,0:0:0:0:
475,185,56337,2,0,P|482:141|471:99,1,88.000002685547,8|0,0:0|0:0,0:0:0:0:
379,29,56667,6,0,L|281:13,1,88.000002685547,6|2,0:0|0:0,0:0:0:0:
180,42,56997,1,8,0:0:0:0:
259,125,57162,2,0,P|270:171|271:214,1,88.000002685547,12|2,0:0|0:0,0:0:0:0:
164,171,57491,2,0,P|153:216|152:259,1,88.000002685547,12|2,0:0|0:0,0:0:0:0:
250,318,57821,6,0,L|431:332,1,176.000005371094,6|2,0:0|0:0,0:0:0:0:
493,239,58315,2,0,L|397:231,1,88.000002685547,8|0,0:0|0:0,0:0:0:0:
290,245,58645,1,0,0:0:0:0:
359,338,58810,1,0,0:0:0:0:
424,216,58975,1,8,0:0:0:0:
425,194,59058,1,8,0:0:0:0:
427,172,59140,1,8,0:3:0:0:
400,61,59304,6,0,L|405:163,1,88.000002685547,12|2,0:0|0:0,0:0:0:0:
295,65,59634,5,8,0:0:0:0:
322,172,59799,1,2,0:0:0:0:
193,116,59964,5,8,0:0:0:0:
247,212,60129,1,2,0:0:0:0:
108,192,60293,5,8,0:0:0:0:
185,271,60458,1,8,0:0:0:0:
298,254,60623,6,8,L|352:247,4,44.0000013427735
187,220,61118,5,8,0:3:0:0:
167,215,61200,1,8,0:3:0:0:
147,209,61283,1,8,0:0:0:0:
49,150,61447,6,8,L|116:135,3,44.0000013427735
112,129,61777,6,0,L|296:140,1,176.000005371094,6|0,0:0|0:0,0:0:0:0:
418,122,62272,2,0,P|425:165|416:207,1,88.000002685547,8|0,0:0|0:0,0:0:0:0:
284,224,62601,2,0,P|278:181|287:139,1,88.000002685547,2|0,0:0|0:0,0:0:0:0:
415,207,62931,1,8,0:0:0:0:
341,300,63096,6,0,P|258:316|197:258,1,176.000005371094
287,139,63590,2,0,P|295:181|288:224,1,88.000002685547,8|0,0:0|0:0,0:0:0:0:
188,168,63920,2,0,P|179:125|186:82,1,88.000002685547,2|0,0:0|0:0,0:0:0:0:
290,34,64250,1,8,0:0:0:0:
290,34,64332,1,0,0:0:0:0:
290,34,64414,1,0,0:0:0:0:
370,115,64579,6,0,L|381:217,1,88.000002685547,2|0,0:0|0:0,0:0:0:0:
234,204,64909,2,0,L|243:117,1,88.000002685547,8|0,0:0|0:0,0:0:0:0:
354,132,65239,6,0,L|365:234,1,88.000002685547,2|0,0:0|0:0,0:0:0:0:
218,221,65569,2,0,L|227:134,1,88.000002685547,8|0,0:0|0:0,0:0:0:0:
341,143,65898,5,2,0:0:0:0:
356,256,66063,2,0,L|370:344,1,88.000002685547,0|8,0:0|0:0,0:0:0:0:
257,319,66392,1,8,0:0:0:0:
257,319,66475,1,8,0:0:0:0:
257,319,66557,1,2,0:0:0:0:
144,342,66722,2,0,L|158:256,1,88.000002685547,0|8,0:0|0:0,0:0:0:0:
266,217,67052,6,0,L|236:28,1,176.000005371094,2|0,0:0|0:0,0:0:0:0:
129,8,67546,2,0,L|119:95,1,88.000002685547,8|0,0:0|0:0,0:0:0:0:
11,156,67876,2,0,L|1:69,1,88.000002685547,2|0,0:0|0:0,0:0:0:0:
119,184,68206,1,8,0:0:0:0:
59,292,68370,6,0,L|240:278,1,176.000005371094,8|0,0:0|0:0,0:0:0:0:
286,175,68865,2,0,L|198:168,1,88.000002685547,8|0,0:0|0:0,0:0:0:0:
234,278,69195,2,0,L|322:285,1,88.000002685547,2|0,0:0|0:0,0:0:0:0:
424,235,69524,1,8,0:0:0:0:
362,138,69689,1,0,0:0:0:0:
362,138,69771,1,0,0:0:0:0:
362,138,69854,6,0,P|353:97|362:44,1,88.000002685547
249,16,70184,2,0,P|258:57|249:110,1,88.000002685547,8|8,0:0|0:0,0:0:0:0:
204,168,70431,1,8,0:0:0:0:
204,168,70513,2,0,P|197:211|206:254,1,88.000002685547,2|0,0:0|0:0,0:0:0:0:
311,301,70843,2,0,P|320:258|313:214,1,88.000002685547,8|0,0:0|0:0,0:0:0:0:
388,97,71173,6,0,P|388:119|391:140,3,44.0000013427735,8|0|0|0,0:0|0:0|0:0|0:0,0:0:0:0:
427,174,71502,2,0,P|427:196|423:217,3,44.0000013427735,8|0|0|0,0:0|0:0|0:0|0:0,0:0:0:0:
392,254,71832,6,0,L|347:250,3,44.0000013427735,8|0|0|0,0:0|0:0|0:0|0:0,0:0:0:0:
306,269,72162,2,0,L|261:273,3,44.0000013427735,8|0|0|0,0:0|0:0|0:0|0:0,0:0:0:0:
221,249,72491,6,0,L|122:243,1,88.000002685547,6|0,0:0|0:0,0:0:0:0:
66,149,72821,2,0,L|153:143,1,88.000002685547,8|0,0:0|0:0,0:0:0:0:
217,267,73151,6,0,L|118:261,1,88.000002685547,2|0,0:0|0:0,0:0:0:0:
62,167,73481,2,0,L|149:161,1,88.000002685547,8|0,0:0|0:0,0:0:0:0:
258,197,73810,6,0,L|345:203,1,88.000002685547,2|0,0:0|0:0,0:0:0:0:
383,312,74140,2,0,L|296:318,1,88.000002685547,8|0,0:0|0:0,0:0:0:0:
207,308,74387,1,0,0:0:0:0:
186,299,74469,2,0,L|99:305,1,88.000002685547,8|0,0:0|0:0,0:0:0:0:
3,239,74799,2,0,P|19:197|15:155,1,88.000002685547,8|8,0:0|0:0,0:0:0:0:
0,82,75046,1,8,0:0:0:0:
0,82,75129,6,0,L|108:71,1,88.000002685547,2|8,0:0|0:0,0:0:0:0:
198,44,75458,1,8,0:0:0:0:
198,44,75541,1,8,0:0:0:0:
198,44,75623,2,0,P|188:92|201:132,1,88.000002685547,6|0,0:0|0:0,0:0:0:0:
305,88,75953,2,0,P|315:130|303:171,1,88.000002685547,6|8,0:0|0:0,0:0:0:0:
204,230,76283,6,0,L|29:249,1,176.000005371094,6|2,0:0|0:0,0:0:0:0:
8,361,76777,2,0,L|96:351,1,88.000002685547,8|0,0:0|0:0,0:0:0:0:
207,376,77107,1,2,0:0:0:0:
282,289,77272,1,2,0:0:0:0:
392,317,77436,2,0,L|494:301,1,88.000002685547,8|2,0:0|0:0,0:0:0:0:
452,191,77766,6,0,L|403:183,3,44.0000013427735,8|0|0|0,0:0|0:0|0:0|0:0,0:0:0:0:
371,204,78096,2,0,L|322:212,3,44.0000013427735,8|0|0|0,0:0|0:0|0:0|0:0,0:0:0:0:
292,189,78425,5,8,0:0:0:0:
278,186,78507,1,0,0:0:0:0:
264,184,78589,1,8,0:0:0:0:
249,181,78672,1,8,0:0:0:0:
211,202,78755,5,8,0:0:0:0:
192,205,78837,1,0,0:0:0:0:
172,208,78919,1,8,0:0:0:0:
153,211,79002,1,8,0:0:0:0:
133,214,79084,1,6,0:0:0:0:
133,214,80403,6,0,L|300:193,1,160,6|0,0:0|0:0,0:0:0:0:
409,147,80898,1,2,0:0:0:0:
313,105,81063,2,0,L|226:97,1,80,8|0,0:0|0:0,0:0:0:0:
130,112,81392,1,0,0:0:0:0:
194,191,81557,2,0,P|200:230|195:269,1,80,2|0,0:0|0:0,0:0:0:0:
98,310,81887,2,0,P|92:271|97:232,1,80,8|0,0:0|0:0,0:0:0:0:
194,191,82217,1,2,0:0:0:0:
293,218,82381,2,0,L|426:209,1,120,8|0,0:0|0:0,0:0:0:0:
443,228,82711,6,0,L|299:237,1,143.999995605469,8|0,0:0|0:0,0:0:0:0:
274,264,83041,6,0,L|114:254,1,160,6|2,0:0|0:0,0:0:0:0:
11,268,83535,1,2,0:0:0:0:
51,171,83700,2,0,P|58:126|46:87,1,80,8|0,0:0|0:0,0:0:0:0:
147,57,84030,1,2,0:0:0:0:
249,76,84195,2,0,L|328:67,1,80,2|0,0:0|0:0,0:0:0:0:
373,161,84524,2,0,L|294:152,1,80,8|0,0:0|0:0,0:0:0:0:
438,95,84854,1,2,0:0:0:0:
469,216,85019,2,0,L|459:359,1,120,8|0,0:0|0:0,0:0:0:0:
389,354,85348,6,0,P|335:324|239:336,1,143.999995605469,8|0,0:0|0:0,0:0:0:0:
174,355,85678,6,0,L|123:343,2,53.3333333333333,12|8|8,0:0|0:0|0:0,0:0:0:0:
168,272,86008,2,0,L|120:233,2,53.3333333333333,8|8|8,0:0|0:3|0:3,0:0:0:0:
225,215,86337,2,0,L|231:163,2,53.3333333333333,8|4|12,0:3|0:3|0:3,0:0:0:0:
305,204,86667,2,0,L|313:256,2,53.3333333333333,4|2|2,0:3|0:0|0:0,0:0:0:0:
319,123,86997,5,6,0:0:0:0:
200,103,87217,2,0,L|173:100,2,26.6666666666667
210,211,87491,5,6,0:0:0:0:
106,223,87656,2,0,L|59:228,2,40,8|8|2,0:0|0:0|0:0,0:0:0:0:
209,319,87986,5,6,0:0:0:0:
109,350,88151,2,0,L|63:363,2,40,8|8|8,0:0|0:0|0:3,0:0:0:0:
267,273,88480,6,0,P|309:279|349:308,1,80,4|8,0:3|0:0,0:0:0:0:
277,355,88810,2,0,B|219:357|173:312|169:246|221:204|221:204|189:157|219:112|219:112|240:61|213:21,1,400,6|0,0:0|0:0,0:0:0:0:
