osu file format v14

[General]
AudioFilename: audio.mp3
AudioLeadIn: 0
PreviewTime: 43150
Countdown: 0
SampleSet: Soft
StackLeniency: 0.7
Mode: 0
LetterboxInBreaks: 0
WidescreenStoryboard: 1

[Editor]
DistanceSpacing: 1
BeatDivisor: 4
GridSize: 16
TimelineZoom: 1.5

[Metadata]
Title:STARTING NOW!
TitleUnicode:STARTING NOW!
Artist:Mizuki Nana
ArtistUnicode:水樹 奈々
Creator:ShogunMoon
Version:Normal
Source:この美術部には問題がある!
Tags:Kono Bijutsubu ni wa Mondai ga Aru! opening anime tv size op dtm9_nowa kagetsu shirakai kacha icontrol world_fraction [-Yuno-] このび Konobi 藤田卓也 Fujita Takuya 藤田淳平 Fujita Junpei Elements Garden NEOGENE CREATION
BeatmapID:1052295
BeatmapSetID:481570

[Difficulty]
HPDrainRate:4
CircleSize:3.3
OverallDifficulty:4
ApproachRate:5
SliderMultiplier:1
SliderTickRate:1

[Events]
//Background and Video events
Video,705,"opening.avi"
0,0,"1366x768.jpg",0,0
//Break Periods
//Storyboard Layer 0 (Background)
//Storyboard Layer 1 (Fail)
//Storyboard Layer 2 (Pass)
//Storyboard Layer 3 (Foreground)
//Storyboard Sound Samples

[TimingPoints]
1217,371.517027863777,4,2,1,40,1,0
1960,329.67032967033,4,2,1,40,1,0
2289,289.855072463768,4,2,1,40,1,0
2433,314.13612565445,4,2,1,40,1,0
2904,335.195530726257,4,2,1,40,1,0
3574,346.820809248555,4,2,1,40,1,0
3920,329.67032967033,4,2,1,40,1,0
43315,-100,4,2,10,80,0,1
54029,-100,4,2,10,80,0,0
59304,-100,4,2,10,80,0,1
61694,-100,4,2,10,80,0,0
61777,-100,4,2,10,80,0,1
72491,-100,4,2,10,80,0,0
85678,-100,4,2,10,80,0,0
89469,-100,4,2,10,30,0,0

[Colours]
Combo1 : 255,28,33
Combo2 : 244,239,11
Combo3 : 29,226,44
Combo4 : 255,128,0
Combo5 : 106,81,62
Combo6 : 255,155,205
Combo7 : 84,214,241
Combo8 : 255,232,243

[HitObjects]
222,197,3920,6,0,B|151:184|151:184|98:197|98:197|22:181,1,200
97,50,5073,2,0,P|149:30|237:74,1,150
305,133,5898,1,0,0:0:0:0:
390,82,6227,1,0,0:0:0:0:
445,165,6557,6,0,L|449:274,1,100,4|0,0:0|0:0,0:0:0:0:
426,309,7051,1,0,0:0:0:0:
385,338,7216,2,0,P|325:346|268:328,1,100,8|0,0:0|0:0,0:0:0:0:
252,300,7711,2,0,L|149:305,1,100,0|8,0:0|0:0,0:0:0:0:
106,326,8205,1,0,0:0:0:0:
37,253,8535,2,0,P|30:204|44:156,1,100,8|8,0:0|0:0,0:0:0:0:
119,88,9194,6,0,L|233:82,1,100
264,103,9689,1,0,0:0:0:0:
310,120,9854,2,0,L|427:113,1,100,8|0,0:0|0:0,0:0:0:0:
451,142,10348,2,0,P|462:194|451:251,1,100,0|8,0:0|0:0,0:0:0:0:
427,270,10843,1,0,0:0:0:0:
355,340,11173,2,0,L|249:331,1,100,8|8,0:0|0:0,0:0:0:0:
175,271,11832,6,0,L|62:280,2,100,4|8|0,0:1|0:0|0:0,0:0:0:0:
258,216,12821,1,8,0:0:0:0:
327,144,13151,2,0,P|331:91|314:38,1,100,0|8,0:0|0:0,0:0:0:0:
270,31,13645,2,0,L|165:36,1,100
123,54,14140,1,8,0:0:0:0:
34,100,14469,6,0,P|21:144|37:207,1,100,0|8,0:0|0:0,0:0:0:0:
118,246,15129,2,0,L|123:305,1,50
161,326,15458,1,8,0:0:0:0:
259,307,15788,2,0,P|310:299|362:311,1,100,0|8,0:0|0:0,0:0:0:0:
446,265,16447,2,0,L|451:211,1,50
474,171,16777,1,8,0:0:0:0:
425,83,17107,6,0,P|379:69|315:79,1,100,0|8,0:0|0:0,0:0:0:0:
256,144,17766,2,0,L|262:207,1,50
240,239,18096,1,8,0:0:0:0:
175,314,18425,2,0,B|104:321|104:321|69:308,1,100,0|8,0:0|0:0,0:0:0:0:
54,266,18920,2,0,P|44:215|63:158,2,100
144,222,19909,5,8,0:0:0:0:
207,145,20238,2,0,L|197:80,2,50,0|8|0,0:0|0:0|0:0,0:0:0:0:
244,178,20733,2,0,L|239:233,1,50,8|0,0:0|0:0,0:0:0:0:
259,273,21062,2,0,P|306:282|367:269,2,100,0|8|0,0:0|0:0|0:0,0:0:0:0:
173,324,22051,1,8,0:0:0:0:
125,340,22216,6,0,L|21:324,1,100,4|0,0:0|0:0,0:0:0:0:
1,280,22711,2,0,P|-8:232|5:181,1,100,8|0,0:0|0:0,0:0:0:0:
68,106,23370,1,8,0:0:0:0:
143,40,23700,2,0,B|179:28|179:28|244:42,1,100,0|8,0:0|0:0,0:0:0:0:
286,59,24195,2,0,P|336:70|394:58,1,100
427,38,24689,1,8,0:0:0:0:
494,111,25018,6,0,L|486:216,1,100,0|8,0:0|0:0,0:0:0:0:
396,255,25678,2,0,P|371:257|342:251,1,50
298,237,26007,1,8,0:0:0:0:
202,207,26337,2,0,L|97:201,1,100,0|8,0:0|0:0,0:0:0:0:
61,171,26832,2,0,P|61:143|68:116,2,50
23,203,27326,1,8,0:0:0:0:
45,300,27656,6,0,L|163:310,1,100,0|8,0:0|0:0,0:0:0:0:
237,347,28315,2,0,L|351:337,1,100,0|8,0:0|0:0,0:0:0:0:
424,290,28975,2,0,P|430:238|420:183,1,100,0|8,0:0|0:0,0:0:0:0:
392,151,29469,1,0,0:0:0:0:
350,59,29799,2,0,L|282:52,1,50,0|8,0:0|0:0,0:0:0:0:
250,57,30128,6,0,B|199:71|199:71|164:36|123:24|123:24|71:60|7:35,1,250,4|8,0:1|0:0,0:0:0:0:
22,139,31282,1,8,0:0:0:0:
102,198,31612,2,0,L|86:312,2,100,0|8|0,0:0|0:0|0:0,0:0:0:0:
193,157,32601,1,8,0:0:0:0:
258,232,32931,6,0,B|311:235|311:235|356:218|356:218|406:223,1,150,4|0,0:1|0:0,0:0:0:0:
444,192,33590,2,0,P|453:145|438:88,1,100,0|8,0:0|0:0,0:0:0:0:
353,47,34249,2,0,L|254:37,2,100
441,94,35239,1,8,0:0:0:0:
484,183,35568,6,0,B|496:282|496:282|482:331,1,150,4|0,0:1|0:0,0:0:0:0:
447,367,36228,2,0,L|389:362,1,50,0|8,0:0|0:0,0:0:0:0:
359,330,36557,1,8,0:0:0:0:
286,260,36887,2,0,L|185:264,2,100
385,245,37876,1,8,0:0:0:0:
338,156,38206,6,0,L|232:160,1,100,4|8,0:0|0:0,0:0:0:0:
198,128,38700,2,0,L|85:133,1,100
48,124,39195,1,8,0:0:0:0:
3,213,39524,2,0,P|-7:257|5:325,1,100,0|8,0:0|0:0,0:0:0:0:
36,345,40018,2,0,B|93:360|93:360|138:352,1,100
182,341,40513,1,8,0:0:0:0:
256,192,40843,12,0,42821,0:0:0:0:
40,69,43315,6,0,L|45:182,1,100,4|0,0:1|0:0,0:0:0:0:
74,209,43810,1,8,0:0:0:0:
108,302,44140,2,0,B|140:304|140:304|184:290|184:290|228:294,1,100,0|8,0:0|0:0,0:0:0:0:
245,261,44634,2,0,L|251:149,1,100
282,122,45129,1,8,0:0:0:0:
352,51,45458,2,0,P|400:39|447:53,1,100,0|8,0:0|0:0,0:0:0:0:
502,137,46117,6,0,L|513:249,2,100,0|8|0,0:0|0:0|0:0,0:0:0:0:
410,176,47107,2,0,L|341:167,1,50,8|0,0:0|0:0,0:0:0:0:
319,141,47436,2,0,L|205:148,1,100,0|8,0:0|0:0,0:0:0:0:
185,184,47931,2,0,B|173:213|189:258|189:258|203:297|191:331,1,150,0|8,0:0|0:0,0:0:0:0:
152,361,48590,6,0,L|43:353,1,100,4|0,0:1|0:0,0:0:0:0:
26,310,49085,1,8,0:0:0:0:
0,213,49414,2,0,P|-9:166|4:105,1,100,0|8,0:0|0:0,0:0:0:0:
32,77,49909,2,0,B|134:73,1,100
170,41,50403,1,8,0:0:0:0:
240,111,50733,2,0,P|254:161|236:220,1,100,0|8,0:0|0:0,0:0:0:0:
172,277,51392,6,0,B|164:337|164:337|179:376,2,100,0|8|0,0:0|0:0|0:0,0:0:0:0:
243,206,52381,1,8,0:0:0:0:
334,247,52711,2,0,P|387:261|445:243,1,100,0|8,0:0|0:0,0:0:0:0:
467,217,53205,2,0,B|477:168|477:168|452:71,1,150,0|8,0:0|0:0,0:0:0:0:
408,47,53865,1,0,0:0:0:0:
361,28,54029,6,0,L|250:25,1,100,4|8,0:1|0:0,0:0:0:0:
182,87,54689,2,0,L|177:145,1,50
136,165,55018,1,8,0:0:0:0:
65,235,55348,2,0,L|75:348,1,100,0|8,0:0|0:0,0:0:0:0:
169,365,56008,2,0,L|230:359,1,50
262,336,56337,1,8,0:0:0:0:
337,270,56667,6,0,B|369:264|369:264|402:274|402:274|436:270,1,100
480,248,57162,1,0,0:0:0:0:
499,150,57491,1,0,0:0:0:0:
465,55,57821,2,0,B|376:24|402:82|307:57,1,150,4|8,0:1|0:0,0:0:0:0:
221,32,58645,2,0,L|112:38,1,100,0|8,0:0|0:0,0:0:0:0:
104,136,59304,6,0,L|215:131,1,100,8|8,0:0|0:0,0:0:0:0:
295,170,59963,1,8,0:0:0:0:
283,269,60293,1,8,0:0:0:0:
222,348,60623,2,0,B|106:354,1,100,8|8,0:0|0:0,0:0:0:0:
84,320,61117,2,0,P|73:270|85:218,1,100,0|8,0:0|0:0,0:0:0:0:
122,191,61612,1,8,0:0:0:0:
161,159,61777,6,0,L|171:51,1,100,4|0,0:1|0:0,0:0:0:0:
210,29,62272,1,8,0:0:0:0:
285,94,62602,2,0,B|359:102|359:102|405:86,1,100,0|8,0:0|0:0,0:0:0:0:
430,76,63096,2,0,P|443:132|430:187,1,100
400,208,63590,2,0,L|412:314,1,100,8|0,0:0|0:0,0:0:0:0:
331,368,64250,1,8,0:0:0:0:
266,291,64579,6,0,P|219:283|163:293,1,100,0|8,0:0|0:0,0:0:0:0:
78,337,65239,2,0,L|62:223,1,100,0|8,0:0|0:0,0:0:0:0:
9,154,65898,2,0,L|27:37,1,100,0|8,0:0|0:0,0:0:0:0:
122,38,66557,2,0,P|174:28|237:39,1,100
262,60,67051,6,0,B|310:70|310:70|360:58|360:58|414:73,1,150,4|8,0:1|0:0,0:0:0:0:
478,142,67876,2,0,L|471:248,1,100,0|8,0:0|0:0,0:0:0:0:
452,288,68370,2,0,P|405:296|351:285,1,100
316,253,68865,1,8,0:0:0:0:
246,180,69194,2,0,B|129:177,1,100,0|8,0:0|0:0,0:0:0:0:
62,121,69854,6,0,P|43:173|57:232,1,100,0|8,0:0|0:0,0:0:0:0:
76,257,70348,2,0,L|185:260,1,100
222,279,70843,1,8,0:0:0:0:
311,322,71173,6,0,B|364:335|364:335|408:322,1,100,0|8,0:0|0:0,0:0:0:0:
450,297,71667,2,0,L|439:185,1,100,8|0,0:0|0:0,0:0:0:0:
403,162,72162,2,0,L|409:94,1,50,8|0,0:0|0:0,0:0:0:0:
395,63,72491,6,0,P|347:51|296:60,1,100,0|8,0:0|0:0,0:0:0:0:
211,110,73150,2,0,L|218:221,1,100,0|8,0:0|0:0,0:0:0:0:
134,265,73810,2,0,P|82:255|21:271,2,100,0|8|0,0:0|0:0|0:0,0:0:0:0:
208,331,74799,1,8,0:0:0:0:
307,331,75128,6,0,B|382:309|378:362|464:338,1,150
508,256,75953,1,0,0:0:0:0:
437,185,76283,2,0,L|430:27,1,150,0|8,0:0|0:0,0:0:0:0:
331,18,77107,1,0,0:0:0:0:
232,36,77436,1,8,0:0:0:0:
150,94,77766,6,0,B|142:136|142:136|154:197,2,100,8|8|0,0:0|0:0|0:0,0:0:0:0:
238,139,78755,1,8,0:0:0:0:
226,238,79084,1,4,0:1:0:0:
17,62,80403,6,0,L|122:67,1,100,4|0,0:0|0:0,0:0:0:0:
166,55,80898,1,0,0:0:0:0:
221,37,81062,2,0,L|329:42,1,100,8|0,0:0|0:0,0:0:0:0:
359,74,81557,2,0,P|367:125|353:180,1,100,0|8,0:0|0:0,0:0:0:0:
319,205,82052,1,0,0:0:0:0:
235,259,82381,2,0,L|131:254,1,100,8|8,0:0|0:0,0:0:0:0:
164,349,83040,6,0,L|272:353,1,100
312,338,83535,1,0,0:0:0:0:
358,318,83700,2,0,B|475:321,1,100,8|0,0:0|0:0,0:0:0:0:
493,285,84195,2,0,P|503:237|488:185,1,100,0|8,0:0|0:0,0:0:0:0:
453,154,84689,1,0,0:0:0:0:
377,88,85018,2,0,B|325:77|325:77|272:85,1,100,8|8,0:0|0:0,0:0:0:0:
256,192,85678,12,0,89469,0:0:0:0:
