osu file format v14

[General]
AudioFilename: audio.mp3
AudioLeadIn: 0
PreviewTime: 43150
Countdown: 0
SampleSet: Soft
StackLeniency: 0.7
Mode: 0
LetterboxInBreaks: 0
WidescreenStoryboard: 1

[Editor]
DistanceSpacing: 1
BeatDivisor: 4
GridSize: 4
TimelineZoom: 3.199996

[Metadata]
Title:STARTING NOW!
TitleUnicode:STARTING NOW!
Artist:Mizuki Nana
ArtistUnicode:水樹 奈々
Creator:ShogunMoon
Version:Kagetsu's Insane
Source:この美術部には問題がある!
Tags:Kono Bijutsubu ni wa Mondai ga Aru! opening anime tv size op dtm9_nowa kagetsu shirakai kacha icontrol world_fraction [-Yuno-] このび Konobi 藤田卓也 Fujita Takuya 藤田淳平 Fujita Junpei Elements Garden NEOGENE CREATION
BeatmapID:1134302
BeatmapSetID:481570

[Difficulty]
HPDrainRate:6
CircleSize:4
OverallDifficulty:7
ApproachRate:9
SliderMultiplier:1.75
SliderTickRate:1

[Events]
//Background and Video events
Video,705,"opening.avi"
0,0,"1366x768.jpg",0,0
//Break Periods
//Storyboard Layer 0 (Background)
//Storyboard Layer 1 (Fail)
//Storyboard Layer 2 (Pass)
//Storyboard Layer 3 (Foreground)
//Storyboard Sound Samples

[TimingPoints]
1217,371.517027863777,4,2,1,40,1,0
1960,329.67032967033,4,2,1,40,1,0
2289,289.855072463768,4,2,1,40,1,0
2433,314.13612565445,4,2,1,40,1,0
2904,335.195530726257,4,2,1,40,1,0
3574,346.820809248555,4,2,1,40,1,0
3920,329.67032967033,4,2,1,40,1,0
8535,-133.333333333333,4,2,10,40,0,0
8782,-133.333333333333,4,2,10,5,0,0
8865,-80,4,2,10,40,0,0
9112,-66.6666666666667,4,2,10,5,0,0
9194,-100,4,2,10,40,0,0
11172,-133.333333333333,4,2,10,40,0,0
11502,-80,4,2,10,40,0,0
11749,-66.6666666666667,4,2,10,5,0,0
11832,-111.111111111111,4,2,10,40,0,0
22216,-100,4,2,10,40,0,0
32930,-125,4,2,10,40,0,0
38205,-100,4,2,10,40,0,0
43315,-100,4,2,10,60,0,1
54029,-100,4,2,10,60,0,0
57409,-100,4,2,10,5,0,0
57491,-100,4,2,10,60,0,0
57738,-100,4,2,10,5,0,0
57821,-100,4,2,10,60,0,0
59304,-100,4,2,10,60,0,1
61694,-100,4,2,10,60,0,0
61777,-100,4,2,10,60,0,1
72491,-100,4,2,10,60,0,0
82381,-133.333333333333,4,2,10,60,0,0
82628,-133.333333333333,4,2,10,5,0,0
82711,-80,4,2,10,60,0,0
82958,-80,4,2,10,5,0,0
83040,-100,4,2,10,60,0,0
85018,-133.333333333333,4,2,10,60,0,0
85266,-133.333333333333,4,2,10,5,0,0
85348,-80,4,2,10,60,0,0
85595,-80,4,2,10,5,0,0
85678,-100,4,2,10,60,0,0

[Colours]
Combo1 : 255,45,50
Combo2 : 255,255,43
Combo3 : 0,198,50
Combo4 : 255,128,0
Combo5 : 123,90,70
Combo6 : 255,128,192
Combo7 : 15,135,255
Combo8 : 255,217,255

[HitObjects]
450,117,6557,6,0,B|407:139|407:139|269:111,1,175,6|2,0:0|0:0,0:0:0:0:
165,67,7052,1,0,0:0:0:0:
227,189,7217,1,8,0:0:0:0:
95,134,7381,2,0,P|100:177|107:220,1,87.5
66,314,7711,6,0,P|123:251|208:256,1,175,2|8,0:0|0:0,0:0:0:0:
163,335,8206,1,0,0:0:0:0:
17,223,8370,1,2,0:0:0:0:
248,176,8535,6,0,P|206:158|143:163,1,98.4375037550928,8|0,0:0|0:0,0:0:0:0:
128,142,8865,6,0,L|290:111,1,164.0625,8|0,0:0|0:0,0:0:0:0:
391,70,9195,6,0,P|328:127|333:212,1,175,6|0,0:0|0:0,0:0:0:0:
417,165,9689,1,2,0:0:0:0:
307,338,9854,2,0,P|263:329|211:321,1,87.5,8|0,0:0|0:0,0:0:0:0:
128,352,10184,1,0,0:0:0:0:
87,203,10348,6,0,B|130:225|130:225|268:197,1,175,2|8,0:0|0:0,0:0:0:0:
356,256,10843,1,0,0:0:0:0:
217,111,11008,1,2,0:0:0:0:
372,68,11173,6,0,P|352:113|356:161,1,98.4375037550928,8|0,0:0|0:0,0:0:0:0:
429,127,11503,6,0,L|235:90,1,164.0625,8|0,0:0|0:0,0:0:0:0:
140,64,11832,5,6,0:0:0:0:
140,64,12162,2,0,L|155:157,1,78.7499975967408,8|0,0:0|0:0,0:0:0:0:
248,176,12491,1,2,0:0:0:0:
108,240,12656,1,2,0:0:0:0:
195,348,12821,2,0,L|206:270,1,78.7499975967408,8|0,0:0|0:0,0:0:0:0:
287,103,13151,6,0,L|302:280,1,157.499995193482,2|8,0:0|0:0,0:0:0:0:
451,298,13645,2,0,L|465:123,1,157.499995193482,0|2,0:0|0:0,0:0:0:0:
371,61,14140,2,0,L|377:139,1,78.7499975967408,8|0,0:0|0:0,0:0:0:0:
145,33,14469,6,0,P|221:66|288:16,1,157.499995193482,2|8,0:0|0:0,0:0:0:0:
291,139,14964,1,0,0:0:0:0:
291,139,15293,2,0,P|303:186|292:236,1,78.7499975967408,2|8,0:0|0:0,0:0:0:0:
209,267,15623,6,0,P|292:255|354:313,1,157.499995193482
160,350,16118,2,0,L|61:333,2,78.7499975967408,8|0|2,0:0|0:0|0:0,0:0:0:0:
268,341,16612,2,0,L|441:315,1,157.499995193482,2|0,0:0|0:0,0:0:0:0:
512,173,17107,6,0,P|435:206|368:156,1,157.499995193482,6|8,0:0|0:0,0:0:0:0:
258,113,17601,1,0,0:0:0:0:
258,113,17766,2,0,P|263:152|276:210,1,78.7499975967408,2|2,0:0|0:0,0:0:0:0:
157,222,18096,1,8,0:0:0:0:
265,310,18261,1,0,0:0:0:0:
98,292,18425,6,0,P|114:215|126:137,1,157.499995193482,2|8,0:0|0:0,0:0:0:0:
80,35,18920,1,6,0:0:0:0:
80,35,19250,2,0,L|172:43,1,78.7499975967408,2|8,0:0|0:0,0:0:0:0:
389,54,19579,6,0,P|306:42|244:100,1,157.499995193482,6|8,0:0|0:0,0:0:0:0:
421,199,20239,2,0,L|474:194,2,39.3749987983704,2|2|8,0:0|0:0|0:0,0:0:0:0:
230,214,20568,1,8,0:0:0:0:
377,324,20733,1,2,0:0:0:0:
335,133,20898,2,0,P|330:172|317:230,1,78.7499975967408,8|2,0:0|0:0,0:0:0:0:
201,296,21228,5,8,0:0:0:0:
196,276,21310,1,8,0:0:0:0:
192,257,21392,1,8,0:0:0:0:
188,238,21475,1,8,0:0:0:0:
185,218,21557,1,8,0:0:0:0:
182,199,21640,1,8,0:0:0:0:
180,179,21722,2,0,L|221:175,1,39.3749987983704,2|2,0:0|0:0,0:0:0:0:
363,167,21886,1,8,0:0:0:0:
363,167,21969,1,8,0:0:0:0:
363,167,22052,2,0,L|325:127,1,39.3749987983704,2|0,0:0|0:0,0:0:0:0:
217,66,22217,6,0,P|304:52|391:34,1,175,6|2,0:0|0:0,0:0:0:0:
474,121,22711,2,0,P|465:166|458:226,1,87.5,8|0,0:0|0:0,0:0:0:0:
265,276,23041,2,0,P|258:232|251:189,1,87.5,2|2,0:0|0:0,0:0:0:0:
370,368,23370,2,0,P|376:324|383:281,1,87.5,8|0,0:0|0:0,0:0:0:0:
199,135,23700,6,0,B|242:157|242:157|380:129,1,175,2|8,0:0|0:0,0:0:0:0:
476,53,24195,2,0,P|432:46|389:39,1,87.5,0|2,0:0|0:0,0:0:0:0:
262,54,24524,2,0,P|221:36|182:18,1,87.5,2|8,0:0|0:0,0:0:0:0:
49,163,24854,6,0,P|87:125|215:152,1,175
286,260,25348,2,0,P|292:216|299:173,1,87.5,8|0,0:0|0:0,0:0:0:0:
262,54,25678,1,2,0:0:0:0:
262,54,25843,1,2,0:0:0:0:
459,94,26008,2,0,P|415:100|372:107,1,87.5,8|0,0:0|0:0,0:0:0:0:
281,151,26337,5,2,0:0:0:0:
421,225,26502,1,0,0:0:0:0:
331,331,26667,2,0,P|325:287|318:244,1,87.5,8|0,0:0|0:0,0:0:0:0:
318,244,26914,1,0,0:0:0:0:
318,244,26997,1,2,0:0:0:0:
158,201,27162,1,2,0:0:0:0:
320,148,27326,1,8,0:0:0:0:
227,290,27491,1,0,0:0:0:0:
144,107,27656,6,0,P|126:192|112:279,1,175,6|8,0:0|0:0,0:0:0:0:
135,383,28151,1,0,0:0:0:0:
0,283,28315,1,2,0:0:0:0:
138,202,28480,2,0,P|94:196|51:189,1,87.5,2|8,0:0|0:0,0:0:0:0:
201,292,28810,1,0,0:0:0:0:
208,104,28975,6,0,P|289:126|358:76,1,175,2|8,0:0|0:0,0:0:0:0:
358,76,29387,1,8,0:0:0:0:
358,76,29469,1,2,0:0:0:0:
358,76,29799,2,0,P|352:119|345:162,1,87.5,2|8,0:0|0:0,0:0:0:0:
194,352,30129,6,0,P|180:265|162:180,2,175,2|2|0,0:0|0:0|0:0,0:0:0:0:
344,289,30953,2,0,P|350:245|360:202,1,87.5,8|0,0:0|0:0,0:0:0:0:
462,125,31283,1,2,0:0:0:0:
302,96,31447,2,0,L|248:91,2,43.75,8|8|2,0:0|0:0|0:0,0:0:0:0:
438,226,31777,1,2,0:0:0:0:
261,192,31942,5,8,0:0:0:0:
261,192,32024,1,8,0:0:0:0:
261,192,32107,2,0,L|368:180,1,87.5,2|8,0:0|0:3,0:0:0:0:
354,326,32436,1,8,0:3:0:0:
354,326,32519,1,4,0:3:0:0:
354,326,32601,1,4,0:3:0:0:
440,200,32766,1,4,0:3:0:0:
232,269,32931,6,0,B|134:244|134:244|77:264,1,140,6|0,0:0|0:0,0:0:0:0:
9,294,33425,1,2,0:0:0:0:
9,294,33590,2,0,P|3:257|-1:221,1,70,0|2,0:0|0:0,0:0:0:0:
101,91,33920,2,0,P|95:125|90:160,1,70,8|0,0:0|0:0,0:0:0:0:
30,56,34250,6,0,P|100:44|170:29,1,140,2|0,0:0|0:0,0:0:0:0:
281,27,34744,1,8,0:3:0:0:
281,27,34909,2,0,P|287:61|292:96,1,70,8|2,0:3|0:0,0:0:0:0:
356,251,35239,2,0,P|361:216|365:181,1,70,8|4,0:0|3:0,0:0:0:0:
223,225,35568,6,0,P|235:295|250:365,1,140,4|0,0:0|0:0,0:0:0:0:
401,314,36063,1,8,0:0:0:0:
401,314,36228,2,0,P|366:309|331:302,1,70,0|2,0:0|0:0,0:0:0:0:
243,207,36557,1,8,0:0:0:0:
179,328,36722,1,0,0:0:0:0:
164,168,36887,6,0,P|234:159|304:148,1,140,2|0,0:0|0:0,0:0:0:0:
456,72,37381,2,0,P|391:89|336:49,1,140,8|2,0:0|0:0,0:0:0:0:
335,49,37793,1,2,0:0:0:0:
335,49,37876,1,8,0:0:0:0:
90,182,38206,6,0,P|171:160|240:210,1,175,6|8,0:0|0:0,0:0:0:0:
393,134,38700,2,0,P|349:141|306:146,1,87.5,0|2,0:0|0:0,0:0:0:0:
418,289,39030,2,0,P|374:283|331:276,2,87.5,2|8|0,0:0|0:0|0:0,0:0:0:0:
492,144,39524,6,0,P|459:65|377:42,1,175,2|8,0:0|0:0,0:0:0:0:
188,74,40019,1,0,0:0:0:0:
293,184,40184,1,8,0:0:0:0:
320,180,40266,1,8,0:0:0:0:
345,178,40348,1,8,0:0:0:0:
372,175,40431,1,8,0:0:0:0:
397,174,40513,2,0,L|386:216,1,43.75,8|8,0:3|0:3,0:0:0:0:
310,354,40678,2,0,L|295:304,1,43.75,4|4,0:3|0:3,0:0:0:0:
185,252,40843,6,0,P|100:234|13:220,1,175,12|2,0:0|0:0,0:0:0:0:
215,115,41337,1,12,0:0:0:0:
6,201,41502,1,2,0:0:0:0:
6,201,41667,1,2,0:0:0:0:
171,326,41832,1,12,0:0:0:0:
215,115,41997,6,0,B|258:93|258:93|396:121,1,175,12|0,0:0|0:0,0:0:0:0:
379,141,42409,1,8,0:0:0:0:
373,166,42491,1,8,0:0:0:0:
368,192,42573,1,8,0:0:0:0:
363,218,42656,1,8,0:0:0:0:
358,243,42738,1,8,0:0:0:0:
352,269,42821,2,0,L|472:260,2,87.5,8|0|0,0:0|0:0|0:0,0:0:0:0:
362,359,43315,6,0,P|430:309|512:330,1,175,6|0,0:0|0:0,0:0:0:0:
263,382,43810,2,0,P|219:375|176:370,1,87.5,8|0,0:0|0:0,0:0:0:0:
0,223,44140,2,0,P|43:216|86:211,1,87.5,2|0,0:0|0:0,0:0:0:0:
186,263,44469,1,8,0:0:0:0:
286,116,44634,6,0,P|204:137|135:87,1,175
375,75,45129,2,0,P|370:118|364:161,1,87.5,8|0,0:0|0:0,0:0:0:0:
198,305,45459,2,0,P|192:261|187:218,1,87.5,2|0,0:0|0:0,0:0:0:0:
263,121,45788,1,8,0:0:0:0:
89,189,45953,1,0,0:0:0:0:
286,245,46118,6,0,B|349:239|349:239|387:212|387:212|459:205,1,175,2|8,0:0|0:0,0:0:0:0:
255,331,46612,1,0,0:0:0:0:
454,377,46777,2,0,P|446:333|437:291,1,87.5,2|0,0:0|0:0,0:0:0:0:
290,151,47107,2,0,P|279:193|272:236,1,87.5,8|0,0:0|0:0,0:0:0:0:
230,353,47436,5,2,0:0:0:0:
172,178,47601,1,0,0:0:0:0:
358,292,47766,1,8,0:0:0:0:
166,258,47931,2,0,L|147:141,1,87.5,0|2,0:0|0:0,0:0:0:0:
329,50,48261,2,0,L|314:136,1,87.5,2|8,0:0|0:0,0:0:0:0:
512,253,48590,6,0,P|443:203|361:224,1,175,6|0,0:0|0:0,0:0:0:0:
282,336,49085,2,0,P|274:292|265:250,1,87.5,8|0,0:0|0:0,0:0:0:0:
121,154,49414,1,2,0:0:0:0:
290,79,49579,1,0,0:0:0:0:
246,247,49744,1,8,0:0:0:0:
35,112,49909,6,0,P|103:62|185:83,1,175
246,247,50403,2,0,P|255:204|262:161,1,87.5,8|0,0:0|0:0,0:0:0:0:
102,331,50733,2,0,P|91:288|84:246,1,87.5,2|0,0:0|0:0,0:0:0:0:
246,247,51063,1,8,0:0:0:0:
121,154,51228,1,0,0:0:0:0:
343,115,51392,6,0,P|256:101|171:82,1,175,2|8,0:0|0:0,0:0:0:0:
400,39,51887,1,0,0:0:0:0:
312,208,52052,2,0,P|305:251|317:294,1,87.5,2|0,0:0|0:0,0:0:0:0:
431,163,52381,2,0,P|442:121|435:78,1,87.5,8|0,0:0|0:0,0:0:0:0:
215,128,52711,6,0,P|261:119|318:114,1,87.5,2|0,0:0|0:0,0:0:0:0:
95,114,53041,1,8,0:0:0:0:
101,235,53206,2,0,P|147:244|204:249,1,87.5,0|2,0:0|0:0,0:0:0:0:
330,210,53535,1,8,0:3:0:0:
330,210,53618,1,8,0:3:0:0:
330,210,53700,1,2,0:0:0:0:
120,336,53865,1,4,0:3:0:0:
279,380,54030,5,6,0:0:0:0:
279,380,54359,2,0,P|270:338|261:295,1,87.5,8|0,0:0|0:0,0:0:0:0:
335,123,54689,1,2,0:0:0:0:
214,196,54854,1,2,0:0:0:0:
428,262,55019,2,0,P|435:218|444:175,1,87.5,8|0,0:0|0:0,0:0:0:0:
453,60,55348,6,0,P|410:68|368:77,1,87.5,2|0,0:0|0:0,0:0:0:0:
199,143,55678,2,0,P|241:152|283:161,1,87.5,8|0,0:0|0:0,0:0:0:0:
336,243,56008,1,2,0:0:0:0:
256,60,56173,1,2,0:0:0:0:
134,203,56337,2,0,P|142:245|151:288,1,87.5,8|0,0:0|0:0,0:0:0:0:
151,288,56585,1,0,0:0:0:0:
151,288,56667,5,6,0:0:0:0:
107,384,56832,1,2,0:0:0:0:
114,210,56997,1,8,0:0:0:0:
261,300,57162,1,6,0:0:0:0:
261,300,57491,2,0,L|364:289,1,87.5,6|8,0:0|0:0,0:0:0:0:
493,153,57821,6,0,B|450:175|450:175|325:149,1,175,6|2,0:0|0:0,0:0:0:0:
222,49,58315,2,0,P|264:40|307:31,1,87.5,8|0,0:0|0:0,0:0:0:0:
141,172,58645,2,0,P|183:179|226:188,1,87.5,2|8,0:0|0:3,0:0:0:0:
95,98,58975,1,8,0:0:0:0:
61,125,59057,1,8,0:0:0:0:
47,165,59139,1,8,0:3:0:0:
56,208,59222,1,8,0:3:0:0:
87,238,59304,5,12,0:0:0:0:
196,82,59469,1,2,0:0:0:0:
276,261,59634,1,8,0:0:0:0:
141,172,59799,1,2,0:0:0:0:
312,95,59964,1,8,0:0:0:0:
163,294,60129,1,2,0:0:0:0:
351,186,60293,1,8,0:0:0:0:
306,356,60458,1,8,0:0:0:0:
403,171,60623,5,2,0:0:0:0:
403,171,60706,1,8,0:0:0:0:
403,171,60788,2,0,L|357:164,1,43.75,8|8,0:0|0:0,0:0:0:0:
248,121,60953,2,0,L|262:162,1,43.75,8|0,0:0|0:0,0:0:0:0:
286,266,61118,1,8,0:3:0:0:
286,266,61200,1,8,0:3:0:0:
286,266,61283,2,0,L|329:259,1,43.75,8|0,0:0|0:0,0:0:0:0:
448,279,61447,1,8,0:0:0:0:
442,293,61529,1,8,0:0:0:0:
437,307,61611,1,8,0:0:0:0:
432,322,61694,1,8,0:0:0:0:
427,336,61777,6,0,P|342:317|256:304,1,175,6|0,0:0|0:0,0:0:0:0:
130,214,62272,2,0,P|173:206|215:197,1,87.5,8|0,0:0|0:0,0:0:0:0:
371,119,62602,2,0,P|328:110|285:101,1,87.5,2|0,0:0|0:0,0:0:0:0:
150,95,62931,1,8,0:0:0:0:
268,11,63096,6,0,P|249:96|236:182,1,175
121,325,63590,2,0,P|113:281|104:239,1,87.5,8|0,0:0|0:0,0:0:0:0:
24,90,63920,2,0,P|15:132|8:176,1,87.5,2|0,0:0|0:0,0:0:0:0:
12,283,64250,1,8,0:0:0:0:
117,112,64414,1,0,0:0:0:0:
235,182,64579,6,0,P|226:224|219:268,1,87.5,2|0,0:0|0:0,0:0:0:0:
126,352,64909,1,8,0:0:0:0:
311,300,65074,2,0,B|391:275|391:336|487:312,1,175
343,384,65568,1,8,0:0:0:0:
447,231,65733,1,0,0:0:0:0:
316,112,65898,6,0,P|325:154|332:198,1,87.5,2|0,0:0|0:0,0:0:0:0:
331,197,66145,1,0,0:0:0:0:
331,197,66228,1,8,0:0:0:0:
167,289,66392,2,0,L|116:278,2,43.75,8|8|2,0:0|0:0|0:0,0:0:0:0:
330,337,66722,1,2,0:0:0:0:
259,205,66887,1,8,0:0:0:0:
98,363,67052,6,0,P|84:276|66:191,1,175,6|0,0:0|0:0,0:0:0:0:
259,205,67546,2,0,P|250:247|243:291,1,87.5,8|0,0:0|0:0,0:0:0:0:
150,43,67876,2,0,P|159:85|166:129,1,87.5,2|0,0:0|0:0,0:0:0:0:
161,243,68206,1,8,0:0:0:0:
382,311,68370,5,8,0:0:0:0:
382,311,68453,1,8,0:0:0:0:
382,311,68535,2,0,P|340:322|298:335,1,87.5,2|0,0:0|0:0,0:0:0:0:
200,200,68865,2,0,P|241:211|283:224,2,87.5,8|0|2,0:0|0:0|0:0,0:0:0:0:
356,157,69359,1,0,0:0:0:0:
222,298,69524,1,8,0:0:0:0:
143,136,69689,6,0,B|165:179|165:179|137:317,1,175
139,303,70101,1,0,0:0:0:0:
139,303,70184,1,8,0:0:0:0:
27,204,70348,2,0,L|-16:196,2,43.75,8|8|2,0:0|0:0|0:0,0:0:0:0:
53,29,70678,2,0,P|62:71|69:115,1,87.5,0|8,0:0|0:0,0:0:0:0:
159,211,71008,1,0,0:0:0:0:
190,57,71172,6,0,L|238:43,3,43.75,8|0|0|0,0:0|0:0|0:0|0:0,0:0:0:0:
295,134,71502,2,0,L|338:141,3,43.75,8|0|0|0,0:0|0:0|0:0|0:0,0:0:0:0:
385,42,71832,2,0,L|435:33,3,43.75,8|0|0|0,0:0|0:0|0:0|0:0,0:0:0:0:
512,90,72161,5,8,0:0:0:0:
507,122,72243,1,8,0:0:0:0:
502,154,72325,1,8,0:0:0:0:
497,187,72408,1,8,0:0:0:0:
493,219,72491,6,0,P|407:231|301:255,1,175,2|8,0:0|0:0,0:0:0:0:
219,327,72986,1,0,0:0:0:0:
212,175,73151,2,0,P|170:164|127:157,1,87.5,2|0,0:0|0:0,0:0:0:0:
23,281,73480,2,0,P|67:273|109:264,1,87.5,8|0,0:0|0:0,0:0:0:0:
275,249,73810,6,0,P|303:182|230:85,1,175,2|8,0:0|0:0,0:0:0:0:
95,72,74304,1,8,0:0:0:0:
95,72,74387,1,8,0:0:0:0:
95,72,74469,1,2,0:0:0:0:
212,175,74634,1,2,0:0:0:0:
238,5,74799,2,0,L|350:1,1,87.5,8|8,0:0|0:0,0:0:0:0:
343,14,75046,1,8,0:0:0:0:
357,30,75128,5,2,0:0:0:0:
212,175,75375,1,8,0:0:0:0:
191,179,75457,1,8,0:0:0:0:
171,183,75540,1,8,0:0:0:0:
150,186,75622,1,6,0:0:0:0:
134,190,75953,6,0,P|122:231|115:274,1,87.5,6|8,0:0|0:0,0:0:0:0:
264,382,76283,1,6,0:0:0:0:
264,382,76612,6,0,L|247:296,1,87.5,2|8,0:0|0:0,0:0:0:0:
377,161,76942,1,0,0:0:0:0:
377,161,77024,1,0,0:0:0:0:
377,161,77107,2,0,L|361:246,1,87.5,2|2,0:0|0:0,0:0:0:0:
512,356,77436,2,0,L|491:247,1,87.5,8|2,0:0|0:0,0:0:0:0:
482,84,77766,6,0,L|434:70,3,43.75,8|0|0|0,0:0|0:0|0:0|0:0,0:0:0:0:
377,161,78096,2,0,L|334:168,3,43.75,8|0|0|0,0:0|0:0|0:0|0:0,0:0:0:0:
287,69,78426,2,0,L|237:60,3,43.75,8|0|0|0,0:0|0:0|0:0|0:0,0:0:0:0:
160,117,78755,5,8,0:0:0:0:
165,149,78837,1,8,0:0:0:0:
170,181,78919,1,8,0:0:0:0:
175,214,79002,1,8,0:0:0:0:
180,247,79084,5,8,0:0:0:0:
66,314,80403,6,0,P|52:227|34:142,1,175,6|0,0:0|0:0,0:0:0:0:
237,70,80898,1,2,0:0:0:0:
92,59,81063,1,8,0:0:0:0:
195,174,81228,2,0,P|185:216|179:259,1,87.5
313,107,81557,6,0,P|370:44|455:49,1,175,2|8,0:0|0:0,0:0:0:0:
402,132,82052,1,0,0:0:0:0:
237,70,82216,1,2,0:0:0:0:
241,199,82381,6,0,P|273:235|321:236,1,98.4375037550928,8|0,0:0|0:0,0:0:0:0:
352,284,82711,6,0,L|191:250,1,164.0625,8|0,0:0|0:0,0:0:0:0:
20,172,83041,6,0,P|77:109|162:114,1,175,6|2,0:0|0:0,0:0:0:0:
114,192,83535,1,2,0:0:0:0:
96,300,83700,2,0,P|53:306|10:315,1,87.5,8|0,0:0|0:0,0:0:0:0:
228,320,84030,1,2,0:0:0:0:
308,148,84195,6,0,P|395:134|480:116,1,175,2|8,0:0|0:0,0:0:0:0:
312,256,84689,1,0,0:0:0:0:
204,92,84854,1,2,0:0:0:0:
115,200,85019,6,0,P|101:245|126:286,1,98.4375037550928,8|0,0:0|0:0,0:0:0:0:
55,338,85349,6,0,P|74:258|13:196,1,164.0625,8|0,0:0|0:0,0:0:0:0:
57,107,85678,2,0,L|0:115,2,58.3333333333333,12|8|8,0:0|0:0|0:0,0:0:0:0:
129,23,86008,2,0,L|72:16,2,58.3333333333333,8|8|8,0:0|0:3|0:3,0:0:0:0:
152,123,86337,1,8,0:3:0:0:
152,123,86447,2,0,L|209:115,1,58.3333333333333,4|12,0:3|0:3,0:0:0:0:
222,22,86667,1,4,0:3:0:0:
222,22,86777,2,0,L|280:30,1,58.3333333333333,2|2,0:0|0:0,0:0:0:0:
438,134,86997,6,0,P|394:127|351:118,1,87.5,6|8,0:0|0:0,0:0:0:0:
351,118,87244,1,8,0:0:0:0:
351,118,87326,1,2,0:0:0:0:
341,243,87491,2,0,P|301:225|261:205,1,87.5,6|8,0:0|0:0,0:0:0:0:
261,205,87738,1,8,0:0:0:0:
261,205,87820,1,2,0:0:0:0:
219,323,87986,2,0,P|185:295|152:266,1,87.5,6|8,0:0|0:0,0:0:0:0:
152,266,88233,1,8,0:0:0:0:
152,266,88315,1,8,0:3:0:0:
175,144,88480,5,4,0:3:0:0:
5,235,88645,1,8,0:0:0:0:
18,43,88810,1,6,0:0:0:0:
