osu file format v14

[General]
AudioFilename: audio.mp3
AudioLeadIn: 0
PreviewTime: 43150
Countdown: 0
SampleSet: Soft
StackLeniency: 0.7
Mode: 0
LetterboxInBreaks: 0
WidescreenStoryboard: 1

[Editor]
Bookmarks: 20482,31114,32844
DistanceSpacing: 1.6
BeatDivisor: 4
GridSize: 32
TimelineZoom: 2.2

[Metadata]
Title:STARTING NOW!
TitleUnicode:STARTING NOW!
Artist:Mizuki Nana
ArtistUnicode:水樹 奈々
Creator:ShogunMoon
Version:Hard
Source:この美術部には問題がある!
Tags:Kono Bijutsubu ni wa Mondai ga Aru! opening anime tv size op dtm9_nowa kagetsu shirakai kacha icontrol world_fraction [-Yuno-] このび Konobi 藤田卓也 Fujita Takuya 藤田淳平 Fujita Junpei Elements Garden NEOGENE CREATION
BeatmapID:1052291
BeatmapSetID:481570

[Difficulty]
HPDrainRate:5
CircleSize:4
OverallDifficulty:6
ApproachRate:8
SliderMultiplier:1
SliderTickRate:1

[Events]
//Background and Video events
Video,705,"opening.avi"
0,0,"1366x768.jpg",0,0
//Break Periods
//Storyboard Layer 0 (Background)
//Storyboard Layer 1 (Fail)
//Storyboard Layer 2 (Pass)
//Storyboard Layer 3 (Foreground)
//Storyboard Sound Samples

[TimingPoints]
1217,371.517027863777,4,2,1,40,1,0
1960,329.67032967033,4,2,1,40,1,0
2289,289.855072463768,4,2,1,40,1,0
2433,314.13612565445,4,2,1,40,1,0
2904,335.195530726257,4,2,1,40,1,0
3574,346.820809248555,4,2,1,40,1,0
3920,329.67032967033,4,2,1,40,1,0
3920,-90.9090909090909,4,2,1,40,0,0
5073,-90.9090909090909,4,2,1,50,0,0
5568,-90.9090909090909,4,2,1,60,0,0
5898,-90.9090909090909,4,2,1,70,0,0
6557,-90.9090909090909,4,2,1,80,0,0
32930,-90.9090909090909,4,2,1,80,0,0
37711,-90.9090909090909,4,2,10,80,0,0
37876,-90.9090909090909,4,2,1,80,0,0
43315,-90.9090909090909,4,2,10,80,0,1
54029,-90.9090909090909,4,2,10,80,0,0
59304,-90.9090909090909,4,2,10,80,0,1
61694,-90.9090909090909,4,2,10,80,0,0
61777,-90.9090909090909,4,2,10,80,0,1
72491,-90.9090909090909,4,2,10,80,0,0
78260,-90.9090909090909,4,2,10,40,0,0
89634,-90.9090909090909,4,2,10,30,0,0

[Colours]
Combo1 : 255,23,29
Combo2 : 255,255,119
Combo3 : 0,210,0
Combo4 : 255,128,0
Combo5 : 119,87,64
Combo6 : 255,164,209
Combo7 : 53,154,255
Combo8 : 255,217,236

[HitObjects]
48,79,3920,6,0,B|125:96|125:96|175:80,1,110.000003356934
306,62,4579,2,0,P|297:110|305:185,1,110.000003356934
365,216,5073,6,0,L|234:225,1,110.000003356934
187,186,5568,2,0,L|127:180,1,55.0000016784668
56,195,5898,2,0,P|44:256|58:321,1,110.000003356934
116,343,6392,1,0,0:0:0:0:
191,327,6557,6,0,P|248:318|317:329,1,110.000003356934,4|0,0:1|0:0,0:0:0:0:
367,360,7051,1,0,0:0:0:0:
299,323,7216,2,0,L|306:268,1,55.0000016784668,8|0,0:0|0:0,0:0:0:0:
368,222,7546,1,0,0:0:0:0:
428,174,7711,6,0,L|439:60,1,110.000003356934,0|8,0:0|0:0,0:0:0:0:
373,23,8205,1,0,0:0:0:0:
295,25,8370,1,0,0:0:0:0:
232,69,8535,2,0,P|191:81|115:54,1,110.000003356934,8|8,0:0|0:0,0:0:0:0:
15,169,9194,6,0,L|21:289,1,110.000003356934,4|0,0:1|0:0,0:0:0:0:
63,343,9689,1,0,0:0:0:0:
122,293,9854,2,0,P|150:289|182:292,1,55.0000016784668,8|0,0:0|0:0,0:0:0:0:
251,272,10184,1,0,0:0:0:0:
309,321,10348,2,0,P|355:349|419:338,1,110.000003356934,0|8,0:0|0:0,0:0:0:0:
373,261,10843,1,0,0:0:0:0:
373,261,11008,1,0,0:0:0:0:
379,183,11172,2,0,L|369:72,1,110.000003356934,8|8,0:0|0:0,0:0:0:0:
221,27,11832,6,0,B|210:136,1,110.000003356934,0|8,0:0|0:0,0:0:0:0:
174,204,12326,1,0,0:0:0:0:
132,268,12491,2,0,L|142:346,1,55.0000016784668
214,338,12821,2,0,P|244:333|277:340,1,55.0000016784668,8|0,0:0|0:0,0:0:0:0:
344,351,13151,6,0,L|469:344,1,110.000003356934,0|8,0:0|0:0,0:0:0:0:
483,273,13645,1,0,0:0:0:0:
455,201,13810,2,0,B|445:171|445:171|453:133,1,55.0000016784668
380,114,14139,2,0,L|366:172,1,55.0000016784668,8|0,0:0|0:0,0:0:0:0:
307,216,14469,6,0,P|251:229|198:211,1,110.000003356934,0|8,0:0|0:0,0:0:0:0:
138,169,14964,1,0,0:0:0:0:
86,225,15128,2,0,L|91:297,1,55.0000016784668
12,273,15458,2,0,L|8:203,1,55.0000016784668,8|0,0:0|0:0,0:0:0:0:
35,145,15788,6,0,B|27:68|27:68|51:24,1,110.000003356934,0|8,0:0|0:0,0:0:0:0:
118,22,16283,1,0,0:0:0:0:
182,62,16447,2,0,P|213:67|253:59,1,55.0000016784668
312,49,16777,2,0,L|308:124,1,55.0000016784668,8|0,0:0|0:0,0:0:0:0:
365,156,17106,1,0,0:0:0:0:
395,307,17436,6,0,L|283:292,1,110.000003356934,8|0,0:0|0:0,0:0:0:0:
212,318,17931,1,0,0:0:0:0:
150,271,18096,2,0,P|145:237|150:197,1,55.0000016784668,8|0,0:0|0:0,0:0:0:0:
200,162,18425,6,0,P|204:107|193:49,1,110.000003356934,0|8,0:0|0:0,0:0:0:0:
121,28,18920,2,0,L|64:32,1,55.0000016784668
16,91,19250,1,0,0:0:0:0:
16,91,19414,1,8,0:0:0:0:
92,162,19579,6,0,B|101:221|101:221|92:272,1,110.000003356934,4|0,0:1|0:0,0:0:0:0:
44,331,20074,1,8,0:0:0:0:
125,358,20239,1,0,0:0:0:0:
125,358,20321,1,0,0:0:0:0:
125,358,20403,2,0,L|201:352,1,55.0000016784668,8|8,0:0|0:0,0:0:0:0:
243,308,20733,2,0,B|235:277|235:277|242:249,1,55.0000016784668
293,198,21062,6,0,L|282:127,2,55.0000016784668,0|0|8,0:0|0:0|0:0,0:0:0:0:
374,249,21557,1,8,0:0:0:0:
374,249,21639,1,8,0:0:0:0:
374,249,21722,2,0,L|436:246,1,55.0000016784668,8|8,0:0|0:0,0:0:0:0:
491,201,22051,1,8,0:0:0:0:
472,126,22216,2,0,B|477:52|477:52|452:15,1,110.000003356934,2|0,0:0|0:0,0:0:0:0:
379,17,22711,5,8,0:0:0:0:
379,17,22876,1,0,0:0:0:0:
303,34,23041,2,0,L|295:101,1,55.0000016784668
232,130,23370,2,0,L|241:206,1,55.0000016784668,8|0,0:0|0:0,0:0:0:0:
295,237,23700,6,0,P|248:260|184:240,1,110.000003356934,0|8,0:0|0:0,0:0:0:0:
117,238,24194,2,0,L|133:348,1,110.000003356934
208,364,24689,1,8,0:0:0:0:
275,326,24854,1,0,0:0:0:0:
343,360,25018,6,0,P|391:370|452:355,1,110.000003356934,0|8,0:0|0:0,0:0:0:0:
498,296,25513,1,0,0:0:0:0:
438,246,25678,2,0,L|367:238,1,55.0000016784668
335,179,26008,2,0,L|265:185,1,55.0000016784668,8|0,0:0|0:0,0:0:0:0:
208,155,26337,2,0,P|192:100|211:46,1,110.000003356934,0|8,0:0|0:0,0:0:0:0:
280,25,26832,1,0,0:0:0:0:
350,53,26996,1,0,0:0:0:0:
422,28,27161,1,0,0:0:0:0:
490,62,27326,2,0,L|481:138,1,55.0000016784668,8|0,0:0|0:0,0:0:0:0:
420,161,27656,6,0,B|431:286,1,110.000003356934,0|8,0:0|0:0,0:0:0:0:
384,333,28151,1,0,0:0:0:0:
310,311,28315,2,0,L|307:378,1,55.0000016784668
231,352,28645,1,8,0:0:0:0:
154,353,28810,1,0,0:0:0:0:
102,296,28974,6,0,L|104:238,1,55.0000016784668
127,209,29222,1,8,0:0:0:0:
127,209,29304,1,8,0:0:0:0:
77,136,29469,2,0,B|64:69|64:69|81:22,1,110.000003356934
140,74,29963,1,0,0:0:0:0:
211,45,30128,6,0,B|284:21|303:89|381:41,1,165.000005035401,4|8,0:0|0:0,0:0:0:0:
447,34,30788,1,0,0:0:0:0:
477,104,30952,2,0,P|495:151|474:209,1,110.000003356934,0|8,0:0|0:0,0:0:0:0:
404,177,31447,1,0,0:0:0:0:
341,221,31612,6,0,L|345:279,1,55.0000016784668
386,341,31942,1,8,0:0:0:0:
312,364,32107,2,0,P|280:368|253:362,1,55.0000016784668,0|8,0:0|0:0,0:0:0:0:
195,319,32436,1,0,0:0:0:0:
171,245,32601,1,8,0:0:0:0:
225,190,32766,1,0,0:0:0:0:
282,139,32930,6,0,B|286:89|286:89|257:34,1,110.000003356934,4|8,0:1|0:0,0:0:0:0:
180,40,33425,1,0,0:0:0:0:
133,101,33590,2,0,L|142:234,1,110.000003356934,0|8,0:0|0:0,0:0:0:0:
104,360,34249,2,0,B|57:366|57:366|-5:342,2,110.000003356934
153,301,35073,1,0,0:0:0:0:
120,232,35239,1,8,0:0:0:0:
122,155,35403,1,0,0:0:0:0:
165,91,35568,6,0,P|213:71|282:87,1,110.000003356934,0|8,0:0|0:0,0:0:0:0:
338,112,36062,1,0,0:0:0:0:
410,85,36228,2,0,L|404:203,1,110.000003356934,0|8,0:0|0:0,0:0:0:0:
445,261,36722,1,0,0:0:0:0:
397,321,36887,2,0,P|347:353|290:344,2,110.000003356934
330,270,37711,1,2,0:0:0:0:
330,270,37793,1,2,0:0:0:0:
330,270,37876,1,8,0:0:0:0:
368,186,38040,1,0,0:0:0:0:
412,123,38205,6,0,P|355:109|304:138,1,110.000003356934,0|8,0:0|0:0,0:0:0:0:
240,162,38700,1,0,0:0:0:0:
166,139,38865,2,0,L|100:141,1,55.0000016784668
97,217,39194,2,0,L|162:215,1,55.0000016784668,8|0,0:0|0:0,0:0:0:0:
220,252,39524,6,0,P|230:298|232:367,1,110.000003356934,0|8,0:0|0:0,0:0:0:0:
309,355,40019,1,0,0:0:0:0:
374,291,40184,1,8,0:0:0:0:
374,291,40266,1,8,0:0:0:0:
374,291,40348,2,0,L|366:254,4,27.5000008392334,8|0|0|0|0,0:0|0:0|0:0|0:0|0:0,0:0:0:0:
452,318,40843,1,0,0:0:0:0:
256,192,40925,12,0,42821,0:0:0:0:
376,34,43315,6,0,P|381:88|364:154,1,110.000003356934
326,207,43810,2,0,L|265:213,1,55.0000016784668,8|0,0:0|0:0,0:0:0:0:
357,281,44140,2,0,L|419:290,1,55.0000016784668
474,349,44469,1,8,0:0:0:0:
387,363,44634,6,0,L|267:340,1,110.000003356934,0|0,0:1|0:0,0:0:0:0:
198,304,45129,2,0,L|138:288,1,55.0000016784668,8|0,0:0|0:0,0:0:0:0:
203,196,45458,2,0,L|274:186,1,55.0000016784668
345,182,45788,1,8,0:0:0:0:
429,207,45953,1,0,0:0:0:0:
502,158,46117,6,0,P|520:105|494:39,2,110.000003356934,0|8|0,0:0|0:0|0:0,0:0:0:0:
434,101,46942,1,0,0:0:0:0:
347,117,47107,2,0,L|275:121,1,55.0000016784668,8|0,0:0|0:0,0:0:0:0:
220,68,47436,6,0,L|106:73,1,110.000003356934,0|8,0:0|0:0,0:0:0:0:
31,113,47931,2,0,P|16:165|35:230,1,110.000003356934
108,253,48425,1,8,0:0:0:0:
102,340,48590,6,0,L|218:331,1,110.000003356934,4|0,0:1|0:0,0:0:0:0:
264,261,49085,2,0,L|250:203,1,55.0000016784668,8|0,0:0|0:0,0:0:0:0:
347,261,49414,2,0,L|342:333,1,55.0000016784668
416,365,49744,1,8,0:0:0:0:
468,293,49909,6,0,L|459:172,1,110.000003356934
459,95,50403,2,0,L|519:78,1,55.0000016784668,8|0,0:0|0:0,0:0:0:0:
414,26,50733,2,0,L|352:12,1,55.0000016784668
274,35,51063,1,8,0:0:0:0:
189,10,51228,1,0,0:0:0:0:
112,53,51392,6,0,P|99:100|116:157,2,110.000003356934,0|8|0,0:0|0:0|0:0,0:0:0:0:
187,102,52217,1,0,0:0:0:0:
241,170,52381,2,0,L|233:241,1,55.0000016784668,8|0,0:0|0:0,0:0:0:0:
162,251,52711,2,0,L|175:371,1,110.000003356934,0|8,0:0|0:0,0:0:0:0:
248,378,53205,6,0,P|311:366|374:380,1,110.000003356934
433,378,53700,1,8,0:0:0:0:
499,338,53865,1,0,0:0:0:0:
467,268,54029,6,0,B|452:232|452:232|465:149,1,110.000003356934,4|8,0:1|0:0,0:0:0:0:
489,88,54524,1,0,0:0:0:0:
436,31,54689,2,0,L|370:38,1,55.0000016784668
315,78,55019,2,0,L|249:70,1,55.0000016784668,8|0,0:0|0:0,0:0:0:0:
203,123,55348,6,0,P|185:174|202:225,1,110.000003356934,0|8,0:0|0:0,0:0:0:0:
251,285,55843,1,0,0:0:0:0:
185,324,56007,2,0,L|64:306,1,110.000003356934,0|8,0:0|0:0,0:0:0:0:
42,239,56502,1,0,0:0:0:0:
0,174,56667,6,0,L|12:295,1,110.000003356934,0|8,0:0|0:0,0:0:0:0:
21,359,57161,1,0,0:0:0:0:
128,248,57491,2,0,L|194:245,1,55.0000016784668
251,282,57821,6,0,P|309:270|338:217,1,110.000003356934
299,162,58315,2,0,L|288:100,1,55.0000016784668,8|0,0:0|0:0,0:0:0:0:
365,62,58645,2,0,L|378:131,1,55.0000016784668,0|8,0:0|0:0,0:0:0:0:
438,177,58974,1,8,0:0:0:0:
438,177,59057,1,0,0:0:0:0:
438,177,59139,1,0,0:0:0:0:
438,254,59304,6,0,L|368:258,1,55.0000016784668,8|0,0:0|0:0,0:0:0:0:
326,310,59634,2,0,L|257:306,1,55.0000016784668,8|0,0:0|0:0,0:0:0:0:
196,327,59963,2,0,L|132:325,1,55.0000016784668,8|0,0:0|0:0,0:0:0:0:
87,270,60293,2,0,L|91:212,1,55.0000016784668,8|0,0:0|0:0,0:0:0:0:
17,189,60623,6,0,L|12:124,2,55.0000016784668,8|0|8,0:0|0:0|0:0,0:0:0:0:
100,161,61118,1,0,0:0:0:0:
100,161,61200,1,0,0:0:0:0:
100,161,61283,2,0,L|89:233,2,55.0000016784668,8|0|8,0:0|0:0|0:0,0:0:0:0:
162,99,61777,6,0,P|207:83|278:99,1,110.000003356934,4|0,0:1|0:0,0:0:0:0:
337,140,62272,2,0,L|345:210,1,55.0000016784668,8|0,0:0|0:0,0:0:0:0:
425,120,62602,2,0,L|431:53,1,55.0000016784668
355,17,62931,1,8,0:0:0:0:
267,24,63096,6,0,B|213:45|213:45|153:34,1,110.000003356934
78,61,63590,2,0,L|12:45,1,55.0000016784668,8|0,0:0|0:0,0:0:0:0:
73,148,63920,2,0,L|140:133,1,55.0000016784668
212,115,64250,1,8,0:0:0:0:
299,117,64414,1,0,0:0:0:0:
378,154,64579,6,0,P|396:207|373:273,2,110.000003356934,0|8|0,0:0|0:0|0:0,0:0:0:0:
383,66,65403,2,0,L|323:55,1,55.0000016784668,0|8,0:0|0:0,0:0:0:0:
250,14,65733,2,0,L|138:20,1,110.000003356934
63,64,66228,1,8,0:0:0:0:
29,144,66392,2,0,B|9:203|9:203|29:257,1,110.000003356934
90,307,66887,1,8,0:0:0:0:
136,381,67052,6,0,L|254:375,1,110.000003356934,4|0,0:1|0:0,0:0:0:0:
323,333,67546,2,0,L|380:340,1,55.0000016784668,8|0,0:0|0:0,0:0:0:0:
315,249,67876,2,0,L|254:258,1,55.0000016784668
176,229,68206,1,8,0:0:0:0:
114,166,68370,6,0,P|95:123|111:51,1,110.000003356934
182,19,68865,2,0,L|237:24,1,55.0000016784668,8|0,0:0|0:0,0:0:0:0:
319,97,69195,2,0,L|253:105,1,55.0000016784668
216,177,69524,1,8,0:0:0:0:
155,241,69689,6,0,P|152:295|182:343,1,110.000003356934
269,354,70184,2,0,L|339:347,1,55.0000016784668,8|0,0:0|0:0,0:0:0:0:
390,290,70513,2,0,L|465:282,1,55.0000016784668,2|0,0:0|0:0,0:0:0:0:
493,210,70843,1,8,0:0:0:0:
437,141,71008,1,0,0:0:0:0:
437,141,71090,1,0,0:0:0:0:
437,141,71172,6,0,P|431:113|435:79,1,55.0000016784668,2|0,0:0|0:0,0:0:0:0:
367,26,71502,1,8,0:0:0:0:
300,83,71667,2,0,P|267:88|233:79,1,55.0000016784668,0|8,0:0|0:0,0:0:0:0:
166,45,71996,2,8,L|156:8,2,27.5000008392334
118,123,72326,1,8,0:0:0:0:
118,123,72409,1,8,0:0:0:0:
118,123,72491,6,0,L|111:196,1,55.0000016784668,8|0,0:0|0:0,0:0:0:0:
176,241,72821,2,0,P|225:262|278:251,1,110.000003356934,8|0,0:0|0:0,0:0:0:0:
350,201,73315,1,0,0:0:0:0:
387,280,73480,2,0,L|394:358,1,55.0000016784668,8|0,0:0|0:0,0:0:0:0:
470,293,73810,6,0,L|477:232,2,55.0000016784668,0|0|8,0:0|0:0|0:0,0:0:0:0:
391,334,74304,1,0,0:0:0:0:
303,346,74469,2,0,L|233:352,1,55.0000016784668
203,274,74799,1,8,0:0:0:0:
126,330,74963,1,2,0:0:0:0:
126,330,75046,1,8,0:0:0:0:
126,330,75128,6,0,P|120:266|81:213,1,110.000003356934,0|8,0:0|0:0,0:0:0:0:
132,146,75623,2,0,P|132:112|145:71,1,55.0000016784668
208,40,75953,2,0,P|217:66|220:113,1,55.0000016784668,0|8,0:0|0:0,0:0:0:0:
302,128,76283,6,0,P|363:136|416:106,1,110.000003356934
454,42,76777,1,8,0:0:0:0:
502,115,76942,1,0,0:0:0:0:
502,115,77107,2,0,P|496:143|504:187,1,55.0000016784668
439,234,77436,2,0,P|446:267|437:304,1,55.0000016784668,8|0,0:0|0:0,0:0:0:0:
367,334,77766,6,0,L|249:332,1,110.000003356934,0|8,0:0|0:0,0:0:0:0:
211,262,78260,1,8,0:0:0:0:
211,262,78343,1,8,0:0:0:0:
211,262,78425,2,8,L|167:261,3,27.5000008392334
149,242,78755,2,8,L|104:239,3,27.5000008392334
86,222,79085,5,8,0:0:0:0:
472,41,80403,6,0,B|482:101|482:101|470:153,1,110.000003356934,4|0,0:0|0:0,0:0:0:0:
438,219,80898,1,0,0:0:0:0:
373,260,81062,2,0,L|253:262,1,110.000003356934,8|0,0:0|0:0,0:0:0:0:
226,195,81557,6,0,P|245:138|235:85,1,110.000003356934,0|8,0:0|0:0,0:0:0:0:
172,47,82051,2,0,L|95:22,1,55.0000016784668
47,58,82381,2,0,B|33:114|33:114|39:167,1,110.000003356934,8|8,0:0|0:0,0:0:0:0:
79,232,82876,1,0,0:0:0:0:
123,295,83040,6,0,L|249:291,1,110.000003356934
288,237,83535,1,0,0:0:0:0:
320,319,83700,2,0,L|456:312,1,110.000003356934,8|0,0:0|0:0,0:0:0:0:
456,240,84194,6,0,P|468:185|440:136,1,110.000003356934,0|8,0:0|0:0,0:0:0:0:
392,197,84689,2,0,L|325:193,1,55.0000016784668
299,125,85018,2,0,B|245:122|245:122|218:130|218:130|170:123,1,110.000003356934,8|8,0:0|0:0,0:0:0:0:
113,123,85513,1,0,0:0:0:0:
92,203,85678,6,0,L|147:198,5,36.6666677856446,0|0|0|8|0|0,0:0|0:0|0:0|0:0|0:0|0:0,0:0:0:0:
176,217,86337,2,0,L|223:222,5,36.6666677856446,0|0|0|8|0|0,0:0|0:0|0:0|0:0|0:0|0:0,0:0:0:0:
263,209,86996,6,0,L|390:189,1,110.000003356934,4|0,0:1|0:0,0:0:0:0:
432,143,87491,2,0,L|316:158,1,110.000003356934,4|0,0:1|0:0,0:0:0:0:
275,95,87986,2,0,L|152:82,1,110.000003356934,8|0,0:0|0:0,0:0:0:0:
118,22,88480,5,4,0:1:0:0:
41,30,88645,1,8,0:0:0:0:
22,105,88810,2,0,B|-14:166|35:218|35:218|14:261|14:261|53:307|15:371,1,275.000008392334,4|0,0:3|0:0,0:0:0:0:
