osu file format v14

[General]
AudioFilename: audio.mp3
AudioLeadIn: 0
PreviewTime: 43150
Countdown: 0
SampleSet: Normal
StackLeniency: 0.7
Mode: 1
LetterboxInBreaks: 0
WidescreenStoryboard: 0

[Editor]
Bookmarks: 64361,65186,85131,85543
DistanceSpacing: 0.9
BeatDivisor: 4
GridSize: 4
TimelineZoom: 2.199998

[Metadata]
Title:STARTING NOW!
TitleUnicode:STARTING NOW!
Artist:Mizuki Nana
ArtistUnicode:水樹 奈々
Creator:ShogunMoon
Version:Fraction's Oni
Source:この美術部には問題がある!
Tags:Kono Bijutsubu ni wa Mondai ga Aru! opening anime tv size op dtm9_nowa kagetsu shirakai kacha icontrol world_fraction [-Yuno-] このび Konobi 藤田卓也 Fujita Takuya 藤田淳平 Fujita Junpei Elements Garden NEOGENE CREATION
BeatmapID:1064793
BeatmapSetID:481570

[Difficulty]
HPDrainRate:5
CircleSize:2
OverallDifficulty:5
ApproachRate:8.5
SliderMultiplier:1.4
SliderTickRate:1

[Events]
//Background and Video events
0,0,"1366x768.jpg",0,25
//Break Periods
//Storyboard Layer 0 (Background)
//Storyboard Layer 1 (Fail)
//Storyboard Layer 2 (Pass)
//Storyboard Layer 3 (Foreground)
//Storyboard Sound Samples

[TimingPoints]
1217,371.517027863777,4,1,0,70,1,0
1960,329.67032967033,4,1,0,70,1,0
1960,-111.111111111111,4,1,0,70,0,0
2289,289.855072463768,4,1,0,70,1,0
2289,-121.951219512195,4,1,0,70,0,0
2433,314.13612565445,4,1,0,70,1,0
2433,-112.359550561798,4,1,0,70,0,0
2904,335.195530726257,4,1,0,70,1,0
2904,-103.092783505155,4,1,0,70,0,0
3574,346.820809248555,4,1,0,70,1,0
3574,-95.2380952380952,4,1,0,70,0,0
3920,329.67032967033,4,1,0,70,1,0
32930,-133.333333333333,4,1,0,70,0,0
38205,-100,4,1,0,70,0,0
43315,-100,4,1,0,70,0,1
54029,-100,4,1,0,70,0,0
61694,-100,4,1,0,70,0,0
61777,-100,4,1,0,70,0,1
72491,-100,4,1,0,70,0,0

[Colours]
Combo1 : 255,45,50
Combo2 : 255,255,43
Combo3 : 0,198,50
Combo4 : 255,128,0
Combo5 : 169,165,168
Combo6 : 255,128,192
Combo7 : 15,135,255
Combo8 : 255,217,255

[HitObjects]
228,192,1217,5,0,0:0:0:0:
208,112,1588,5,8,0:0:0:0:
144,144,1960,1,0,0:0:0:0:
192,164,2289,1,0,0:0:0:0:
144,144,2433,1,0,0:0:0:0:
192,164,2747,1,0,0:0:0:0:
192,164,2904,1,8,0:0:0:0:
176,112,3071,1,0,0:0:0:0:
176,112,3239,1,8,0:0:0:0:
228,192,3920,5,0,0:0:0:0:
208,112,4249,5,0,0:0:0:0:
256,136,4414,1,0,0:0:0:0:
192,164,4579,1,0,0:0:0:0:
192,164,4909,1,0,0:0:0:0:
144,144,5073,1,0,0:0:0:0:
192,164,5403,1,0,0:0:0:0:
192,164,5568,1,8,0:0:0:0:
176,112,5733,1,0,0:0:0:0:
176,112,5898,1,8,0:0:0:0:
292,296,6557,1,12,0:0:0:0:
208,112,6887,5,0,0:0:0:0:
192,164,7052,1,0,0:0:0:0:
192,164,7217,1,8,0:0:0:0:
180,112,7381,1,8,0:0:0:0:
192,164,7546,1,0,0:0:0:0:
144,144,7711,1,0,0:0:0:0:
192,164,8041,1,0,0:0:0:0:
192,164,8206,1,8,0:0:0:0:
176,112,8370,1,8,0:0:0:0:
176,112,8535,1,0,0:0:0:0:
280,144,8865,1,12,0:0:0:0:
172,148,9195,1,0,0:0:0:0:
228,56,9524,1,8,0:0:0:0:
192,164,9689,1,0,0:0:0:0:
192,164,9854,1,0,0:0:0:0:
180,112,10019,1,8,0:0:0:0:
192,164,10184,1,0,0:0:0:0:
144,144,10348,1,0,0:0:0:0:
192,164,10678,1,0,0:0:0:0:
192,164,10843,1,8,0:0:0:0:
176,112,11008,1,8,0:0:0:0:
224,136,11173,1,0,0:0:0:0:
284,156,11337,1,0,0:0:0:0:
280,120,11502,1,4,0:0:0:0:
232,216,11832,1,4,0:0:0:0:
232,216,12162,1,8,0:0:0:0:
184,192,12491,1,0,0:0:0:0:
184,192,12656,1,0,0:0:0:0:
184,192,12821,1,8,0:0:0:0:
184,192,13151,1,0,0:0:0:0:
132,172,13480,1,8,0:0:0:0:
176,168,13810,1,0,0:0:0:0:
176,168,13975,1,0,0:0:0:0:
176,168,14140,1,8,0:0:0:0:
132,172,14469,1,0,0:0:0:0:
132,172,14799,1,8,0:0:0:0:
132,172,15129,1,0,0:0:0:0:
132,172,15293,1,0,0:0:0:0:
132,172,15458,1,8,0:0:0:0:
236,136,15788,1,0,0:0:0:0:
276,240,16118,1,8,0:0:0:0:
272,132,16447,1,0,0:0:0:0:
272,188,16612,1,8,0:0:0:0:
272,188,16777,1,8,0:0:0:0:
172,228,17107,1,0,0:0:0:0:
172,228,17436,1,8,0:0:0:0:
224,232,17766,1,0,0:0:0:0:
224,232,17931,1,0,0:0:0:0:
184,196,18096,1,8,0:0:0:0:
184,212,18425,1,0,0:0:0:0:
228,180,18590,1,8,0:0:0:0:
268,144,18755,1,8,0:0:0:0:
268,144,18920,1,0,0:0:0:0:
372,168,19250,1,8,0:0:0:0:
300,136,19414,1,0,0:0:0:0:
252,112,19579,1,8,0:0:0:0:
296,212,19909,1,8,0:0:0:0:
188,196,20239,1,0,0:0:0:0:
160,192,20321,1,0,0:0:0:0:
160,192,20403,1,8,0:0:0:0:
160,192,20568,1,8,0:0:0:0:
160,192,20733,1,0,0:0:0:0:
108,180,20898,1,8,0:0:0:0:
160,192,21063,1,0,0:0:0:0:
196,152,21228,1,0,0:0:0:0:
196,152,21310,1,0,0:0:0:0:
196,152,21392,1,8,0:0:0:0:
196,152,21475,1,8,0:0:0:0:
196,152,21557,1,0,0:0:0:0:
196,152,21640,1,0,0:0:0:0:
196,152,21722,1,8,0:0:0:0:
196,152,21804,1,8,0:0:0:0:
196,152,21887,1,0,0:0:0:0:
196,152,21969,1,0,0:0:0:0:
220,132,22052,1,8,0:0:0:0:
196,152,22217,1,4,0:0:0:0:
196,152,22546,1,0,0:0:0:0:
196,152,22711,1,8,0:0:0:0:
268,224,23041,1,0,0:0:0:0:
268,224,23206,1,0,0:0:0:0:
268,224,23370,1,8,0:0:0:0:
188,156,23700,1,0,0:0:0:0:
232,184,24030,1,8,0:0:0:0:
232,188,24359,1,0,0:0:0:0:
180,184,24524,1,8,0:0:0:0:
124,184,24689,1,8,0:0:0:0:
12,184,25019,1,0,0:0:0:0:
16,180,25348,1,8,0:0:0:0:
68,188,25678,1,0,0:0:0:0:
272,128,25843,1,0,0:0:0:0:
272,128,26008,1,8,0:0:0:0:
124,184,26337,1,8,0:0:0:0:
12,184,26667,1,8,0:0:0:0:
68,184,26832,1,8,0:0:0:0:
200,96,26914,1,0,0:0:0:0:
16,180,26997,1,0,0:0:0:0:
264,180,27161,1,0,0:0:0:0:
264,180,27326,1,0,0:0:0:0:
16,180,27491,1,8,0:0:0:0:
68,188,27656,1,0,0:0:0:0:
16,180,27986,1,8,0:0:0:0:
68,188,28315,1,0,0:0:0:0:
16,180,28480,1,0,0:0:0:0:
68,188,28645,1,8,0:0:0:0:
68,188,28810,1,0,0:0:0:0:
16,180,28975,1,8,0:0:0:0:
68,188,29140,1,0,0:0:0:0:
68,188,29304,1,8,0:0:0:0:
92,176,29387,1,8,0:0:0:0:
16,180,29469,1,8,0:0:0:0:
68,188,29634,1,0,0:0:0:0:
68,188,29799,1,8,0:0:0:0:
120,184,29964,1,0,0:0:0:0:
172,176,30129,1,4,0:0:0:0:
232,88,30458,1,0,0:0:0:0:
204,132,30623,1,8,0:0:0:0:
180,84,30788,1,8,0:0:0:0:
156,68,30870,1,8,0:0:0:0:
172,44,30953,1,0,0:0:0:0:
156,68,31283,1,8,0:0:0:0:
264,176,31447,1,8,0:0:0:0:
212,168,31612,1,0,0:0:0:0:
172,44,31942,1,8,0:0:0:0:
172,44,32024,1,8,0:0:0:0:
172,44,32107,1,0,0:0:0:0:
176,96,32272,1,0,0:0:0:0:
180,204,32601,1,4,0:0:0:0:
144,104,32931,1,12,0:0:0:0:
164,172,33425,1,0,0:0:0:0:
88,80,33590,1,0,0:0:0:0:
160,112,33755,1,0,0:0:0:0:
184,188,33920,1,8,0:0:0:0:
184,188,34250,1,0,0:0:0:0:
176,112,34744,1,0,0:0:0:0:
176,112,34909,1,0,0:0:0:0:
176,112,35074,1,0,0:0:0:0:
208,156,35239,1,8,0:0:0:0:
244,228,35568,1,0,0:0:0:0:
208,208,36063,1,8,0:0:0:0:
324,208,36228,1,0,0:0:0:0:
284,208,36392,1,0,0:0:0:0:
244,228,36557,1,8,0:0:0:0:
172,168,36887,1,0,0:0:0:0:
136,152,37052,1,0,0:0:0:0:
184,132,37381,1,8,0:0:0:0:
164,84,37546,1,0,0:0:0:0:
208,52,37711,1,0,0:0:0:0:
212,80,37793,1,0,0:0:0:0:
216,108,37876,1,8,0:0:0:0:
232,164,38206,1,0,0:0:0:0:
272,180,38370,1,0,0:0:0:0:
272,180,38535,1,8,0:0:0:0:
220,172,38700,1,8,0:0:0:0:
168,164,38865,1,0,0:0:0:0:
168,164,39030,1,0,0:0:0:0:
168,164,39195,1,8,0:0:0:0:
168,164,39524,1,0,0:0:0:0:
168,164,39689,1,0,0:0:0:0:
168,164,39854,1,8,0:0:0:0:
168,164,40018,1,8,0:0:0:0:
168,164,40184,1,8,0:0:0:0:
216,136,40265,1,8,0:0:0:0:
216,136,40348,1,0,0:0:0:0:
192,124,40430,1,8,0:0:0:0:
160,136,40513,1,0,0:0:0:0:
132,140,40678,1,0,0:0:0:0:
252,172,40760,1,0,0:0:0:0:
264,172,40843,1,12,0:0:0:0:
208,168,41008,1,0,0:0:0:0:
212,172,41173,1,0,0:0:0:0:
288,196,41337,1,12,0:0:0:0:
264,172,41502,1,0,0:0:0:0:
304,168,41667,1,0,0:0:0:0:
232,144,41832,1,8,0:0:0:0:
216,136,41996,1,4,0:0:0:0:
200,156,42326,1,8,0:0:0:0:
176,144,42491,1,8,0:0:0:0:
152,132,42574,1,0,0:0:0:0:
128,120,42656,1,8,0:0:0:0:
104,112,42739,1,0,0:0:0:0:
80,100,42821,1,8,0:0:0:0:
268,208,42985,1,0,0:0:0:0:
104,112,43315,1,4,0:0:0:0:
200,160,43645,1,0,0:0:0:0:
212,212,43810,1,8,0:0:0:0:
212,212,44140,1,0,0:0:0:0:
168,180,44304,1,0,0:0:0:0:
168,180,44469,1,8,0:0:0:0:
228,148,44634,1,0,0:0:0:0:
348,108,44964,1,0,0:0:0:0:
172,196,45129,1,8,0:0:0:0:
220,136,45458,1,0,0:0:0:0:
112,188,45623,1,0,0:0:0:0:
164,180,45788,1,8,0:0:0:0:
272,168,46118,1,0,0:0:0:0:
164,172,46447,1,8,0:0:0:0:
216,176,46777,1,0,0:0:0:0:
184,132,46942,1,0,0:0:0:0:
148,92,47107,1,8,0:0:0:0:
240,148,47436,1,0,0:0:0:0:
288,176,47601,1,0,0:0:0:0:
240,148,47766,1,8,0:0:0:0:
288,176,47931,1,8,0:0:0:0:
240,148,48096,1,0,0:0:0:0:
228,124,48178,1,0,0:0:0:0:
188,164,48261,1,0,0:0:0:0:
160,168,48343,1,0,0:0:0:0:
136,180,48425,1,8,0:0:0:0:
244,184,48590,1,4,0:0:0:0:
136,204,48920,1,0,0:0:0:0:
144,152,49085,1,8,0:0:0:0:
44,112,49414,1,0,0:0:0:0:
28,164,49579,1,0,0:0:0:0:
28,164,49744,1,8,0:0:0:0:
84,164,49909,1,0,0:0:0:0:
208,136,50239,1,0,0:0:0:0:
28,164,50403,1,8,0:0:0:0:
152,140,50733,1,0,0:0:0:0:
212,128,50898,1,0,0:0:0:0:
212,128,51063,1,8,0:0:0:0:
216,152,51392,1,0,0:0:0:0:
216,152,51722,1,8,0:0:0:0:
216,152,52052,1,0,0:0:0:0:
216,152,52381,1,8,0:0:0:0:
236,180,52711,1,0,0:0:0:0:
236,180,52876,1,0,0:0:0:0:
236,180,52958,1,0,0:0:0:0:
236,180,53041,1,8,0:0:0:0:
220,128,53206,1,0,0:0:0:0:
236,180,53535,1,0,0:0:0:0:
184,172,53700,1,0,0:0:0:0:
80,140,54030,1,4,0:0:0:0:
192,108,54359,1,8,0:0:0:0:
208,152,54689,1,0,0:0:0:0:
208,152,54854,1,0,0:0:0:0:
208,152,55019,1,8,0:0:0:0:
212,176,55348,1,0,0:0:0:0:
120,148,55678,1,8,0:0:0:0:
164,152,56008,1,0,0:0:0:0:
164,152,56173,1,0,0:0:0:0:
164,172,56337,1,8,0:0:0:0:
112,180,56502,1,0,0:0:0:0:
112,180,56667,1,8,0:0:0:0:
168,176,56832,1,8,0:0:0:0:
244,160,56914,1,0,0:0:0:0:
220,168,56997,1,0,0:0:0:0:
272,156,57162,1,0,0:0:0:0:
272,156,57491,1,8,0:0:0:0:
272,156,57656,1,0,0:0:0:0:
312,204,57821,1,4,0:0:0:0:
188,196,58151,1,0,0:0:0:0:
124,196,58315,1,8,0:0:0:0:
220,112,58645,1,0,0:0:0:0:
124,196,58810,1,0,0:0:0:0:
272,96,58975,1,8,0:0:0:0:
272,96,59057,1,8,0:0:0:0:
272,96,59140,1,8,0:0:0:0:
252,172,59304,1,12,0:0:0:0:
304,176,59469,1,0,0:0:0:0:
304,176,59634,1,12,0:0:0:0:
304,176,59799,1,0,0:0:0:0:
252,156,59964,1,12,0:0:0:0:
200,136,60129,1,0,0:0:0:0:
148,116,60293,1,12,0:0:0:0:
108,156,60458,1,8,0:0:0:0:
156,184,60623,1,8,0:0:0:0:
132,172,60706,1,0,0:0:0:0:
132,172,60788,1,0,0:0:0:0:
132,172,60953,1,8,0:0:0:0:
132,172,61118,1,8,0:0:0:0:
132,172,61200,1,8,0:0:0:0:
132,172,61283,1,0,0:0:0:0:
184,164,61447,1,8,0:0:0:0:
184,164,61530,1,0,0:0:0:0:
184,164,61612,1,8,0:0:0:0:
184,164,61695,1,0,0:0:0:0:
184,164,61777,1,0,0:0:0:0:
224,200,62107,1,0,0:0:0:0:
276,204,62272,1,0,0:0:0:0:
236,168,62436,1,0,0:0:0:0:
196,132,62601,1,8,0:0:0:0:
112,200,62931,1,8,0:0:0:0:
152,164,63096,1,0,0:0:0:0:
44,148,63425,1,0,0:0:0:0:
44,148,63508,1,0,0:0:0:0:
44,148,63590,1,0,0:0:0:0:
4,108,63755,1,0,0:0:0:0:
4,108,63920,1,8,0:0:0:0:
128,132,64250,1,0,0:0:0:0:
248,164,64579,1,8,0:0:0:0:
248,164,64744,1,0,0:0:0:0:
128,132,64909,1,8,0:0:0:0:
28,212,65073,1,8,0:0:0:0:
28,212,65403,1,0,0:0:0:0:
28,212,65568,1,8,0:0:0:0:
152,204,65733,1,8,0:0:0:0:
208,180,66063,1,0,0:0:0:0:
24,208,66228,1,8,0:0:0:0:
84,196,66392,1,0,0:0:0:0:
116,192,66475,1,0,0:0:0:0:
148,188,66557,1,0,0:0:0:0:
148,188,66722,1,0,0:0:0:0:
148,188,66887,1,8,0:0:0:0:
260,208,67052,1,0,0:0:0:0:
380,172,67381,1,0,0:0:0:0:
260,208,67546,1,8,0:0:0:0:
260,208,67876,1,0,0:0:0:0:
296,156,68041,1,0,0:0:0:0:
332,104,68206,1,8,0:0:0:0:
332,104,68370,1,8,0:0:0:0:
332,104,68453,1,8,0:0:0:0:
332,104,68535,1,0,0:0:0:0:
208,132,68865,1,8,0:0:0:0:
104,156,69195,1,0,0:0:0:0:
204,112,69524,1,0,0:0:0:0:
260,112,69689,1,0,0:0:0:0:
260,112,69772,1,0,0:0:0:0:
260,112,69854,1,8,0:0:0:0:
320,128,70019,1,0,0:0:0:0:
180,188,70184,1,8,0:0:0:0:
260,112,70348,1,0,0:0:0:0:
260,112,70431,1,0,0:0:0:0:
260,112,70513,1,0,0:0:0:0:
228,164,70678,1,0,0:0:0:0:
216,212,70843,1,8,0:0:0:0:
276,200,71008,1,0,0:0:0:0:
260,112,71173,1,0,0:0:0:0:
260,112,71255,1,0,0:0:0:0:
260,112,71337,1,8,0:0:0:0:
260,112,71502,1,8,0:0:0:0:
260,112,71667,1,0,0:0:0:0:
260,112,71750,1,0,0:0:0:0:
260,112,71832,1,8,0:0:0:0:
260,112,71997,1,8,0:0:0:0:
204,116,72162,1,0,0:0:0:0:
204,116,72244,1,0,0:0:0:0:
204,116,72326,1,8,0:0:0:0:
204,116,72409,1,0,0:0:0:0:
204,116,72491,1,8,0:0:0:0:
264,132,72656,1,0,0:0:0:0:
248,148,72821,1,8,0:0:0:0:
252,144,72985,1,8,0:0:0:0:
252,144,73068,1,8,0:0:0:0:
144,116,73151,1,0,0:0:0:0:
92,100,73315,1,0,0:0:0:0:
144,112,73480,1,8,0:0:0:0:
36,128,73810,1,0,0:0:0:0:
88,120,73975,1,0,0:0:0:0:
88,120,74140,1,8,0:0:0:0:
40,96,74304,1,0,0:0:0:0:
68,104,74387,1,8,0:0:0:0:
96,112,74469,1,0,0:0:0:0:
148,124,74634,1,0,0:0:0:0:
200,132,74799,1,8,0:0:0:0:
156,164,74964,1,0,0:0:0:0:
156,164,75046,1,0,0:0:0:0:
156,164,75129,1,8,0:0:0:0:
208,148,75293,1,0,0:0:0:0:
236,140,75458,1,8,0:0:0:0:
236,140,75541,1,0,0:0:0:0:
236,140,75623,1,0,0:0:0:0:
128,124,75953,1,4,0:0:0:0:
20,120,76283,1,12,0:0:0:0:
104,188,76612,1,0,0:0:0:0:
148,220,76777,1,8,0:0:0:0:
224,144,77107,1,0,0:0:0:0:
184,180,77272,1,0,0:0:0:0:
184,180,77436,1,8,0:0:0:0:
104,188,77601,1,0,0:0:0:0:
224,80,77766,1,8,0:0:0:0:
216,104,77848,1,0,0:0:0:0:
204,128,77931,1,0,0:0:0:0:
204,128,78013,1,0,0:0:0:0:
204,128,78096,1,8,0:0:0:0:
256,200,78260,1,0,0:0:0:0:
228,136,78425,1,8,0:0:0:0:
228,136,78508,1,0,0:0:0:0:
228,136,78590,1,0,0:0:0:0:
228,136,78673,1,0,0:0:0:0:
228,136,78755,1,8,0:0:0:0:
200,136,78837,1,0,0:0:0:0:
200,136,78920,1,0,0:0:0:0:
200,136,79002,1,0,0:0:0:0:
200,136,79085,1,8,0:0:0:0:
228,192,80403,1,12,0:0:0:0:
208,112,80733,1,0,0:0:0:0:
192,164,80898,1,0,0:0:0:0:
192,164,81063,1,8,0:0:0:0:
248,136,81228,1,8,0:0:0:0:
192,164,81392,1,0,0:0:0:0:
144,144,81557,1,0,0:0:0:0:
192,164,81887,1,0,0:0:0:0:
192,164,82052,1,8,0:0:0:0:
176,112,82217,1,8,0:0:0:0:
176,112,82381,1,0,0:0:0:0:
200,216,82711,1,12,0:0:0:0:
228,192,83041,1,0,0:0:0:0:
208,112,83370,1,8,0:0:0:0:
256,136,83535,1,0,0:0:0:0:
192,128,83700,1,0,0:0:0:0:
236,84,83865,1,8,0:0:0:0:
192,164,84030,1,0,0:0:0:0:
144,144,84195,1,0,0:0:0:0:
192,164,84524,1,0,0:0:0:0:
192,164,84689,1,8,0:0:0:0:
176,112,84854,1,8,0:0:0:0:
176,112,85019,1,0,0:0:0:0:
236,124,85184,1,0,0:0:0:0:
252,148,85266,1,0,0:0:0:0:
300,120,85348,1,12,0:0:0:0:
180,108,85678,1,8,0:0:0:0:
252,192,85788,1,0,0:0:0:0:
252,108,85898,1,0,0:0:0:0:
252,192,86007,1,0,0:0:0:0:
252,192,86117,1,0,0:0:0:0:
144,104,86228,1,0,0:0:0:0:
172,84,86337,1,8,0:0:0:0:
252,192,86447,1,0,0:0:0:0:
200,60,86557,1,0,0:0:0:0:
200,60,86667,1,0,0:0:0:0:
252,108,86777,1,0,0:0:0:0:
252,108,86887,1,0,0:0:0:0:
216,112,86997,1,8,0:0:0:0:
164,124,87162,1,0,0:0:0:0:
192,128,87244,1,0,0:0:0:0:
224,144,87326,1,8,0:0:0:0:
168,148,87491,1,0,0:0:0:0:
112,164,87656,1,0,0:0:0:0:
164,148,87821,1,8,0:0:0:0:
216,128,87986,1,12,0:0:0:0:
272,168,88151,1,0,0:0:0:0:
244,164,88233,1,0,0:0:0:0:
216,160,88315,1,0,0:0:0:0:
244,164,88480,1,0,0:0:0:0:
244,164,88645,1,8,0:0:0:0:
224,116,88810,1,4,0:0:0:0:
