osu file format v14

[General]
AudioFilename: narutoopening69.mp3
AudioLeadIn: 0
PreviewTime: 43121
Countdown: 0
SampleSet: Normal
StackLeniency: 0.7
Mode: 0
LetterboxInBreaks: 0
WidescreenStoryboard: 0

[Editor]
Bookmarks: 11843,22378,32913,85677
DistanceSpacing: 1
BeatDivisor: 2
GridSize: 4
TimelineZoom: 1.3

[Metadata]
Title:STARTING NOW!
TitleUnicode:STARTING NOW!
Artist:Mizuki Nana
ArtistUnicode:水樹 奈々
Creator:Revialink
Version:NORMAL!
Source:この美術部には問題がある!
Tags:Kono Bijutsubu ni wa Mondai ga Aru! opening anime tv size refaller celsiuslk
BeatmapID:1053012
BeatmapSetID:494356

[Difficulty]
HPDrainRate:4
CircleSize:3
OverallDifficulty:4
ApproachRate:5
SliderMultiplier:1
SliderTickRate:1

[Events]
//Background and Video events
0,0,"bg.jpg",0,0
//Break Periods
//Storyboard Layer 0 (Background)
//Storyboard Layer 1 (Fail)
//Storyboard Layer 2 (Pass)
//Storyboard Layer 3 (Foreground)
//Storyboard Sound Samples

[TimingPoints]
1197,371.517027863777,4,2,99,18,1,0
1940,329.67032967033,4,2,99,18,1,0
2269,289.855072463768,4,2,99,18,1,0
2413,314.13612565445,4,2,99,18,1,0
2884,335.195530726257,4,2,99,18,1,0
3554,346.820809248555,4,2,99,18,1,0
3891,329.67032967033,4,2,99,48,1,0
6528,-100,4,2,99,75,0,0
11803,-100,4,2,99,60,0,0
21033,-100,4,2,99,45,0,0
22187,-100,4,2,99,60,0,0
43286,-100,4,1,99,85,0,1
54000,-100,4,2,99,75,0,0
61748,-100,4,1,99,75,0,1
72462,-100,4,2,99,75,0,0
88863,-100,4,2,99,50,0,0
89275,-100,4,2,99,15,0,0

[Colours]
Combo1 : 255,66,66
Combo2 : 255,255,111
Combo3 : 103,240,100
Combo4 : 255,193,79
Combo5 : 137,75,54
Combo6 : 255,155,205
Combo7 : 41,147,203

[HitObjects]
232,32,1197,6,0,P|268:92|164:156,1,200,4|0,0:0|0:0,0:0:0:0:
52,92,2413,2,0,B|40:192|40:192|-16:216|-24:308|72:336,1,250
228,316,3891,6,0,B|216:268|224:220|224:220|268:200|340:224,1,200,4|0,0:1|0:0,0:0:0:0:
416,340,5044,2,0,B|456:224|456:224|396:76,1,250,0|0,0:0|0:0,0:0:0:0:
214,56,6528,6,0,L|118:88,1,100,4|0,0:0|1:0,0:0:0:0:
40,24,7187,2,0,P|18:61|92:184,1,200,0|0,1:0|0:0,0:0:0:0:
184,160,8176,1,0,1:0:0:0:
284,172,8506,2,0,P|268:218|231:252,1,100,0|4,1:0|1:2,0:0:0:0:
139,288,9165,5,0,1:0:0:0:
216,348,9495,1,2,0:0:0:0:
316,352,9825,2,0,P|416:344|480:260,1,200,0|0,1:0|0:0,0:0:0:0:
396,212,10814,2,0,P|360:248|301:240,1,100,2|0,0:0|1:0,0:0:0:0:
324,148,11473,1,4,1:2:0:0:
272,64,11803,5,0,1:0:0:0:
172,60,12132,2,0,P|144:108|136:160,1,100,0|2,1:0|0:3,0:0:0:0:
136,252,12792,1,0,1:0:0:0:
220,308,13121,1,0,0:3:0:0:
320,312,13451,1,0,1:0:0:0:
412,276,13781,2,0,P|444:204|436:164,1,100,2|0,0:3|1:0,0:0:0:0:
344,196,14440,6,0,P|347:146|374:105,1,100,0|0,0:3|1:0,0:0:0:0:
472,88,15099,1,2,0:3:0:0:
404,16,15429,2,0,P|305:41|291:62,1,100,0|2,1:0|0:3,0:0:0:0:
252,116,16088,1,0,1:0:0:0:
215,23,16418,2,0,L|155:35,1,50,2|2,0:3|0:3,0:0:0:0:
120,56,16748,2,0,B|88:88|76:124|76:124|40:128,1,100,0|2,1:0|0:3,0:0:0:0:
12,216,17407,6,0,P|29:287|146:319,1,200,0|0,1:0|1:0,0:0:0:0:
208,248,18396,1,2,0:3:0:0:
300,212,18726,1,0,1:0:0:0:
300,212,18891,2,0,B|312:156|312:156|344:116,1,100,2|2,0:3|0:3,0:0:0:0:
412,56,19550,1,0,0:0:0:0:
412,56,19715,1,0,0:0:0:0:
488,184,20044,6,0,L|460:280,1,100,0|0,0:0|1:0,0:0:0:0:
376,336,20704,1,0,1:0:0:0:
280,312,21033,2,0,L|144:268,1,100,0|0,1:0|1:0,0:0:0:0:
240,200,21693,2,0,L|144:124,1,100,0|0,1:0|1:0,0:0:0:0:
120,108,22187,1,4,0:0:0:0:
80,80,22352,6,0,P|44:148|56:196,1,100,2|0,0:3|1:0,0:0:0:0:
44,268,23011,2,0,P|48:317|78:356,1,100,2|0,0:3|1:0,0:0:0:0:
180,352,23671,1,2,0:3:0:0:
276,328,24000,1,0,1:0:0:0:
276,328,24165,2,0,L|348:312,1,50,0|2,0:0|0:3,0:0:0:0:
420,280,24660,1,0,1:0:0:0:
492,208,24989,5,2,0:3:0:0:
452,116,25319,1,0,1:0:0:0:
452,116,25484,2,0,L|404:64,1,50,0|2,0:0|0:3,0:0:0:0:
324,40,25978,1,0,1:0:0:0:
224,40,26308,2,0,P|176:60|120:44,1,100,2|0,0:3|1:0,0:0:0:0:
44,0,26967,2,0,P|29:49|50:103,1,100,2|0,0:3|1:0,0:0:0:0:
116,160,27627,5,2,0:3:0:0:
212,188,27956,2,0,B|276:188|276:188|312:172,1,100,0|2,1:0|0:3,0:0:0:0:
248,96,28616,2,0,B|280:81|280:81|344:81,1,100,0|0,1:0|0:0,0:0:0:0:
416,12,29275,2,0,P|444:87|408:160,1,150,0|4,1:0|0:0,0:0:0:0:
352,220,30099,6,0,B|312:260|320:328|320:328|268:324,1,150,4|0,0:0|1:0,0:0:0:0:
188,324,30923,1,0,1:0:0:0:
92,296,31253,1,0,1:0:0:0:
52,268,31418,1,0,1:0:0:0:
32,220,31583,1,2,0:0:0:0:
48,120,31912,1,0,1:0:0:0:
84,88,32077,2,0,B|168:44|236:120,1,150,2|4,0:3|0:3,0:0:0:0:
236,204,32901,6,0,P|192:244|268:312,1,150,4|2,0:0|0:3,0:0:0:0:
280,312,33561,2,0,P|348:320|388:340,1,100,0|0,0:0|1:0,0:0:0:0:
472,304,34220,2,0,B|456:256|456:256|488:216|488:216|472:160,1,150,4|8,0:0|0:3,0:0:0:0:
424,164,34880,2,0,P|356:156|316:136,1,100,0|0,0:0|1:0,0:0:0:0:
248,84,35539,6,0,B|196:56|184:8|184:8|124:16,1,150,4|0,0:0|1:0,0:0:0:0:
92,36,36198,2,0,B|64:104|64:104|72:144,1,100,0|0,0:0|1:0,0:0:0:0:
96,228,36858,2,0,B|124:240|152:236|152:236|148:256|144:272|144:272|176:264|240:272,1,150,2|0,0:3|1:0,0:0:0:0:
248,264,37517,2,0,B|276:196|276:196|268:156,1,100,0|0,0:0|1:0,0:0:0:0:
220,84,38176,6,0,L|336:64,1,100,4|0,0:0|1:0,0:0:0:0:
370,70,38671,2,0,P|418:118|442:154,1,100,0|2,0:0|0:3,0:0:0:0:
452,192,39165,1,0,1:0:0:0:
420,288,39495,2,0,P|372:272|304:288,1,100,2|0,0:3|1:0,0:0:0:0:
280,304,39989,2,0,P|230:310|183:294,1,100,0|0,0:0|1:0,0:0:0:0:
144,264,40484,1,0,1:0:0:0:
256,192,40814,12,0,42462,1:0:0:0:
116,80,43286,6,0,P|128:136|100:180,1,100,4|2,0:0|0:2,0:0:0:0:
72,208,43781,1,8,0:0:0:0:
72,308,44110,1,2,0:3:0:0:
168,340,44440,1,8,0:0:0:0:
212,316,44605,2,0,B|268:288|316:312|316:312|344:252,1,150,6|8,0:2|0:0,0:0:0:0:
364,180,45429,1,2,0:3:0:0:
336,88,45759,1,2,0:3:0:0:
244,48,46088,6,0,L|132:60,1,100,2|8,0:3|0:0,0:0:0:0:
108,152,46748,2,0,L|220:140,1,100,2|8,0:3|0:0,0:0:0:0:
300,172,47407,2,0,P|336:220|324:296,1,100,2|8,0:3|0:0,0:0:0:0:
324,304,47901,2,0,P|280:332|184:320,1,150,0|8,0:0|0:0,0:0:0:0:
144,291,48561,6,4,B|136:239|104:207|104:207|108:143,1,150,4|8,0:0|0:0,0:0:0:0:
120,52,49385,1,2,0:3:0:0:
216,24,49715,1,8,0:0:0:0:
264,20,49880,2,0,B|300:12|332:40|332:40|368:20|404:40,1,150,2|8,0:2|0:0,0:0:0:0:
372,136,50704,1,2,0:3:0:0:
416,228,51033,1,8,0:0:0:0:
372,320,51363,6,0,P|320:340|264:324,1,100,2|8,0:3|0:0,0:0:0:0:
308,236,52022,2,0,P|259:228|213:247,1,100,2|8,0:3|0:0,0:0:0:0:
156,332,52682,2,0,B|88:312|88:312|48:260,1,100,4|8,0:0|0:0,0:0:0:0:
80,240,53176,2,0,P|88:176|40:104,1,150,2|8,0:2|0:0,0:0:0:0:
124,44,54000,6,0,B|172:32|172:32|260:52,1,100,4|0,0:0|1:0,0:0:0:0:
260,136,54660,2,0,L|250:206,2,50,2|2|0,0:3|0:3|1:0,0:0:0:0:
360,116,55319,2,0,P|384:36|424:12,1,100,2|0,0:0|1:0,0:0:0:0:
460,100,55978,2,0,L|520:112,2,50,2|2|0,0:3|0:3|1:0,0:0:0:0:
468,200,56638,6,0,B|452:252|452:252|464:300,1,100,2|0,0:3|1:0,0:0:0:0:
460,348,57132,2,0,P|392:364|336:340,1,100,4|4,0:0|0:0,0:0:0:0:
280,300,57792,2,0,B|228:272|228:272|128:272,1,150,4|0,0:0|1:0,0:0:0:0:
72,196,58616,2,0,P|52:136|60:88,1,100,2|0,0:3|1:0,0:0:0:0:
100,8,59275,5,4,0:0:0:0:
196,36,59605,1,0,1:0:0:0:
252,116,59934,1,0,1:0:0:0:
348,140,60264,1,0,1:0:0:0:
416,216,60594,1,0,1:0:0:0:
452,308,60923,2,0,B|400:364|400:364|364:352|316:360,1,150,0|0,1:0|1:0,0:0:0:0:
228,348,61748,6,0,P|188:304|216:244,1,100,4|2,0:0|0:2,0:0:0:0:
220,224,62242,1,8,0:0:0:0:
312,188,62572,1,2,0:3:0:0:
404,152,62901,1,8,0:0:0:0:
452,140,63066,2,0,B|440:104|456:72|456:72|372:64,1,150,2|8,0:2|0:0,0:0:0:0:
276,52,63891,1,2,0:3:0:0:
176,64,64220,1,8,0:0:0:0:
76,52,64550,6,0,L|112:4,2,50,2|0|8,0:3|0:0|0:0,0:0:0:0:
44,92,65044,2,0,P|28:156|56:212,1,100
56,232,65539,2,0,L|60:332,2,100,8|0|8,0:0|0:0|0:0,0:0:0:0:
156,236,66528,1,2,0:3:0:0:
116,144,66858,1,8,0:0:0:0:
100,96,67022,6,0,B|116:68|116:68|156:84|156:84|196:68|196:68|220:108,1,150,4|8,0:0|0:0,0:0:0:0:
248,188,67847,1,2,0:3:0:0:
320,256,68176,1,8,0:0:0:0:
368,268,68341,2,0,B|392:288|404:320|404:320|456:228,1,150,2|8,0:2|0:0,0:0:0:0:
492,156,69165,2,0,P|480:68|440:44,1,100,2|8,0:3|0:0,0:0:0:0:
396,124,69825,6,0,B|344:108|296:122|248:144|176:108,2,200,2|0|4,0:0|0:0|0:0,0:0:0:0:
444,144,71308,2,0,L|444:196,2,50,0|8|0,0:0|0:0|0:0,0:0:0:0:
444,44,71967,2,0,L|336:32,1,100,2|0,0:3|0:0,0:0:0:0:
304,64,72462,5,4,0:0:0:0:
296,164,72792,1,0,1:0:0:0:
304,264,73121,1,2,0:3:0:0:
304,264,73286,1,2,0:3:0:0:
304,264,73451,2,0,P|232:252|184:272,1,100,0|2,1:0|0:3,0:0:0:0:
124,312,74110,2,0,P|112:240|132:192,1,100,0|2,1:0|0:3,0:0:0:0:
140,168,74605,1,2,0:3:0:0:
172,132,74770,1,0,1:0:0:0:
268,152,75099,6,0,B|304:120|304:120|312:68,1,100,4|0,0:0|1:0,0:0:0:0:
340,28,75594,2,0,P|392:32|444:80,1,100,4|4,0:0|0:0,0:0:0:0:
460,156,76253,2,0,B|460:256|460:256|436:304,1,150,4|0,0:0|1:0,0:0:0:0:
344,336,77077,2,0,P|296:316|240:316,1,100,2|0,0:3|1:0,0:0:0:0:
256,192,77737,12,0,79055,1:0:0:0:
112,188,80374,6,0,P|172:220|180:292,1,100,4|0,0:0|1:0,0:0:0:0:
184,296,80869,1,2,0:0:0:0:
172,344,81033,2,0,P|248:372|324:360,1,150,0|0,1:0|1:0,0:0:0:0:
356,332,81693,1,0,0:0:0:0:
380,236,82023,2,0,L|405:139,1,100,2|0,0:0|1:0,0:0:0:0:
432,44,82682,1,4,0:0:0:0:
432,44,83011,6,0,L|496:36,2,50,0|0|0,1:0|0:0|1:0,0:0:0:0:
332,60,83671,2,0,B|280:36|236:64|236:64|144:64,1,150,0|0,1:0|1:0,0:0:0:0:
136,64,84330,1,0,0:0:0:0:
52,116,84660,2,0,P|25:166|19:215,1,100,2|0,0:0|1:0,0:0:0:0:
44,304,85319,1,4,0:0:0:0:
132,348,85649,6,0,L|256:356,1,100,0|0,1:0|1:0,0:0:0:0:
240,256,86308,2,0,L|364:264,1,100,0|0,1:0|1:0,0:0:0:0:
436,240,86967,2,0,P|444:176|408:116,1,100,4|0,0:0|0:0,0:0:0:0:
396,108,87462,2,0,P|328:120|296:100,1,100,4|0,0:0|0:0,0:0:0:0:
268,72,87956,2,0,L|220:172,1,100,4|0,0:0|1:0,0:0:0:0:
188,200,88451,5,0,1:0:0:0:
144,228,88616,2,0,L|76:240,1,50,0|4,1:0|0:0,0:0:0:0:
