osu file format v14

[General]
AudioFilename: audio.mp3
AudioLeadIn: 0
PreviewTime: 42396
Countdown: 0
SampleSet: Soft
StackLeniency: 0.7
Mode: 0
LetterboxInBreaks: 0
WidescreenStoryboard: 0

[Editor]
Bookmarks: 7246,13646,20046,26446,32846,42446,55246,68046,74446,80846,87246,93646,103246,116046,128846,141646,155846,161646,163246,173246,179246,185646,197046,198446,211246,217646
DistanceSpacing: 0.7
BeatDivisor: 4
GridSize: 32
TimelineZoom: 1.9

[Metadata]
Title:PHANTOM MINDS
TitleUnicode:PHANTOM MINDS
Artist:Mizuki Nana
ArtistUnicode:水樹奈々
Creator:Lasse
Version:Insane
Source:魔法少女リリカルなのは The MOVIE 1st
Tags:IMPACT EXCITER japanese pop owc o!wc osu world cup 2020 semifinals dt4 Magical Girl Lyrical Nanoha: The Movie 1st anime opening theme Eriko Yoshiki Jun Suyama
BeatmapID:2699269
BeatmapSetID:1301407

[Difficulty]
HPDrainRate:5
CircleSize:4
OverallDifficulty:7.8
ApproachRate:8.4
SliderMultiplier:1.6
SliderTickRate:1

[Events]
//Background and Video events
0,0,"b1.jpg",0,0
//Break Periods
2,156846,160926
//Storyboard Layer 0 (Background)
//Storyboard Layer 1 (Fail)
//Storyboard Layer 2 (Pass)
//Storyboard Layer 3 (Foreground)
//Storyboard Layer 4 (Overlay)
//Storyboard Sound Samples

[TimingPoints]
846,400,4,2,1,30,1,0
846,-153.846153846153,4,2,1,30,0,0
3246,-153.846153846153,4,2,1,32,0,0
3446,-153.846153846153,4,2,1,34,0,0
3646,-153.846153846153,4,2,1,36,0,0
4046,-133.333333333333,4,2,1,40,0,0
5646,-133.333333333333,4,2,1,45,0,0
6646,-66.6666666666667,4,2,1,50,0,0
6846,-66.6666666666667,4,2,2,60,0,0
6871,-66.6666666666667,4,2,1,40,0,0
7146,-66.6666666666667,4,2,2,5,0,0
7246,-100,4,2,1,55,0,0
13446,-100,4,2,1,45,0,0
13646,-133.333333333333,4,2,1,40,0,0
18446,-117.647058823529,4,2,1,42,0,0
19246,-117.647058823529,4,2,1,44,0,0
19846,-117.647058823529,4,2,1,42,0,0
20046,-111.111111111111,4,2,1,45,0,0
24846,-111.111111111111,4,2,1,48,0,0
25846,-111.111111111111,4,2,1,46,0,0
26446,-133.333333333333,4,2,1,48,0,0
27246,-100,4,2,1,48,0,0
29446,-133.333333333333,4,2,1,48,0,0
30446,-100,4,2,1,48,0,0
32846,-100,4,2,1,52,0,0
35846,-100,4,2,1,54,0,0
38246,-100,4,2,1,56,0,0
39246,-90.9090909090909,4,2,1,60,0,0
40646,-90.9090909090909,4,2,1,52,0,0
40946,-90.9090909090909,4,2,1,40,0,0
41046,-90.9090909090909,4,2,1,52,0,0
41246,-76.9230769230769,4,2,2,60,0,0
41646,-76.9230769230769,4,2,2,30,0,0
41846,-83.3333333333333,4,2,1,40,0,0
41946,-83.3333333333333,4,2,1,42,0,0
42046,-83.3333333333333,4,2,1,44,0,0
42146,-83.3333333333333,4,2,1,46,0,0
42246,-83.3333333333333,4,2,1,48,0,0
42346,-83.3333333333333,4,2,1,50,0,0
42446,-83.3333333333333,4,2,1,65,0,1
54246,-83.3333333333333,4,2,2,65,0,1
54446,-83.3333333333333,4,2,1,65,0,1
54646,-83.3333333333333,4,2,1,60,0,0
55246,-83.3333333333333,4,2,1,65,0,1
66646,-100,4,2,1,65,0,0
67446,-166.666666666667,4,2,1,45,0,0
68046,-100,4,2,1,55,0,0
74246,-100,4,2,1,45,0,0
74446,-133.333333333333,4,2,1,42,0,0
79246,-117.647058823529,4,2,1,44,0,0
80046,-117.647058823529,4,2,1,46,0,0
80646,-117.647058823529,4,2,1,42,0,0
80846,-111.111111111111,4,2,1,46,0,0
85646,-111.111111111111,4,2,1,48,0,0
86646,-111.111111111111,4,2,1,46,0,0
87246,-133.333333333333,4,2,1,48,0,0
88046,-100,4,2,1,48,0,0
90246,-133.333333333333,4,2,1,48,0,0
91246,-100,4,2,1,48,0,0
93646,-100,4,2,1,52,0,0
96646,-100,4,2,1,54,0,0
99046,-100,4,2,1,56,0,0
100046,-90.9090909090909,4,2,1,60,0,0
101446,-90.9090909090909,4,2,1,52,0,0
101746,-90.9090909090909,4,2,1,40,0,0
101846,-90.9090909090909,4,2,1,52,0,0
102046,-76.9230769230769,4,2,2,60,0,0
102446,-76.9230769230769,4,2,2,30,0,0
102646,-76.9230769230769,4,2,1,40,0,0
102746,-76.9230769230769,4,2,1,42,0,0
102846,-76.9230769230769,4,2,1,44,0,0
102946,-76.9230769230769,4,2,1,46,0,0
103046,-76.9230769230769,4,2,1,48,0,0
103146,-76.9230769230769,4,2,1,50,0,0
103246,-83.3333333333333,4,2,1,65,0,1
115046,-83.3333333333333,4,2,2,65,0,1
115246,-83.3333333333333,4,2,1,65,0,1
115446,-83.3333333333333,4,2,1,60,0,0
116046,-83.3333333333333,4,2,1,65,0,1
127446,-100,4,2,1,65,0,0
128046,-133.333333333333,4,2,1,45,0,0
128246,-133.333333333333,4,2,1,48,0,0
128446,-133.333333333333,4,2,1,50,0,0
128646,-133.333333333333,4,2,1,45,0,0
128846,-100,4,2,1,55,0,0
133446,-100,4,2,1,58,0,0
134246,-83.3333333333333,4,2,1,60,0,0
134646,-83.3333333333333,4,2,1,50,0,0
134846,-83.3333333333333,4,2,1,54,0,0
135246,-76.9230769230769,4,2,1,58,0,0
135546,-90.9090909090909,4,2,1,56,0,0
137046,-90.9090909090909,4,2,1,58,0,0
138246,-83.3333333333333,4,2,1,58,0,0
141046,-100,4,2,1,58,0,0
141846,-100,4,2,1,55,0,0
146246,-83.3333333333333,4,2,1,55,0,0
148246,-100,4,2,1,55,0,0
151246,-90.9090909090909,4,2,1,58,0,0
151846,-76.9230769230769,4,2,1,60,0,0
152246,-76.9230769230769,4,2,1,50,0,0
152446,-90.9090909090909,4,2,1,58,0,0
152846,-90.9090909090909,4,2,1,60,0,0
153046,-90.9090909090909,4,2,1,58,0,0
153246,-83.3333333333333,4,2,1,56,0,0
153846,-83.3333333333333,4,2,1,50,0,0
154246,-83.3333333333333,4,2,1,45,0,0
154646,-83.3333333333333,4,2,1,40,0,0
155046,-83.3333333333333,4,2,1,35,0,0
155446,-83.3333333333333,4,2,1,30,0,0
155846,-83.3333333333333,4,2,1,25,0,0
156246,-133.333333333333,4,2,1,30,0,0
156346,-133.333333333333,4,2,1,32,0,0
156446,-133.333333333333,4,2,2,40,0,0
156846,400,4,2,1,55,1,0
156846,-142.857142857143,4,2,1,55,0,0
161646,-142.857142857143,4,2,1,30,0,0
162046,-142.857142857143,4,2,1,32,0,0
162446,-142.857142857143,4,2,1,34,0,0
162846,-142.857142857143,4,2,1,36,0,0
163246,-166.666666666667,4,2,1,38,0,0
166446,-142.857142857143,4,2,1,40,0,0
168046,-142.857142857143,4,2,1,42,0,0
169646,-142.857142857143,4,2,1,44,0,0
169946,-142.857142857143,4,2,1,5,0,0
170046,-125,4,2,1,46,0,0
170346,-125,4,2,1,5,0,0
170446,-111.111111111111,4,2,1,48,0,0
170746,-111.111111111111,4,2,1,5,0,0
170846,-100,4,2,1,50,0,0
171146,-100,4,2,1,5,0,0
171246,-125,4,2,1,46,0,0
171646,-99.9999999999999,4,2,1,48,0,0
172046,-83.3333333333333,4,2,1,50,0,0
173246,-76.9230769230769,4,2,1,68,0,1
176046,-66.6666666666667,4,2,1,68,0,1
176446,-76.9230769230769,4,2,1,68,0,1
177646,-71.4285714285714,4,2,1,68,0,1
177946,-71.4285714285714,4,2,1,48,0,1
178046,-66.6666666666667,4,2,1,70,0,1
178346,-66.6666666666667,4,2,1,48,0,1
178446,-62.5,4,2,1,72,0,1
178646,-62.5,4,2,1,62,0,1
178846,-62.5,4,2,1,56,0,1
179246,-76.9230769230769,4,2,1,68,0,1
183846,-76.9230769230769,4,2,2,68,0,1
183946,-76.9230769230769,4,2,1,68,0,1
185046,-100,4,2,1,60,0,0
185246,-90.9090909090909,4,2,1,62,0,0
185446,-83.3333333333333,4,2,1,64,0,0
185646,-76.9230769230769,4,2,1,68,0,1
190446,-66.6666666666667,4,2,1,70,0,1
190646,-66.6666666666667,4,2,1,68,0,1
191046,-66.6666666666667,4,2,1,70,0,1
191246,-66.6666666666667,4,2,1,68,0,1
191746,-66.6666666666667,4,2,1,65,0,1
192046,-76.9230769230769,4,2,1,68,0,1
197046,-100,4,2,1,68,0,0
197446,-133.333333333333,4,2,1,40,0,0
197846,-133.333333333333,4,2,1,45,0,0
198446,-100,4,2,1,55,0,0
211046,-100,4,2,1,40,0,0
211246,-100,4,2,1,50,0,0
211346,-100,4,2,1,40,0,0
212046,-100,4,2,1,30,0,0
212846,-100,4,2,1,20,0,0
213646,-100,4,2,1,10,0,0
214446,-100,4,2,1,5,0,0
217646,-100,4,2,1,8,0,0

[Colours]
Combo1 : 240,140,140
Combo2 : 200,180,220
Combo3 : 240,200,155
Combo4 : 150,185,220

[HitObjects]
39,62,846,6,0,P|11:114|16:169,1,103.999995239258,2|0,0:2|0:2,0:2:0:0:
69,207,1446,2,0,P|112:191|184:199,1,103.999995239258,0|0,0:2|0:2,0:2:0:0:
236,239,2046,1,0,0:2:0:0:
236,239,2246,2,0,P|239:294|273:336,1,103.999995239258,0|0,0:2|0:2,0:2:0:0:
336,370,2846,2,0,L|345:315,1,51.999997619629,0|0,0:2|0:2,0:2:0:0:
406,274,3246,1,0,0:2:0:0:
477,297,3446,1,0,0:2:0:0:
501,225,3646,1,0,0:2:0:0:
429,97,4046,6,0,P|385:119|309:107,1,120.000004577637,2|0,0:2|0:2,0:2:0:0:
238,180,4646,2,0,P|214:125|223:67,1,120.000004577637,0|0,0:2|0:2,0:2:0:0:
152,13,5246,2,0,L|93:23,1,60.0000022888184,0|0,0:2|0:2,0:2:0:0:
223,67,5646,6,0,P|246:121|237:179,1,120.000004577637,2|0,0:2|0:2,0:2:0:0:
148,243,6246,2,0,L|73:232,1,60.0000022888184,0|0,0:2|0:2,0:2:0:0:
0,307,6646,5,8,3:2:0:0:
104,356,6846,2,2,B|155:364|189:322|189:322|177:373|119:374,1,180.000006866455,10|0,1:2|0:2,0:1:0:0:
67,340,7246,6,0,P|54:303|65:262,1,80,14|0,0:2|0:2,0:2:0:0:
76,254,7546,2,0,L|134:245,1,40,10|0,0:2|1:2,0:2:0:0:
225,163,7846,1,10,0:2:0:0:
209,159,7946,1,0,3:2:0:0:
254,282,8146,1,0,3:2:0:0:
240,290,8246,1,10,0:2:0:0:
341,205,8446,5,0,1:2:0:0:
341,205,8546,1,0,1:2:0:0:
341,205,8646,2,0,B|431:187|402:254|506:236,1,160,8|8,3:2|0:2,0:2:0:0:
366,286,9246,1,0,1:2:0:0:
471,154,9446,1,10,0:2:0:0:
482,133,9546,1,0,1:2:0:0:
479,109,9646,1,8,0:2:0:0:
469,86,9746,2,0,P|446:66|376:58,1,80,0|8,1:2|0:2,0:2:0:0:
378,66,10046,1,2,1:2:0:0:
242,6,10246,5,0,3:2:0:0:
242,6,10346,1,0,3:2:0:0:
242,6,10446,2,0,L|237:92,1,80,14|0,0:2|1:2,0:2:0:0:
230,108,10746,1,8,0:3:0:0:
210,122,10846,1,8,0:3:0:0:
187,129,10946,1,8,0:3:0:0:
157,129,11046,2,0,P|118:117|63:118,1,80,14|0,3:2|3:2,0:2:0:0:
216,248,11446,5,2,3:2:0:0:
247,250,11546,1,0,3:2:0:0:
259,279,11646,1,0,1:2:0:0:
290,284,11746,1,0,1:2:0:0:
312,306,11846,2,0,P|369:328|443:291,1,120,6|0,3:2|0:2,0:2:0:0:
452,323,12246,2,0,P|449:287|460:235,1,80,10|0,0:2|1:2,0:2:0:0:
512,120,12646,5,10,3:2:0:0:
512,120,12746,1,0,1:2:0:0:
512,120,12846,1,8,3:2:0:0:
471,233,13046,2,8,L|486:267,2,26.6666666666667,8|8|8,0:2|0:2|0:2,0:2:0:0:
461,216,13246,2,0,P|414:196|360:203,1,80,2|4,1:2|0:3,0:2:0:0:
282,257,13646,6,0,P|263:205|286:134,1,120.000004577637,14|8,0:2|0:2,0:2:0:0:
206,69,14246,1,2,0:2:0:0:
206,69,14446,2,0,L|342:49,1,120.000004577637,8|8,0:2|0:2,0:2:0:0:
461,30,15046,5,0,0:2:0:0:
461,30,15146,1,0,0:2:0:0:
461,30,15246,2,0,P|473:67|463:95,1,60.0000022888184,10|0,0:2|0:2,0:2:0:0:
462,100,15546,1,2,0:2:0:0:
454,113,15646,2,0,P|419:107|376:110,1,60.0000022888184,8|0,0:2|0:2,0:2:0:0:
465,206,16046,2,0,P|405:194|347:209,1,120.000004577637,8|8,0:2|0:2,0:2:0:0:
293,288,16646,5,8,0:3:0:0:
293,288,16746,1,4,0:3:0:0:
293,288,16846,2,0,L|280:365,1,60.0000022888184,8|0,0:2|0:2,0:2:0:0:
273,354,17146,1,2,0:2:0:0:
264,362,17246,2,0,L|191:349,1,60.0000022888184,8|0,0:2|0:2,0:2:0:0:
84,384,17646,2,0,L|131:327,1,60.0000022888184,8|0,0:2|0:2,0:2:0:0:
154,217,18046,2,0,L|179:286,1,60.0000022888184,8|0,0:2|0:2,0:2:0:0:
181,283,18346,1,0,0:2:0:0:
188,294,18446,6,0,P|218:306|259:293,1,68.0000012969971,10|0,0:2|0:2,0:2:0:0:
327,212,18846,2,0,L|308:143,1,68.0000012969971,10|0,0:2|0:2,0:2:0:0:
213,95,19246,1,10,0:2:0:0:
167,178,19446,1,8,0:3:0:0:
167,178,19546,1,8,0:3:0:0:
167,178,19646,1,4,1:2:0:0:
80,166,19846,1,4,0:3:0:0:
13,236,20046,6,0,P|-5:288|24:382,1,143.999995605469,14|8,0:2|0:2,0:2:0:0:
120,289,20646,1,2,0:2:0:0:
120,289,20746,1,0,0:2:0:0:
120,289,20846,1,10,0:2:0:0:
185,344,21046,1,2,0:2:0:0:
260,301,21246,1,2,1:2:0:0:
195,243,21446,5,0,0:2:0:0:
187,229,21546,1,0,0:2:0:0:
179,217,21646,2,0,P|174:194|180:137,1,71.9999978027344,10|0,0:2|0:2,0:2:0:0:
183,133,21946,1,2,0:2:0:0:
193,123,22046,2,0,L|271:110,1,71.9999978027344,8|0,0:2|0:2,0:2:0:0:
345,81,22446,1,8,0:2:0:0:
279,26,22646,1,0,0:2:0:0:
330,166,22846,1,0,1:2:0:0:
434,140,23046,5,8,0:3:0:0:
434,140,23146,1,4,0:3:0:0:
434,140,23246,2,0,P|446:106|443:56,1,71.9999978027344,10|0,0:2|0:2,0:2:0:0:
442,56,23546,1,2,0:2:0:0:
436,42,23646,2,0,L|358:34,1,71.9999978027344,8|0,0:2|0:2,0:2:0:0:
230,106,24046,1,10,0:2:0:0:
330,166,24246,1,0,0:2:0:0:
177,178,24446,1,2,1:2:0:0:
278,239,24646,1,0,0:2:0:0:
195,335,24846,6,0,L|103:346,1,71.9999978027344,10|0,0:2|0:2,0:2:0:0:
102,363,25146,1,8,3:3:0:0:
73,356,25246,1,8,3:2:0:0:
49,372,25346,1,0,1:2:0:0:
21,364,25446,2,0,P|8:335|21:267,1,71.9999978027344,2|0,3:2|0:2,0:2:0:0:
65,215,25846,5,2,0:2:0:0:
82,220,25946,1,8,0:2:0:0:
99,220,26046,2,0,P|141:210|180:178,1,71.9999978027344,0|0,1:2|0:2,0:2:0:0:
9,93,26446,6,0,P|100:98|140:123,1,120.000004577637,14|0,0:2|0:2,0:2:0:0:
189,67,27046,1,8,0:2:0:0:
263,162,27246,2,0,P|262:102|278:24,1,120,2|0,1:2|0:2,0:2:0:0:
412,0,27846,5,0,0:2:0:0:
412,0,27946,1,0,0:2:0:0:
412,0,28046,1,8,2:2:0:0:
272,43,28346,1,8,0:2:0:0:
378,142,28646,1,8,0:2:0:0:
331,236,28846,2,0,P|318:271|323:364,1,120,2|0,1:2|0:2,0:2:0:0:
496,384,29446,5,0,0:2:0:0:
496,384,29546,1,0,0:2:0:0:
496,384,29646,2,0,P|501:324|484:267,1,120,14|0,0:2|0:2,0:2:0:0:
412,182,30246,1,8,0:2:0:0:
412,182,30346,1,8,0:2:0:0:
412,182,30446,2,0,P|362:205|280:191,1,120,2|0,1:2|0:2,0:2:0:0:
161,146,31046,5,8,0:2:0:0:
161,146,31146,1,8,0:2:0:0:
161,146,31246,1,10,0:2:0:0:
298,200,31546,1,8,0:2:0:0:
277,55,31846,1,8,0:2:0:0:
277,55,31946,1,8,0:2:0:0:
277,55,32046,1,0,1:2:0:0:
250,133,32246,1,8,0:3:0:0:
298,200,32446,1,4,0:3:0:0:
214,278,32646,5,0,0:2:0:0:
214,278,32746,1,0,0:2:0:0:
214,278,32846,2,0,P|172:267|126:266,1,80,14|0,0:2|0:2,0:2:0:0:
103,271,33146,1,10,3:2:0:0:
80,247,33246,1,0,1:2:0:0:
81,215,33346,1,0,3:2:0:0:
95,186,33446,2,0,B|101:169|101:169|97:152|97:152|108:108,1,80,10|0,2:2|0:2,0:2:0:0:
219,2,33846,2,0,P|218:37|239:80,1,80,10|0,0:2|1:2,0:2:0:0:
363,141,34246,5,0,0:2:0:0:
363,141,34346,1,0,0:2:0:0:
363,141,34446,2,0,P|403:127|450:126,1,80,10|0,0:2|0:2,0:2:0:0:
471,130,34746,1,2,3:2:0:0:
496,149,34846,1,0,1:2:0:0:
503,180,34946,1,0,3:2:0:0:
496,211,35046,2,0,P|453:233|393:233,1,80,10|0,0:2|0:2,0:2:0:0:
305,225,35446,1,10,0:2:0:0:
422,337,35646,1,0,1:2:0:0:
304,384,35846,5,8,3:2:0:0:
304,384,35946,1,0,1:2:0:0:
304,384,36046,1,8,3:2:0:0:
346,307,36246,1,8,3:2:0:0:
346,307,36346,1,8,3:2:0:0:
346,307,36446,1,0,1:2:0:0:
305,225,36646,1,10,0:2:0:0:
411,182,36846,1,0,0:2:0:0:
265,123,37046,1,10,0:2:0:0:
371,80,37246,1,0,1:2:0:0:
272,31,37446,5,10,3:2:0:0:
272,31,37546,1,0,1:2:0:0:
272,31,37646,2,0,B|235:51|235:51|166:37,1,80,8|0,3:2|0:2,0:2:0:0:
182,39,37946,1,8,3:2:0:0:
166,35,38046,1,0,1:2:0:0:
0,82,38246,5,10,0:2:0:0:
97,109,38446,1,0,0:2:0:0:
25,180,38646,1,8,0:2:0:0:
72,11,38846,1,2,1:2:0:0:
195,136,39046,1,8,0:2:0:0:
126,200,39246,2,0,P|112:247|126:303,1,88.000002685547,2|8,1:2|0:2,0:2:0:0:
222,348,39646,5,2,1:2:0:0:
251,331,39746,1,0,3:2:0:0:
283,328,39846,1,8,3:2:0:0:
315,337,39946,1,0,3:2:0:0:
340,356,40046,1,2,1:2:0:0:
366,375,40146,1,0,3:2:0:0:
398,384,40246,1,8,3:2:0:0:
430,381,40346,1,0,3:2:0:0:
459,365,40446,1,0,1:2:0:0:
512,271,40646,6,0,B|488:238|488:238|493:194|493:194|467:154,1,132.00000402832,10|0,3:2|0:2,0:2:0:0:
453,137,41046,1,8,0:3:0:0:
436,122,41146,1,8,0:3:0:0:
416,111,41246,6,0,B|292:109|373:31|216:30,1,207.999990478516,10|0,1:2|0:2,0:2:0:0:
82,0,41846,5,0,3:2:0:0:
101,2,41946,1,0,3:2:0:0:
83,9,42046,1,0,3:2:0:0:
102,11,42146,1,0,3:2:0:0:
84,18,42246,1,0,3:2:0:0:
103,20,42346,1,0,3:2:0:0:
87,27,42446,6,0,B|75:66|75:66|110:107|89:170,1,143.999995605469,14|8,0:2|0:2,0:2:0:0:
80,185,42846,1,0,1:2:0:0:
191,93,43046,1,8,0:2:0:0:
191,93,43146,2,0,P|232:79|288:80,1,95.9999970703126,0|0,1:2|0:2,0:2:0:0:
306,89,43446,1,10,0:2:0:0:
274,221,43646,1,2,1:2:0:0:
409,254,43846,1,0,3:2:0:0:
409,254,43946,1,0,3:2:0:0:
409,254,44046,2,0,L|437:106,1,143.999995605469,10|8,3:2|0:2,0:2:0:0:
443,89,44446,5,2,1:2:0:0:
504,190,44646,1,10,0:2:0:0:
504,190,44746,1,0,3:3:0:0:
413,258,44946,1,0,3:3:0:0:
413,258,45046,1,10,0:2:0:0:
339,161,45246,1,0,1:2:0:0:
318,149,45346,1,0,3:2:0:0:
294,143,45446,1,0,3:2:0:0:
270,143,45546,1,0,3:2:0:0:
249,154,45646,2,0,P|217:224|235:309,1,143.999995605469,10|8,3:2|0:2,0:2:0:0:
233,311,46046,5,2,1:2:0:0:
113,238,46246,1,8,0:2:0:0:
113,238,46346,2,0,P|71:224|4:236,1,95.9999970703126,0|0,1:2|0:2,0:2:0:0:
0,243,46646,1,8,0:2:0:0:
107,142,46846,1,2,1:2:0:0:
149,327,47046,1,0,3:2:0:0:
149,327,47146,1,0,3:2:0:0:
149,327,47246,2,0,P|199:357|280:315,1,143.999995605469,10|8,3:2|0:2,0:2:0:0:
289,308,47646,5,2,1:2:0:0:
398,378,47846,1,10,0:2:0:0:
398,378,47946,1,0,3:2:0:0:
424,258,48146,1,0,3:2:0:0:
424,258,48246,1,10,0:2:0:0:
318,190,48446,1,0,1:2:0:0:
310,167,48546,1,0,3:2:0:0:
310,143,48646,1,0,3:2:0:0:
318,120,48746,1,0,1:2:0:0:
329,99,48846,6,0,P|343:50|333:6,1,95.9999970703126,14|0,0:2|0:2,0:2:0:0:
407,143,49246,1,2,1:2:0:0:
258,48,49446,1,8,0:2:0:0:
258,48,49546,2,0,P|212:42|148:39,1,95.9999970703126,0|0,1:2|0:2,0:2:0:0:
139,47,49846,1,8,0:2:0:0:
169,195,50046,1,0,1:2:0:0:
301,164,50246,5,2,3:2:0:0:
301,164,50346,1,0,3:2:0:0:
301,164,50446,1,8,3:2:0:0:
279,306,50646,1,0,3:2:0:0:
279,306,50746,1,8,3:2:0:0:
279,306,50846,1,0,1:2:0:0:
144,239,51046,2,0,P|82:233|-1:330,1,191.999994140625,10|8,0:2|0:2,0:2:0:0:
153,384,51646,1,0,1:2:0:0:
156,369,51746,1,0,1:2:0:0:
160,355,51846,1,8,3:2:0:0:
265,288,52046,6,0,P|247:246|255:174,1,95.9999970703126,10|0,0:2|0:2,0:2:0:0:
257,173,52346,2,0,L|312:159,1,47.9999985351563,8|0,0:2|1:2,0:2:0:0:
446,51,52646,1,10,0:2:0:0:
446,51,52746,1,8,0:2:0:0:
446,51,52846,1,0,1:2:0:0:
311,33,53046,1,8,0:2:0:0:
434,189,53246,1,0,1:2:0:0:
311,169,53446,5,0,3:2:0:0:
311,169,53546,1,0,3:2:0:0:
311,169,53646,1,10,3:2:0:0:
449,197,53846,1,8,0:2:0:0:
287,264,54046,1,2,1:2:0:0:
434,307,54246,1,10,1:2:0:0:
299,381,54446,1,8,0:3:0:0:
153,332,54646,1,0,1:2:0:0:
131,322,54746,1,0,1:2:0:0:
107,316,54846,1,8,3:3:0:0:
84,313,54946,1,8,3:3:0:0:
60,315,55046,1,4,3:3:0:0:
36,320,55146,1,4,3:3:0:0:
14,329,55246,6,0,P|99:335|170:283,1,143.999995605469,14|8,0:2|0:2,0:2:0:0:
168,293,55646,1,2,1:2:0:0:
87,187,55846,1,8,0:2:0:0:
87,187,55946,2,0,P|71:146|79:82,1,95.9999970703126,0|0,1:2|0:2,0:2:0:0:
83,72,56246,1,8,0:2:0:0:
211,138,56446,1,2,1:2:0:0:
275,28,56646,1,0,3:2:0:0:
275,28,56746,1,0,3:2:0:0:
275,28,56846,2,0,B|344:47|344:47|407:13,1,143.999995605469,10|8,3:2|0:2,0:2:0:0:
428,0,57246,5,2,1:2:0:0:
364,135,57446,1,10,0:2:0:0:
364,135,57546,1,0,3:2:0:0:
444,228,57746,1,0,3:2:0:0:
444,228,57846,1,10,0:2:0:0:
389,339,58046,1,0,1:2:0:0:
366,332,58146,1,0,3:2:0:0:
342,325,58246,1,0,3:2:0:0:
318,319,58346,1,0,3:2:0:0:
294,315,58446,2,0,P|304:243|274:159,1,143.999995605469,10|8,3:2|0:2,0:2:0:0:
270,155,58846,5,2,1:2:0:0:
136,215,59046,1,8,0:2:0:0:
136,215,59146,2,0,P|138:171|152:117,1,95.9999970703126,0|0,1:2|0:2,0:2:0:0:
163,100,59446,1,8,0:2:0:0:
284,175,59646,1,2,1:2:0:0:
389,79,59846,1,0,3:2:0:0:
389,79,59946,1,0,3:2:0:0:
389,79,60046,2,0,P|460:77|509:159,1,143.999995605469,14|8,3:2|0:2,0:2:0:0:
512,150,60446,5,2,1:2:0:0:
397,295,60646,2,0,P|392:232|358:183,1,95.9999970703126,14|0,0:2|1:2,0:2:0:0:
260,65,61046,1,10,0:2:0:0:
211,219,61246,1,0,1:2:0:0:
211,219,61346,1,8,0:2:0:0:
117,138,61546,1,0,1:2:0:0:
104,146,61646,6,0,B|71:141|71:141|52:148|52:148|-14:138,1,95.9999970703126,14|0,0:2|0:2,0:2:0:0:
88,277,62046,1,0,1:2:0:0:
215,223,62246,1,10,0:2:0:0:
215,223,62346,2,0,B|248:218|248:218|267:225|267:225|333:215,1,95.9999970703126,0|0,1:2|0:2,0:2:0:0:
332,214,62646,1,8,0:2:0:0:
377,373,62846,1,0,1:2:0:0:
463,267,63046,5,2,3:2:0:0:
463,267,63146,1,0,1:2:0:0:
463,267,63246,1,8,3:2:0:0:
261,316,63446,1,0,3:2:0:0:
261,316,63546,1,8,3:2:0:0:
261,316,63646,1,0,1:2:0:0:
332,214,63846,2,0,P|347:147|311:68,1,143.999995605469,10|0,0:2|0:2,0:2:0:0:
301,62,64246,1,8,0:2:0:0:
189,142,64446,1,0,1:2:0:0:
212,147,64546,1,0,1:2:0:0:
233,157,64646,1,8,3:2:0:0:
51,65,64846,6,0,P|98:65|143:50,1,95.9999970703126,14|0,0:2|0:2,0:2:0:0:
165,40,65146,1,8,0:2:0:0:
181,22,65246,1,0,1:2:0:0:
233,157,65446,1,8,0:2:0:0:
360,5,65646,1,0,1:2:0:0:
391,133,65846,1,8,0:2:0:0:
293,86,66046,1,0,1:2:0:0:
463,52,66246,1,8,3:2:0:0:
463,52,66346,1,0,1:2:0:0:
463,52,66446,1,10,3:1:0:0:
411,222,66646,1,10,0:1:0:0:
512,384,67446,5,8,0:3:0:0:
512,384,67546,1,4,0:3:0:0:
512,384,67646,2,0,L|505:325,1,47.9999985351563,0|8,1:2|0:2,0:2:0:0:
405,247,68046,6,0,P|370:260|322:251,1,80,14|0,0:2|0:2,0:2:0:0:
314,245,68346,2,0,L|300:187,1,40,10|0,0:2|1:2,0:2:0:0:
235,109,68646,1,10,0:2:0:0:
234,124,68746,1,0,3:2:0:0:
342,80,68946,1,0,3:2:0:0:
352,92,69046,1,10,0:2:0:0:
216,29,69246,5,0,1:2:0:0:
216,29,69346,1,0,1:2:0:0:
216,29,69446,2,0,B|120:57|161:-6|54:18,1,160,8|8,3:2|0:2,0:2:0:0:
141,118,70046,1,0,1:2:0:0:
49,166,70246,1,10,0:2:0:0:
28,177,70346,1,0,1:2:0:0:
14,196,70446,1,8,0:2:0:0:
3,217,70546,2,0,P|-2:278|12:312,1,80,0|8,1:2|0:2,0:2:0:0:
12,317,70846,1,2,1:2:0:0:
137,384,71046,5,0,3:2:0:0:
137,384,71146,1,0,3:2:0:0:
137,384,71246,2,0,P|138:339|153:296,1,80,14|0,0:2|1:2,0:2:0:0:
164,288,71546,1,8,0:3:0:0:
186,280,71646,1,8,0:3:0:0:
210,280,71746,1,8,0:3:0:0:
232,289,71846,2,0,B|270:297|270:297|309:275,1,80,14|0,3:2|3:2,0:2:0:0:
394,191,72246,5,2,3:2:0:0:
373,166,72346,1,0,3:2:0:0:
375,134,72446,1,0,1:2:0:0:
403,148,72546,1,0,1:2:0:0:
419,175,72646,2,0,P|434:221|422:276,1,80,6|0,3:2|0:0,0:2:0:0:
343,340,73046,2,0,P|307:325|256:326,1,80,10|0,0:2|1:2,0:2:0:0:
121,357,73446,5,10,3:2:0:0:
121,357,73546,1,0,1:2:0:0:
121,357,73646,1,8,3:2:0:0:
169,238,73846,2,8,L|158:196,2,26.6666666666667,8|8|8,0:2|0:2|0:2,0:2:0:0:
181,253,74046,2,0,P|220:250|256:232,1,80,2|4,1:2|0:3,0:2:0:0:
362,133,74446,5,14,0:2:0:0:
284,86,74646,1,0,0:2:0:0:
284,86,74746,1,0,0:2:0:0:
284,86,74846,2,0,P|275:45|279:11,1,60.0000022888184,8|0,0:2|0:2,0:2:0:0:
152,0,75246,2,0,P|151:29|143:58,1,60.0000022888184,10|0,0:2|0:2,0:2:0:0:
135,74,75546,1,2,0:2:0:0:
124,88,75646,2,0,L|49:98,1,60.0000022888184,8|0,0:2|0:2,0:2:0:0:
0,199,76046,5,10,0:2:0:0:
73,250,76246,1,0,0:2:0:0:
73,250,76346,1,0,0:2:0:0:
73,250,76446,2,0,P|106:250|135:221,1,60.0000022888184,8|0,0:2|0:2,0:2:0:0:
255,154,76846,2,0,L|167:148,1,60.0000022888184,10|0,0:2|0:2,0:2:0:0:
310,269,77246,2,0,L|328:232,1,30.0000011444092,8|0,0:2|0:2,0:2:0:0:
363,173,77446,5,8,0:2:0:0:
363,173,77546,1,8,0:2:0:0:
363,173,77646,1,10,0:2:0:0:
429,251,77846,2,0,P|441:276|430:323,1,60.0000022888184,2|8,0:2|0:2,0:2:0:0:
362,374,78246,1,0,0:2:0:0:
362,374,78346,1,0,0:2:0:0:
362,374,78446,2,0,P|311:360|277:361,1,60.0000022888184,10|0,0:2|0:2,0:2:0:0:
287,366,78746,2,0,L|251:376,1,30.0000011444092,2|8,0:2|0:2,0:2:0:0:
156,326,79046,5,0,0:2:0:0:
156,326,79146,1,0,0:2:0:0:
156,326,79246,2,8,P|175:273|165:221,1,102.000001945496,10|0,0:2|0:2,0:2:0:0:
156,212,79646,2,0,L|85:204,1,68.0000012969971,10|0,0:2|0:2,0:2:0:0:
210,119,80046,2,0,L|281:111,1,68.0000012969971,10|0,0:2|0:3,0:2:0:0:
277,111,80346,1,8,0:3:0:0:
277,111,80446,1,6,1:2:0:0:
329,37,80646,1,4,0:3:0:0:
452,86,80846,6,0,P|483:131|459:241,1,143.999995605469,14|8,0:2|0:2,0:2:0:0:
368,314,81446,1,2,0:2:0:0:
368,314,81546,1,2,0:2:0:0:
368,314,81646,1,10,0:2:0:0:
440,361,81846,1,2,0:2:0:0:
508,307,82046,1,2,1:2:0:0:
394,223,82246,5,0,0:2:0:0:
394,223,82346,1,0,0:2:0:0:
394,223,82446,2,0,P|380:188|385:132,1,71.9999978027344,10|0,0:2|0:2,0:2:0:0:
385,140,82746,1,2,0:2:0:0:
395,130,82846,2,0,L|473:117,1,71.9999978027344,8|0,0:2|0:2,0:2:0:0:
348,39,83246,2,0,L|270:26,1,71.9999978027344,10|0,0:2|0:2,0:2:0:0:
173,69,83646,1,0,1:2:0:0:
266,163,83846,5,8,0:3:0:0:
266,163,83946,1,4,0:3:0:0:
266,163,84046,2,0,P|283:196|275:247,1,71.9999978027344,10|0,0:2|0:2,0:2:0:0:
276,243,84346,1,2,0:2:0:0:
267,254,84446,2,0,L|188:270,1,71.9999978027344,8|0,0:2|0:2,0:2:0:0:
20,249,84846,1,10,0:2:0:0:
146,203,85046,1,0,0:2:0:0:
61,161,85246,1,2,1:2:0:0:
105,289,85446,1,0,0:2:0:0:
226,247,85646,6,0,L|232:171,1,71.9999978027344,10|0,0:2|0:2,0:2:0:0:
248,151,85946,1,0,1:2:0:0:
234,125,86046,1,8,3:2:0:0:
255,106,86146,1,0,1:2:0:0:
241,80,86246,2,0,P|236:51|266:-1,1,71.9999978027344,10|0,3:2|0:2,0:2:0:0:
361,59,86646,5,2,0:2:0:0:
361,59,86746,1,0,3:2:0:0:
361,59,86846,2,0,L|449:46,1,71.9999978027344,0|0,1:2|0:2,0:2:0:0:
402,177,87246,6,0,P|462:188|497:255,1,120.000004577637,14|0,0:2|0:2,0:2:0:0:
506,310,87846,1,8,0:2:0:0:
415,384,88046,2,0,P|407:326|386:246,1,120,2|0,1:2|0:2,0:2:0:0:
316,155,88646,5,0,0:2:0:0:
316,155,88746,1,0,0:2:0:0:
316,155,88846,1,8,2:2:0:0:
248,282,89146,1,8,0:2:0:0:
392,266,89446,1,8,0:2:0:0:
415,191,89646,2,0,P|402:156|407:63,1,120,2|0,1:2|0:2,0:2:0:0:
235,8,90246,5,0,0:2:0:0:
235,8,90346,1,0,0:2:0:0:
235,8,90446,2,0,P|240:67|223:124,1,120,14|0,0:2|0:2,0:2:0:0:
125,196,91046,1,8,0:2:0:0:
125,196,91146,1,8,0:2:0:0:
125,196,91246,2,0,P|75:173|-7:184,1,120,2|0,1:2|0:2,0:2:0:0:
173,321,91846,5,8,0:2:0:0:
173,321,91946,1,8,0:2:0:0:
173,321,92046,1,10,0:0:0:0:
261,288,92246,1,0,1:0:0:0:
261,288,92346,1,8,0:2:0:0:
411,311,92646,1,8,0:2:0:0:
411,311,92746,1,8,0:2:0:0:
411,311,92846,1,0,1:2:0:0:
323,373,93046,1,8,0:3:0:0:
261,288,93246,1,4,0:3:0:0:
355,228,93446,5,0,0:2:0:0:
355,228,93546,1,0,0:2:0:0:
355,228,93646,2,0,P|364:199|352:137,1,80,14|0,0:2|0:2,0:2:0:0:
344,121,93946,1,10,3:2:0:0:
317,103,94046,1,0,1:2:0:0:
285,97,94146,1,0,3:2:0:0:
254,105,94246,2,0,P|223:111|170:93,1,80,10|0,2:2|0:2,0:2:0:0:
297,14,94646,2,0,P|334:1|373:7,1,80,10|0,0:2|1:2,0:2:0:0:
473,109,95046,5,0,0:2:0:0:
473,109,95146,1,0,0:2:0:0:
473,109,95246,2,0,L|461:198,1,80,10|0,0:2|0:2,0:2:0:0:
456,219,95546,1,2,3:2:0:0:
433,241,95646,1,0,1:2:0:0:
402,249,95746,1,0,3:2:0:0:
370,248,95846,2,0,P|337:230|295:230,1,80,10|0,0:2|0:2,0:2:0:0:
140,294,96246,1,10,0:2:0:0:
177,123,96446,1,0,1:2:0:0:
303,238,96646,5,8,3:2:0:0:
303,238,96746,1,0,1:2:0:0:
303,238,96846,1,8,3:2:0:0:
201,223,97046,1,8,3:2:0:0:
201,223,97146,1,8,3:2:0:0:
201,223,97246,1,0,1:2:0:0:
327,133,97446,1,10,0:2:0:0:
187,29,97646,1,0,0:2:0:0:
155,128,97846,1,10,0:2:0:0:
322,28,98046,1,0,1:2:0:0:
414,98,98246,5,10,3:2:0:0:
414,98,98346,1,0,1:2:0:0:
414,98,98446,2,0,B|455:101|455:101|492:70,1,80,8|0,3:2|0:2,0:2:0:0:
496,64,98746,1,8,3:2:0:0:
506,51,98846,1,0,1:2:0:0:
392,178,99046,5,10,0:2:0:0:
494,223,99246,1,0,0:2:0:0:
370,301,99446,1,8,0:2:0:0:
288,122,99646,1,2,1:2:0:0:
392,178,99846,1,8,0:2:0:0:
274,354,100046,2,0,L|247:258,1,88.000002685547,2|8,1:2|0:2,0:2:0:0:
158,170,100446,5,2,1:2:0:0:
136,197,100546,1,0,3:2:0:0:
105,212,100646,1,8,3:2:0:0:
70,215,100746,1,0,3:2:0:0:
38,203,100846,1,2,1:2:0:0:
13,178,100946,1,0,3:2:0:0:
0,146,101046,1,8,3:2:0:0:
1,111,101146,1,0,3:2:0:0:
16,80,101246,1,0,1:2:0:0:
134,27,101446,6,0,B|183:34|183:34|212:16|212:16|259:23,1,132.00000402832,10|0,3:2|0:2,0:2:0:0:
281,29,101846,1,8,0:3:0:0:
300,39,101946,1,8,0:3:0:0:
319,51,102046,6,0,B|339:115|403:122|399:81|459:118|474:169,1,207.999990478516,10|0,1:2|0:2,0:2:0:0:
511,308,102646,5,0,3:2:0:0:
512,288,102746,1,0,3:2:0:0:
502,304,102846,1,0,3:2:0:0:
505,284,102946,1,0,3:2:0:0:
493,301,103046,1,0,3:2:0:0:
496,282,103146,1,0,3:2:0:0:
485,296,103246,6,0,B|435:274|390:317|390:317|342:290,1,143.999995605469,14|8,0:2|0:2,0:2:0:0:
334,285,103646,1,0,1:2:0:0:
427,162,103846,1,8,0:2:0:0:
427,162,103946,2,0,P|443:118|420:62,1,95.9999970703126,0|0,1:2|0:2,0:2:0:0:
412,55,104246,1,10,0:2:0:0:
291,6,104446,1,2,1:2:0:0:
241,126,104646,1,0,3:2:0:0:
241,126,104746,1,0,3:2:0:0:
241,126,104846,2,0,P|262:185|228:276,1,143.999995605469,10|8,3:2|0:2,0:2:0:0:
226,280,105246,5,2,1:2:0:0:
98,253,105446,1,10,0:2:0:0:
98,253,105546,1,0,3:3:0:0:
142,384,105746,1,0,3:3:0:0:
142,384,105846,1,10,0:2:0:0:
226,280,106046,1,0,1:2:0:0:
221,256,106146,1,0,3:2:0:0:
224,232,106246,1,0,3:2:0:0:
237,212,106346,1,0,3:2:0:0:
259,202,106446,2,0,B|326:217|326:217|394:175,1,143.999995605469,10|8,3:2|0:2,0:2:0:0:
409,162,106846,5,2,1:2:0:0:
498,259,107046,1,8,0:2:0:0:
498,259,107146,2,0,P|505:312|481:362,1,95.9999970703126,0|0,1:2|0:2,0:2:0:0:
474,369,107446,1,8,0:2:0:0:
362,291,107646,1,2,1:2:0:0:
417,170,107846,1,0,3:2:0:0:
417,170,107946,1,0,3:2:0:0:
417,170,108046,2,0,P|432:106|390:27,1,143.999995605469,10|8,3:2|0:2,0:2:0:0:
383,20,108446,5,2,1:2:0:0:
286,97,108646,1,10,0:2:0:0:
286,97,108746,1,0,3:2:0:0:
186,30,108946,1,0,3:2:0:0:
186,30,109046,1,10,0:2:0:0:
100,120,109246,1,0,1:2:0:0:
90,142,109346,1,0,3:2:0:0:
87,165,109446,1,0,3:2:0:0:
93,188,109546,1,0,1:2:0:0:
102,210,109646,6,0,B|147:222|147:222|209:190,1,95.9999970703126,14|0,0:2|0:2,0:2:0:0:
245,319,110046,1,2,1:2:0:0:
346,245,110246,1,8,0:2:0:0:
346,245,110346,2,0,B|351:211|351:211|347:197|347:197|356:140,1,95.9999970703126,0|0,1:2|0:2,0:2:0:0:
360,127,110646,1,8,0:2:0:0:
465,211,110846,1,0,1:2:0:0:
474,63,111046,5,2,3:2:0:0:
474,63,111146,1,0,3:2:0:0:
474,63,111246,1,8,3:2:0:0:
368,134,111446,1,0,3:2:0:0:
368,134,111546,1,8,3:2:0:0:
368,134,111646,1,0,1:2:0:0:
259,58,111846,2,0,B|143:90|186:-1|53:41,1,191.999994140625,10|8,0:2|0:2,0:2:0:0:
168,151,112446,1,0,1:2:0:0:
178,161,112546,1,0,1:2:0:0:
188,170,112646,1,8,3:2:0:0:
123,278,112846,6,0,P|80:302|8:289,1,95.9999970703126,10|0,0:2|0:2,0:2:0:0:
12,290,113146,2,0,P|3:270|0:244,1,47.9999985351563,8|0,0:2|1:2,0:2:0:0:
81,68,113446,1,10,0:2:0:0:
81,68,113546,1,8,0:2:0:0:
81,68,113646,1,0,1:2:0:0:
188,170,113846,1,8,0:2:0:0:
288,81,114046,1,0,1:2:0:0:
387,146,114246,5,0,3:2:0:0:
408,156,114346,1,0,3:2:0:0:
432,156,114446,1,10,3:2:0:0:
454,146,114546,1,8,3:2:0:0:
469,128,114646,1,8,0:2:0:0:
371,24,114846,1,2,1:2:0:0:
297,207,115046,1,10,1:2:0:0:
433,276,115246,1,8,0:3:0:0:
310,363,115446,1,0,1:2:0:0:
286,360,115546,1,0,1:2:0:0:
262,357,115646,1,8,3:3:0:0:
238,355,115746,1,8,3:3:0:0:
214,352,115846,1,4,3:3:0:0:
190,349,115946,1,4,3:3:0:0:
165,346,116046,6,0,P|148:278|177:214,1,143.999995605469,14|8,0:2|0:2,0:2:0:0:
199,204,116446,1,2,1:2:0:0:
315,271,116646,1,8,0:2:0:0:
315,271,116746,2,0,B|359:285|359:285|404:261,1,95.9999970703126,0|0,1:2|0:2,0:2:0:0:
423,248,117046,1,8,0:2:0:0:
370,124,117246,1,2,1:2:0:0:
478,40,117446,1,0,3:2:0:0:
478,40,117546,1,0,3:2:0:0:
478,40,117646,2,0,P|508:87|485:177,1,143.999995605469,8|8,3:2|0:2,0:2:0:0:
475,187,118046,5,2,1:2:0:0:
374,128,118246,1,10,0:2:0:0:
374,128,118346,1,0,3:2:0:0:
309,231,118546,1,0,3:2:0:0:
309,231,118646,1,10,0:2:0:0:
201,176,118846,1,0,1:2:0:0:
222,164,118946,1,0,3:2:0:0:
237,145,119046,1,0,3:2:0:0:
248,123,119146,1,0,3:2:0:0:
249,99,119246,2,0,P|239:54|148:27,1,143.999995605469,10|8,3:2|0:2,0:2:0:0:
132,34,119646,5,2,1:2:0:0:
15,116,119846,1,8,0:2:0:0:
15,116,119946,1,0,1:2:0:0:
141,173,120146,1,0,3:2:0:0:
141,173,120246,1,8,0:2:0:0:
249,99,120446,1,2,1:2:0:0:
360,150,120646,1,0,3:2:0:0:
360,150,120746,1,0,3:2:0:0:
360,150,120846,2,0,B|443:153|397:97|504:99,1,143.999995605469,14|8,3:2|0:2,0:2:0:0:
510,115,121246,5,2,1:2:0:0:
479,330,121446,2,0,P|474:283|442:238,1,95.9999970703126,14|0,0:2|1:2,0:2:0:0:
274,181,121846,1,10,0:2:0:0:
228,353,122046,1,0,1:2:0:0:
228,353,122146,1,8,0:2:0:0:
102,269,122346,1,0,1:2:0:0:
94,277,122446,6,0,B|58:273|58:273|42:279|42:279|-24:269,1,95.9999970703126,14|0,0:2|0:2,0:2:0:0:
155,192,122846,1,0,1:2:0:0:
80,121,123046,1,10,0:2:0:0:
80,121,123146,2,0,B|56:102|56:102|49:73|68:24,1,95.9999970703126,0|0,1:2|0:2,0:2:0:0:
80,21,123446,1,8,0:2:0:0:
201,83,123646,1,0,1:2:0:0:
330,20,123846,5,2,3:2:0:0:
330,20,123946,1,0,1:2:0:0:
330,20,124046,1,8,3:2:0:0:
271,181,124246,1,0,3:2:0:0:
271,181,124346,1,8,3:2:0:0:
271,181,124446,1,0,1:2:0:0:
408,139,124646,2,0,P|467:140|512:224,1,143.999995605469,10|0,0:2|0:2,0:2:0:0:
511,228,125046,1,8,0:2:0:0:
460,360,125246,1,0,1:2:0:0:
449,338,125346,1,0,1:2:0:0:
439,316,125446,1,8,3:2:0:0:
284,258,125646,6,0,B|321:248|321:248|337:253|337:253|381:244,1,95.9999970703126,14|0,0:2|0:2,0:2:0:0:
400,238,125946,1,8,0:2:0:0:
423,232,126046,1,0,1:2:0:0:
251,136,126246,1,8,0:2:0:0:
420,27,126446,1,0,1:2:0:0:
403,149,126646,1,8,0:2:0:0:
251,14,126846,1,0,1:2:0:0:
138,202,127046,1,8,3:2:0:0:
146,209,127146,1,0,1:2:0:0:
146,209,127246,1,10,3:1:0:0:
108,8,127446,1,10,0:1:0:0:
0,372,128046,5,8,0:3:0:0:
0,372,128146,1,8,0:3:0:0:
0,372,128246,1,4,0:3:0:0:
0,372,128346,1,4,0:3:0:0:
0,372,128446,2,0,L|10:294,1,60.0000022888184,2|8,1:2|0:2,0:2:0:0:
146,245,128846,6,0,P|107:255|71:240,1,80,14|0,2:2|0:2,0:1:0:0:
54,229,129146,2,0,L|49:186,1,40,8|0,0:2|1:2,0:2:0:0:
158,95,129446,1,8,0:2:0:0:
233,167,129646,2,0,P|271:177|307:162,1,80,2|8,0:2|0:2,0:1:0:0:
325,152,129946,2,0,L|330:109,1,40,2|0,0:2|1:2,0:2:0:0:
448,208,130246,1,8,3:2:0:0:
448,208,130346,1,0,1:2:0:0:
448,208,130446,2,0,P|458:258|433:293,1,80,8|0,3:2|0:2,0:2:0:0:
431,296,130746,2,0,L|377:302,1,40,8|0,0:2|1:2,0:2:0:0:
280,384,131046,5,10,0:2:0:0:
211,303,131246,1,2,3:2:0:0:
211,303,131346,2,0,P|213:278|221:257,1,40,0|8,1:2|0:2,0:2:0:0:
272,212,131546,1,2,3:2:0:0:
272,212,131646,2,0,L|328:206,1,40,0|0,1:2|3:2,0:2:0:0:
233,141,131846,2,0,L|177:135,1,40,2|0,1:2|3:2,0:2:0:0:
306,99,132046,6,0,P|319:63|306:11,1,80,10|0,0:2|0:2,0:1:0:0:
296,9,132346,2,0,L|231:16,1,40,8|0,0:2|1:2,0:2:0:0:
111,84,132646,1,10,0:2:0:0:
108,56,132746,1,2,0:2:0:0:
119,30,132846,1,2,1:2:0:0:
193,136,133046,1,8,2:2:0:0:
51,156,133246,1,0,1:2:0:0:
137,222,133446,5,2,3:2:0:0:
137,222,133546,1,2,1:2:0:0:
137,222,133646,1,14,2:2:0:0:
31,295,133846,1,2,0:2:0:0:
135,382,134046,1,2,1:2:0:0:
293,332,134246,2,2,P|367:316|500:328,1,191.999994140625,14|8,0:2|0:2,0:1:0:0:
331,234,134846,5,2,1:2:0:0:
318,207,134946,1,8,3:2:0:0:
311,178,135046,1,8,3:2:0:0:
312,149,135146,1,0,1:2:0:0:
325,123,135246,2,2,B|364:111|364:111|385:120|385:120|438:104,1,103.999995239258,14|0,3:2|0:2,0:1:0:0:
444,101,135546,2,2,P|453:83|442:48,1,44.0000013427735,10|0,0:2|1:2,0:1:0:0:
310,26,135846,6,2,B|245:18|245:18|213:41|213:41|141:33,1,176.000005371094,10|8,0:2|2:2,0:1:0:0:
47,10,136446,1,0,1:2:0:0:
28,110,136646,1,0,3:2:0:0:
28,110,136746,1,0,1:2:0:0:
28,110,136846,1,8,3:2:0:0:
143,164,137046,5,2,0:1:0:0:
143,164,137146,1,8,0:2:0:0:
143,164,137246,2,2,L|250:147,1,88.000002685547,0|0,1:2|0:2,0:1:0:0:
334,313,137646,2,2,P|294:304|225:299,1,88.000002685547,2|8,0:2|0:2,0:1:0:0:
225,299,137946,2,2,L|171:329,1,44.0000013427735,10|0,2:2|1:2,0:1:0:0:
70,384,138246,5,10,0:1:0:0:
70,384,138346,1,8,0:2:0:0:
70,384,138446,2,2,P|58:326|78:273,1,95.9999970703126,14|0,0:2|0:2,0:1:0:0:
86,277,138746,2,0,L|144:253,1,47.9999985351563,8|0,0:2|1:2,0:2:0:0:
261,173,139046,5,10,0:1:0:0:
261,173,139146,1,8,0:2:0:0:
261,173,139246,1,0,1:2:0:0:
107,126,139446,1,10,0:2:0:0:
225,17,139646,1,0,1:2:0:0:
307,83,139846,5,2,3:2:0:0:
328,94,139946,1,0,1:2:0:0:
351,96,140046,1,0,1:2:0:0:
374,90,140146,1,8,3:3:0:0:
454,17,140346,1,8,3:3:0:0:
512,109,140546,1,4,3:3:0:0:
512,109,140646,1,2,1:2:0:0:
432,182,140846,1,4,3:3:0:0:
505,272,141046,1,8,0:3:0:0:
505,272,141146,1,8,0:3:0:0:
505,272,141246,2,0,B|522:347|473:379|473:379|427:370,1,160,10|14,1:2|0:2,0:2:0:0:
304,265,141846,5,2,0:2:0:0:
319,261,141946,1,8,0:2:0:0:
334,257,142046,1,0,1:2:0:0:
391,170,142246,1,8,0:2:0:0:
391,170,142346,2,0,P|375:139|375:85,1,80,0|0,1:2|0:2,0:2:0:0:
379,80,142646,1,8,0:2:0:0:
297,4,142846,1,2,1:2:0:0:
199,78,143046,5,8,3:2:0:0:
199,78,143146,1,0,1:2:0:0:
199,78,143246,2,0,B|164:107|164:107|58:81,1,120,10|8,3:2|0:2,0:2:0:0:
76,83,143646,1,2,1:2:0:0:
4,170,143846,2,0,P|-4:208|13:256,1,80,8|0,0:2|0:2,0:2:0:0:
14,261,144146,2,0,L|61:265,1,40,0|8,1:2|0:2,0:2:0:0:
192,263,144446,1,2,1:2:0:0:
192,263,144546,1,0,1:2:0:0:
192,263,144646,1,0,3:2:0:0:
119,340,144846,1,8,0:2:0:0:
260,384,145046,5,2,0:2:0:0:
263,364,145146,1,8,0:2:0:0:
267,344,145246,1,0,1:2:0:0:
381,318,145446,1,8,0:2:0:0:
381,318,145546,2,0,B|419:330|419:330|474:309,1,80,0|0,1:2|0:2,0:2:0:0:
474,307,145846,1,8,0:2:0:0:
386,213,146046,1,2,1:2:0:0:
485,132,146246,5,0,3:2:0:0:
485,132,146346,1,0,1:2:0:0:
485,132,146446,2,0,P|501:75|483:33,1,95.9999970703126,14|0,0:2|1:2,0:2:0:0:
473,23,146746,1,0,1:2:0:0:
453,8,146846,1,10,3:2:0:0:
305,55,147046,2,0,P|293:100|309:145,1,95.9999970703126,14|0,0:2|1:2,0:2:0:0:
376,216,147446,1,14,0:2:0:0:
228,259,147646,1,0,1:2:0:0:
228,259,147746,1,8,2:2:0:0:
387,323,147946,1,0,1:2:0:0:
387,323,148046,1,12,2:2:0:0:
280,370,148246,5,2,0:2:0:0:
282,354,148346,1,8,0:2:0:0:
284,338,148446,1,0,1:2:0:0:
348,244,148646,1,8,0:2:0:0:
348,244,148746,2,0,P|361:217|345:162,1,80,0|0,1:2|0:2,0:2:0:0:
342,151,149046,1,10,0:2:0:0:
272,67,149246,1,2,1:2:0:0:
181,163,149446,5,8,3:2:0:0:
181,163,149546,1,0,1:2:0:0:
181,163,149646,2,0,P|141:182|96:175,1,80,10|0,3:2|0:2,0:2:0:0:
86,174,149946,2,0,P|73:156|70:117,1,40,10|0,0:2|1:2,0:2:0:0:
119,20,150246,2,0,P|157:7|200:8,1,80,10|0,0:2|0:2,0:2:0:0:
309,95,150646,1,10,0:2:0:0:
398,11,150846,1,0,1:2:0:0:
398,11,150946,1,0,1:2:0:0:
398,11,151046,1,8,3:2:0:0:
495,121,151246,6,0,P|506:176|486:257,1,132.00000402832,14|8,0:2|0:2,0:2:0:0:
479,268,151646,1,2,1:2:0:0:
364,167,151846,2,0,P|278:127|147:155,1,207.999990478516,14|8,0:2|0:2,0:2:0:0:
30,259,152446,5,2,1:2:0:0:
162,340,152646,1,8,3:2:0:0:
162,340,152746,1,0,1:2:0:0:
162,340,152846,2,0,L|154:247,1,88.000002685547,14|8,3:2|0:2,0:2:0:0:
120,138,153246,5,0,1:2:0:0:
120,138,153346,1,0,1:2:0:0:
120,138,153446,2,0,B|170:245|40:322|-126:297|-246:-7|255:-202|282:191|142:232|130:232|57:445|704:663|792:-94|43:-125|169:205|181:406|393:417|468:332,1,1151.99996484375,14|2,1:2|0:2,0:1:0:0:
461,339,156246,6,0,L|468:371,2,30.0000011444092,8|8|8,3:3|3:3|1:2,0:2:0:0:
187,221,161646,5,0,0:2:0:0:
325,163,162046,5,0,0:2:0:0:
176,126,162446,5,0,0:2:0:0:
336,258,162846,5,0,0:2:0:0:
467,192,163246,6,0,P|476:147|453:93,1,95.9999970703126,2|0,0:2|0:2,0:2:0:0:
410,41,163846,2,0,P|376:61|309:51,1,95.9999970703126,0|0,0:2|0:2,0:2:0:0:
262,7,164446,1,0,0:2:0:0:
196,47,164646,2,0,P|177:84|184:153,1,95.9999970703126,2|0,0:2|0:2,0:2:0:0:
213,205,165246,1,0,0:2:0:0:
284,232,165446,2,0,P|326:215|380:215,1,95.9999970703126,0|0,0:2|0:2,0:2:0:0:
443,251,166046,2,0,P|454:272|457:311,1,47.9999985351563,0|0,0:2|0:2,0:2:0:0:
381,370,166446,6,0,L|253:356,1,111.999996582031,2|0,0:2|0:2,0:2:0:0:
185,266,167046,2,0,L|313:252,1,111.999996582031,0|0,0:2|0:2,0:2:0:0:
363,168,167646,2,0,P|367:140|344:97,1,55.9999982910157,0|0,0:2|0:2,0:2:0:0:
275,20,168046,5,2,0:2:0:0:
248,90,168246,1,0,0:2:0:0:
200,31,168446,1,0,0:2:0:0:
189,138,168646,1,0,0:2:0:0:
296,149,168846,1,0,0:2:0:0:
307,42,169046,1,0,0:2:0:0:
394,69,169246,5,0,0:2:0:0:
407,67,169346,1,0,0:2:0:0:
421,65,169446,1,0,0:2:0:0:
435,63,169546,1,0,0:2:0:0:
449,61,169646,2,0,P|472:90|474:160,1,83.9999974365235,2|0,0:2|0:2,0:2:0:0:
494,147,170046,2,0,P|499:183|458:252,1,96,2|0,0:2|0:2,0:2:0:0:
480,256,170446,2,0,P|466:290|391:328,1,107.999996704102,2|0,0:2|0:2,0:2:0:0:
400,345,170846,2,0,P|371:367|281:354,1,120,2|0,0:2|0:2,0:2:0:0:
277,374,171246,6,0,P|254:337|251:305,1,64,2|0,0:2|0:2,0:2:0:0:
197,119,171646,2,0,P|171:157|166:212,1,80,2|0,0:2|0:2,0:2:0:0:
83,384,172046,2,0,P|49:349|32:277,1,95.9999970703126,2|0,0:2|0:2,0:2:0:0:
32,118,172446,5,0,3:2:0:0:
44,112,172546,5,0,3:2:0:0:
40,99,172646,5,0,3:2:0:0:
26,104,172746,5,0,3:2:0:0:
36,108,173246,5,14,1:2:0:0:
156,193,173446,1,8,0:2:0:0:
156,193,173546,1,0,1:0:0:0:
298,159,173746,1,0,1:0:0:0:
298,159,173846,1,8,0:2:0:0:
402,24,174046,5,2,1:2:0:0:
366,29,174146,1,0,3:2:0:0:
331,12,174246,1,0,3:2:0:0:
295,20,174346,1,0,3:2:0:0:
261,5,174446,1,10,3:2:0:0:
413,112,174646,5,0,1:2:0:0:
457,125,174746,1,0,1:2:0:0:
483,163,174846,1,8,3:3:0:0:
492,208,174946,1,8,3:3:0:0:
482,253,175046,2,0,B|469:300|469:300|474:315|474:315|446:400,1,103.999995239258,14|0,3:2|0:2,0:2:0:0:
451,382,175346,1,8,0:3:0:0:
451,382,175446,1,4,0:3:0:0:
298,304,175646,5,0,1:2:0:0:
298,304,175746,1,0,1:2:0:0:
298,304,175846,2,0,L|287:225,1,51.999997619629,10|8,3:2|0:2,0:2:0:0:
239,195,176046,2,0,B|124:181|206:135|71:118,1,180.000006866455,14|8,0:2|0:2,0:1:0:0:
56,122,176446,5,2,1:2:0:0:
159,259,176646,1,8,0:2:0:0:
159,259,176746,2,0,P|167:309|146:364,1,103.999995239258,0|0,1:2|0:2,0:2:0:0:
134,379,177046,1,8,0:2:0:0:
272,272,177246,1,2,1:2:0:0:
383,356,177446,5,8,3:2:0:0:
383,356,177546,1,0,1:2:0:0:
383,356,177646,2,2,B|405:383|405:383|482:381|506:313,1,167.999994873047,14|0,0:2|0:2,0:1:0:0:
456,236,178046,6,2,B|491:239|491:239|544:183|505:97,1,180.000006866455,14|0,0:2|0:2,0:1:0:0:
410,102,178446,6,2,B|436:83|436:83|434:21|363:0,1,128,14|8,0:2|0:2,0:1:0:0:
249,61,178846,5,12,3:2:0:0:
254,92,178946,1,8,3:2:0:0:
260,124,179046,1,8,3:2:0:0:
265,155,179146,1,8,3:2:0:0:
271,187,179246,2,0,B|261:226|261:226|268:252|268:252|251:307,1,103.999995239258,14|0,2:2|0:2,0:2:0:0:
118,378,179646,1,2,1:2:0:0:
41,291,179846,1,8,0:2:0:0:
41,291,179946,2,0,B|30:255|30:255|37:229|37:229|27:190,1,103.999995239258,0|0,1:2|0:2,0:2:0:0:
18,166,180246,1,8,0:2:0:0:
59,46,180446,1,0,1:2:0:0:
169,13,180646,5,10,3:2:0:0:
169,13,180746,1,0,1:2:0:0:
169,13,180846,1,8,3:2:0:0:
221,163,181046,1,0,3:2:0:0:
221,163,181146,1,8,3:2:0:0:
221,163,181246,1,0,1:2:0:0:
358,79,181446,2,0,P|434:74|508:187,1,207.999990478516,10|0,0:2|3:2,0:2:0:0:
471,336,182046,1,0,1:2:0:0:
465,321,182146,1,0,1:2:0:0:
459,308,182246,1,8,3:2:0:0:
282,248,182446,6,0,L|391:229,1,103.999995239258,10|0,0:2|0:2,0:2:0:0:
408,219,182746,2,0,P|411:184|403:161,1,51.999997619629,8|0,0:2|1:2,0:2:0:0:
275,0,183046,1,10,0:2:0:0:
227,150,183246,1,0,1:2:0:0:
227,150,183346,1,0,1:2:0:0:
227,150,183446,1,8,3:2:0:0:
336,94,183646,1,8,0:2:0:0:
166,43,183846,5,10,1:2:0:0:
141,33,183946,1,8,3:2:0:0:
115,26,184046,1,8,0:2:0:0:
95,156,184246,1,8,3:2:0:0:
69,160,184346,1,8,3:2:0:0:
43,166,184446,1,0,1:2:0:0:
147,281,184646,1,8,3:2:0:0:
128,299,184746,1,8,3:2:0:0:
110,318,184846,1,0,1:2:0:0:
287,324,185046,6,8,P|307:335|345:339,1,40,10|8,3:2|3:2,0:2:0:0:
414,295,185246,2,8,L|434:234,1,44.0000013427735,10|8,3:2|3:2,0:2:0:0:
383,151,185446,2,8,P|363:140|318:134,1,47.9999985351563,10|8,1:2|3:2,0:2:0:0:
234,186,185646,6,0,B|195:210|195:210|132:207|108:143,1,155.999992858887,14|8,0:2|0:2,0:2:0:0:
100,125,186046,1,2,1:2:0:0:
227,38,186246,1,8,0:2:0:0:
227,38,186346,2,0,B|277:50|277:50|327:25,1,103.999995239258,0|0,1:2|0:2,0:2:0:0:
347,15,186646,1,8,0:2:0:0:
331,160,186846,1,2,1:2:0:0:
484,159,187046,1,8,3:2:0:0:
484,159,187146,1,0,1:2:0:0:
484,159,187246,2,0,B|533:194|526:266|526:266|497:287,1,155.999992858887,10|8,3:2|0:2,0:2:0:0:
477,302,187646,5,2,1:2:0:0:
356,382,187846,1,10,0:2:0:0:
356,382,187946,1,0,3:2:0:0:
225,328,188146,1,0,3:2:0:0:
225,328,188246,1,10,2:2:0:0:
339,236,188446,1,0,1:2:0:0:
355,216,188546,1,0,3:2:0:0:
366,192,188646,1,0,3:2:0:0:
368,166,188746,1,0,3:2:0:0:
356,142,188846,2,0,B|315:95|347:39|347:39|309:10,1,155.999992858887,10|8,3:2|0:2,0:2:0:0:
288,0,189246,5,2,1:2:0:0:
170,125,189446,1,8,0:2:0:0:
169,125,189546,2,0,P|118:136|71:116,1,103.999995239258,0|0,1:2|0:2,0:2:0:0:
48,104,189846,1,8,0:2:0:0:
101,271,190046,1,2,1:2:0:0:
255,194,190246,5,8,3:2:0:0:
255,194,190346,1,0,1:2:0:0:
255,194,190446,2,0,B|301:186|301:186|320:197|320:197|384:187,1,120.000004577637,14|0,3:2|0:2,0:2:0:0:
384,177,190746,1,10,3:2:0:0:
398,165,190846,1,0,1:2:0:0:
512,327,191046,2,0,B|466:319|466:319|447:330|447:330|383:320,1,120.000004577637,14|0,0:2|1:2,0:2:0:0:
238,384,191446,1,10,0:2:0:0:
149,284,191646,1,0,1:2:0:0:
165,259,191746,1,8,3:2:0:0:
173,230,191846,1,0,3:2:0:0:
172,200,191946,1,0,1:2:0:0:
161,172,192046,6,0,B|140:143|140:143|157:62,1,103.999995239258,14|0,0:2|0:2,0:2:0:0:
292,0,192446,1,2,1:2:0:0:
399,65,192646,1,8,0:2:0:0:
399,65,192746,2,0,B|413:131|413:131|392:160,1,103.999995239258,0|0,1:2|0:2,0:2:0:0:
379,183,193046,1,8,0:2:0:0:
511,256,193246,1,0,1:2:0:0:
408,365,193446,5,10,3:2:0:0:
408,365,193546,1,0,1:2:0:0:
408,365,193646,1,8,3:2:0:0:
369,209,193846,1,0,3:2:0:0:
369,209,193946,1,0,3:2:0:0:
369,209,194046,1,0,1:2:0:0:
239,305,194246,2,0,P|178:319|92:266,1,155.999992858887,10|0,0:2|0:2,0:2:0:0:
83,255,194646,1,8,0:2:0:0:
253,187,194846,1,0,1:2:0:0:
266,164,194946,1,0,1:2:0:0:
269,138,195046,1,8,3:2:0:0:
159,34,195246,6,0,B|118:27|118:27|99:39|99:39|49:31,1,103.999995239258,14|0,0:2|0:2,0:2:0:0:
34,27,195546,1,8,0:2:0:0:
8,22,195646,1,0,1:2:0:0:
148,159,195846,1,8,0:2:0:0:
275,12,196046,1,0,1:2:0:0:
159,34,196246,1,8,0:2:0:0:
253,187,196446,1,0,1:2:0:0:
382,2,196646,1,8,3:2:0:0:
382,2,196746,1,0,1:2:0:0:
382,2,196846,1,10,3:1:0:0:
451,223,197046,1,10,0:1:0:0:
277,97,197446,6,8,L|290:95,1,10.0000003814697,8|8,0:3|0:3,0:3:0:0:
161,234,197846,5,8,0:3:0:0:
161,234,197946,1,4,0:3:0:0:
161,234,198046,2,0,L|243:250,1,60.0000022888184,0|8,1:2|0:2,0:2:0:0:
337,384,198446,6,0,P|350:356|331:297,1,80,14|0,0:2|0:2,0:2:0:0:
332,295,198746,2,0,L|260:309,1,40,10|0,0:2|1:2,0:2:0:0:
161,234,199046,1,10,0:2:0:0:
154,219,199146,1,0,3:2:0:0:
291,185,199346,1,0,3:2:0:0:
295,169,199446,1,10,0:2:0:0:
150,111,199646,5,0,1:2:0:0:
150,111,199746,1,0,1:2:0:0:
150,111,199846,2,0,P|92:126|38:49,1,160,8|8,3:2|0:2,0:2:0:0:
183,0,200446,1,0,1:2:0:0:
269,106,200646,1,10,0:2:0:0:
262,129,200746,1,0,1:2:0:0:
254,151,200846,1,8,0:2:0:0:
245,173,200946,2,0,B|232:202|232:202|234:219|234:219|216:272,1,80,0|8,1:2|0:2,0:2:0:0:
214,270,201246,1,2,1:2:0:0:
310,370,201446,5,0,3:2:0:0:
310,370,201546,1,0,3:2:0:0:
310,370,201646,2,0,L|398:358,1,80,14|0,3:2|0:2,0:2:0:0:
404,354,201946,2,0,P|413:326|405:293,1,40,10|0,0:2|1:2,0:2:0:0:
333,219,202246,1,10,0:2:0:0:
325,233,202346,1,0,3:2:0:0:
452,185,202546,1,0,3:2:0:0:
465,201,202646,1,10,0:2:0:0:
346,117,202846,5,0,1:2:0:0:
346,117,202946,1,0,1:2:0:0:
346,117,203046,2,0,B|247:98|312:60|202:42,1,160,8|8,3:2|0:2,0:2:0:0:
76,31,203646,1,0,1:2:0:0:
187,147,203846,5,8,3:2:0:0:
187,147,203946,1,0,1:2:0:0:
187,147,204046,2,0,P|200:162|204:199,1,40,10|0,3:2|3:2,0:2:0:0:
148,236,204246,2,0,L|87:228,1,40,10|0,0:2|3:2,0:2:0:0:
56,289,204446,2,0,P|61:308|74:323,1,40,2|0,1:2|3:2,0:2:0:0:
171,364,204646,5,8,3:2:0:0:
171,364,204746,1,0,1:2:0:0:
171,364,204846,2,0,P|208:352|255:349,1,80,14|0,3:2|0:2,0:2:0:0:
264,353,205146,2,0,L|312:369,1,40,10|0,0:2|1:2,0:2:0:0:
434,295,205446,1,10,0:2:0:0:
447,286,205546,1,0,3:2:0:0:
337,221,205746,1,0,3:2:0:0:
324,211,205846,1,10,0:2:0:0:
440,144,206046,5,0,1:2:0:0:
440,144,206146,1,0,1:2:0:0:
440,144,206246,2,0,B|473:124|473:124|493:49|430:21,1,160,8|8,3:2|0:2,0:2:0:0:
324,131,206846,1,0,1:2:0:0:
426,228,207046,1,10,0:2:0:0:
444,243,207146,1,0,1:2:0:0:
455,264,207246,1,8,0:2:0:0:
462,286,207346,2,0,P|461:325|444:365,1,80,0|8,1:2|0:2,0:2:0:0:
428,379,207646,1,2,1:2:0:0:
285,307,207846,5,0,3:2:0:0:
285,307,207946,1,0,3:2:0:0:
285,307,208046,2,0,B|276:277|276:277|279:259|279:259|263:211,1,80,14|0,0:2|1:2,0:2:0:0:
255,210,208346,1,8,0:3:0:0:
236,194,208446,1,8,0:3:0:0:
228,171,208546,1,8,0:3:0:0:
232,147,208646,2,0,B|238:109|238:109|208:47,1,80,14|0,3:2|3:2,0:2:0:0:
47,4,209046,5,2,3:2:0:0:
31,32,209146,1,0,3:2:0:0:
43,61,209246,1,0,1:2:0:0:
24,87,209346,1,0,1:2:0:0:
36,116,209446,2,0,B|47:144|47:144|47:161|47:161|63:205,1,80,6|0,3:2|0:0,0:2:0:0:
135,348,209846,2,0,B|146:320|146:320|146:303|146:303|157:272,1,80,10|0,0:2|1:2,0:2:0:0:
239,154,210246,5,10,3:2:0:0:
239,154,210346,1,0,1:2:0:0:
239,154,210446,1,8,3:2:0:0:
334,235,210646,2,8,L|323:193,2,26.6666666666667,8|8|8,0:2|0:2|0:2,0:2:0:0:
346,250,210846,2,0,P|387:252|421:229,1,80,2|4,1:2|0:3,0:2:0:0:
256,32,211246,5,14,0:2:0:0:
256,192,211346,12,4,217646,0:1:0:0:
